[古典] (Classical/Orchestral/Symphony) Beethoven - Complete Symphonies (Christiane Oelze, Petra Lang, Klaus Florian Vogt, Matthias Goerne, Deutscher Kammerchor, Deutsche Kammerphilharmoni

[复制链接]
lz189 发表于 2021-9-10 16:56:51 | 显示全部楼层 |阅读模式 打印 上一主题 下一主题
Ludwig van Beethoven - The Symphonies - The Deutsche Kammerphilharmonie Bremen, Paavo Järvi (5 CD)
Жанр: Classical/Orchestral/Symphony
Страна-производитель диска: EU
Год издания диска: 2006-2009
Издатель (лейбл): Sony Music (RCA Red Seal)
Номер по каталогу: 88697006552, 88697129332, 88697338352, 88697542542, 88697576062
Дата записи: 2004-2008
Аудиокодек: FLAC
Тип рипа: image+.cue
Битрейт аудио: lossless
Продолжительность: 69'32 + 69'23 + 54'23 + 72'51 + 63'55
Источник: скачано с
сайт-источник/ник/другое: avaxhome
Наличие сканов в содержимом раздачи: да
Треклист:
Symphonies No. 3 'Eroica' & No. 8
Symphony No. 3 in E flat major op. 55 / Eroica
01. I. Allegro con brio [0:15:21.68]
02. II. Marcia funebre. Adagio assai [0:13:18.55]
03. III. Scherzo. Allegro vivace [0:05:31.21]
04. IV. Finale. Allegro molto [0:11:03.40]
Symphony No. 8 in F major op. 93
05. I. Allegro vivace e con brio [0:08:07.51]
06. II. Allegretto scherzando [0:03:50.15]
07. III. Tempo di Menuetto [0:05:30.01]
08. IV. Allegro vivace [0:06:43.74]
Лог создания рипа

Exact Audio Copy V1.0 beta 3 from 29. August 2011
EAC extraction logfile from 24. June 2012, 15:05
The Deutsche Kammerphilharmonie Bremen - Paavo Järvi / Beethoven: Symphonies No. 3 "Eroica" & No.8
Used drive  : PIONEER BD-RW   BDR-206   Adapter: 2  ID: 3
Read mode               : Secure
Utilize accurate stream : Yes
Defeat audio cache      : Yes
Make use of C2 pointers : No
Read offset correction                      : 667
Overread into Lead-In and Lead-Out          : No
Fill up missing offset samples with silence : Yes
Delete leading and trailing silent blocks   : No
Null samples used in CRC calculations       : Yes
Used interface                              : Native Win32 interface for Win NT & 2000
Used output format              : User Defined Encoder
Selected bitrate                : 896 kBit/s
Quality                         : High
Add ID3 tag                     : No
Command line compressor         : C:\Program Files\FLAC\flac.exe
Additional command line options : -5 -T "Artist=%artist%" -T "Title=%title%" -T "Album=%albumtitle%" -T "Date=%year%" -T "Tracknumber=%tracknr%" -T "Genre=%genre%" %source% -o %dest%
TOC of the extracted CD
     Track |   Start  |  Length  | Start sector | End sector
    ---------------------------------------------------------
        1  |  0:00.00 | 15:21.68 |         0    |    69142
        2  | 15:21.68 | 13:18.55 |     69143    |   129047
        3  | 28:40.48 |  5:31.21 |    129048    |   153893
        4  | 34:11.69 | 11:03.40 |    153894    |   203658
        5  | 45:15.34 |  8:07.51 |    203659    |   240234
        6  | 53:23.10 |  3:50.15 |    240235    |   257499
        7  | 57:13.25 |  5:30.01 |    257500    |   282250
        8  | 62:43.26 |  6:43.74 |    282251    |   312549
Range status and errors
Selected range
     Filename I:\=== VINYL RIPS ===\=== EAC===\X FRESH RIP\Beethoven- Kammerphilharmonie Bremen, Järvi - Symphonies No. 3 ''Eroica'' & No.8.wav
     Peak level 100.0 %
     Extraction speed 1.4 X
     Range quality 100.0 %
     Test CRC FC59FF6B
     Copy CRC FC59FF6B
     Copy OK
No errors occurred
AccurateRip summary
Track  1  accurately ripped (confidence 10)  [199CBA47]  (AR v2)
Track  2  accurately ripped (confidence 10)  [37C858E6]  (AR v2)
Track  3  accurately ripped (confidence 10)  [E2859D23]  (AR v2)
Track  4  accurately ripped (confidence 10)  [2F14B47F]  (AR v2)
Track  5  accurately ripped (confidence 10)  [5D124136]  (AR v2)
Track  6  accurately ripped (confidence 10)  [7571AD86]  (AR v2)
Track  7  accurately ripped (confidence 10)  [BA6F9803]  (AR v2)
Track  8  accurately ripped (confidence 10)  [3D0F81EB]  (AR v2)
All tracks accurately ripped
End of status report
---- CUETools DB Plugin V2.1.3
[CTDB TOCID: KKFd3uDYmM_E_wXZFDB0FKZxZTs-] found, Submit result: KKFd3uDYmM_E_wXZFDB0FKZxZTs- has been confirmed
[8e58b636] (7/8) Accurately ripped
[1b6191b1] (1/8) No match
==== Log checksum E344107480B1D5669D3C675C1970A6FE610D2618EB263D1943EE3E3FFF9D1A37 ====


Содержание индексной карты (.CUE)

REM GENRE Classical
REM DATE 2006
REM DISCID 65104708
REM COMMENT "ExactAudioCopy v1.0b3"
CATALOG 4988017640012
PERFORMER "The Deutsche Kammerphilharmonie Bremen, Paavo Järvi"
TITLE "Beethoven: Symphonies No. 3 'Eroica' & No. 8"
FILE "Symphonies No. 3 Eroica & No. 8.flac" WAVE
  TRACK 01 AUDIO
    TITLE "Symphony No. 3 in E flat major op. 55 / Eroica - I. Allegro con brio"
    PERFORMER "The Deutsche Kammerphilharmonie Bremen, Paavo Järvi"
    ISRC JPBV00500566
    INDEX 01 00:00:00
  TRACK 02 AUDIO
    TITLE "Symphony No. 3 in E flat major op. 55 / Eroica - II. Marcia funebre. Adagio assai"
    PERFORMER "The Deutsche Kammerphilharmonie Bremen, Paavo Järvi"
    ISRC JPBV00500567
    INDEX 01 15:21:68
  TRACK 03 AUDIO
    TITLE "Symphony No. 3 in E flat major op. 55 / Eroica - III. Scherzo. Allegro vivace"
    PERFORMER "The Deutsche Kammerphilharmonie Bremen, Paavo Järvi"
    ISRC JPBV00500568
    INDEX 01 28:40:48
  TRACK 04 AUDIO
    TITLE "Symphony No. 3 in E flat major op. 55 / Eroica - IV. Finale. Allegro molto"
    PERFORMER "The Deutsche Kammerphilharmonie Bremen, Paavo Järvi"
    ISRC JPBV00500569
    INDEX 01 34:11:69
  TRACK 05 AUDIO
    TITLE "Symphony No. 8 in F major op. 93 - I. Allegro vivace e con brio"
    PERFORMER "The Deutsche Kammerphilharmonie Bremen, Paavo Järvi"
    ISRC JPBV00400989
    INDEX 00 45:06:54
    INDEX 01 45:15:34
  TRACK 06 AUDIO
    TITLE "Symphony No. 8 in F major op. 93 - II. Allegretto scherzando"
    PERFORMER "The Deutsche Kammerphilharmonie Bremen, Paavo Järvi"
    ISRC JPBV00400990
    INDEX 00 53:21:30
    INDEX 01 53:23:10
  TRACK 07 AUDIO
    TITLE "Symphony No. 8 in F major op. 93 - III. Tempo di Menuetto"
    PERFORMER "The Deutsche Kammerphilharmonie Bremen, Paavo Järvi"
    ISRC JPBV00400991
    INDEX 01 57:13:25
  TRACK 08 AUDIO
    TITLE "Symphony No. 8 in F major op. 93 - IV. Allegro vivace"
    PERFORMER "The Deutsche Kammerphilharmonie Bremen, Paavo Järvi"
    ISRC JPBV00400992
    INDEX 01 62:43:26



Symphonies No. 4 & No. 7
Symphony No. 4 in B flat major op. 60
01. I. Adagio/Allegro vivace [0:10:50.21]
02. II. Adagio [0:08:35.54]
03. III. Menuetto/Trio. Allegro vivace/Un poco meno allegro [0:05:28.00]
04. IV. Allegro ma non troppo [0:06:12.74]
Symphony No. 7 in A major op. 92
05. I. Poco sostenuto - Vivace [0:13:13.51]
06. II. Allegretto [0:07:43.37]
07. III. Presto - Assai meno presto [0:08:52.54]
08. IV. Allegro con brio [0:08:26.71]
Лог создания рипа

Exact Audio Copy V1.0 beta 3 from 29. August 2011
EAC extraction logfile from 24. June 2012, 17:08
The Deutsche Kammerphilharmonie Bremen - Paavo Järvi / Beethoven: Symphonies No. 4 & No. 7
Used drive  : PIONEER BD-RW   BDR-206   Adapter: 2  ID: 3
Read mode               : Secure
Utilize accurate stream : Yes
Defeat audio cache      : Yes
Make use of C2 pointers : No
Read offset correction                      : 667
Overread into Lead-In and Lead-Out          : No
Fill up missing offset samples with silence : Yes
Delete leading and trailing silent blocks   : No
Null samples used in CRC calculations       : Yes
Used interface                              : Native Win32 interface for Win NT & 2000
Used output format              : User Defined Encoder
Selected bitrate                : 896 kBit/s
Quality                         : High
Add ID3 tag                     : No
Command line compressor         : C:\Program Files\FLAC\flac.exe
Additional command line options : -5 -T "Artist=%artist%" -T "Title=%title%" -T "Album=%albumtitle%" -T "Date=%year%" -T "Tracknumber=%tracknr%" -T "Genre=%genre%" %source% -o %dest%
TOC of the extracted CD
     Track |   Start  |  Length  | Start sector | End sector
    ---------------------------------------------------------
        1  |  0:00.00 | 10:50.21 |         0    |    48770
        2  | 10:50.21 |  8:35.54 |     48771    |    87449
        3  | 19:26.00 |  5:28.00 |     87450    |   112049
        4  | 24:54.00 |  6:12.74 |    112050    |   140023
        5  | 31:06.74 | 13:13.51 |    140024    |   199549
        6  | 44:20.50 |  7:43.37 |    199550    |   234311
        7  | 52:04.12 |  8:52.54 |    234312    |   274265
        8  | 60:56.66 |  8:26.71 |    274266    |   312286
Range status and errors
Selected range
     Filename I:\=== VINYL RIPS ===\=== EAC===\X FRESH RIP\Beethoven- Kammerphilharmonie Bremen, Järvi - Symphonies No. 4 & No. 7.wav
     Peak level 99.8 %
     Extraction speed 8.1 X
     Range quality 100.0 %
     Test CRC 23DE78F1
     Copy CRC 23DE78F1
     Copy OK
No errors occurred
AccurateRip summary
Track  1  accurately ripped (confidence 15)  [9DE9B9D3]  (AR v2)
Track  2  accurately ripped (confidence 15)  [B1182920]  (AR v2)
Track  3  accurately ripped (confidence 15)  [238CAA26]  (AR v2)
Track  4  accurately ripped (confidence 15)  [ED9A84DD]  (AR v2)
Track  5  accurately ripped (confidence 15)  [F0D50449]  (AR v2)
Track  6  accurately ripped (confidence 15)  [06AA268F]  (AR v2)
Track  7  accurately ripped (confidence 14)  [DF093413]  (AR v2)
Track  8  accurately ripped (confidence 14)  [A26FF616]  (AR v2)
All tracks accurately ripped
End of status report
---- CUETools DB Plugin V2.1.3
[CTDB TOCID: 1xHG046XKyFfH3FH.CA87_khnb0-] found, Submit result: 1xHG046XKyFfH3FH.CA87_khnb0- has been confirmed
[f2c7411a] (27/27) Accurately ripped
==== Log checksum 5B28788A7C527F9B9C16015AA38B5E091A02F642881C3400F679743A620791BE ====


Содержание индексной карты (.CUE)

REM GENRE Classical
REM DATE 2007
REM DISCID 7C104308
REM COMMENT "ExactAudioCopy v1.0b3"
CATALOG 4988017648476
PERFORMER "The Deutsche Kammerphilharmonie Bremen, Paavo Järvi"
TITLE "Beethoven: Symphonies No. 4 & No. 7"
FILE "Symphonies No. 4 & No. 7.flac" WAVE
  TRACK 01 AUDIO
    TITLE "Symphony No. 4 in B flat major op. 60 - I. Adagio-Allegro vivace"
    PERFORMER "The Deutsche Kammerphilharmonie Bremen, Paavo Järvi"
    ISRC JPBV00500624
    INDEX 01 00:00:00
  TRACK 02 AUDIO
    TITLE "Symphony No. 4 in B flat major op. 60 - II. Adagio"
    PERFORMER "The Deutsche Kammerphilharmonie Bremen, Paavo Järvi"
    ISRC JPBV00500625
    INDEX 01 10:50:21
  TRACK 03 AUDIO
    TITLE "Symphony No. 4 in B flat major op. 60 - III. Menuetto/Trio. Allegro vivace/Un poco meno allegro"
    PERFORMER "The Deutsche Kammerphilharmonie Bremen, Paavo Järvi"
    ISRC JPBV00500626
    INDEX 01 19:26:00
  TRACK 04 AUDIO
    TITLE "Symphony No. 4 in B flat major op. 60 - IV. Allegro ma non troppo"
    PERFORMER "The Deutsche Kammerphilharmonie Bremen, Paavo Järvi"
    ISRC JPBV00500627
    INDEX 01 24:54:00
  TRACK 05 AUDIO
    TITLE "Symphony No. 7 in A major op. 92 - I. Poco sostenuto - Vivace"
    PERFORMER "The Deutsche Kammerphilharmonie Bremen, Paavo Järvi"
    ISRC JPBV00401005
    INDEX 00 31:02:41
    INDEX 01 31:06:74
  TRACK 06 AUDIO
    TITLE "Symphony No. 7 in A major op. 92 - II. Allegretto"
    PERFORMER "The Deutsche Kammerphilharmonie Bremen, Paavo Järvi"
    ISRC JPBV00401006
    INDEX 01 44:20:50
  TRACK 07 AUDIO
    TITLE "Symphony No. 7 in A major op. 92 - III. Presto - Assai meno presto"
    PERFORMER "The Deutsche Kammerphilharmonie Bremen, Paavo Järvi"
    ISRC JPBV00401007
    INDEX 01 52:04:12
  TRACK 08 AUDIO
    TITLE "Symphony No. 7 in A major op. 92 - IV. Allegro con brio"
    PERFORMER "The Deutsche Kammerphilharmonie Bremen, Paavo Järvi"
    ISRC JPBV00401008
    INDEX 01 60:56:66



Symphonies No. 5 & No. 1
Symphony No. 5 in C minor op. 67
01. I. Allegro con brio [0:06:58.00]
02. II. Andante con moto [0:08:19.37]
03. III. Allegro [0:04:45.14]
04. IV. Allegro [0:10:25.54]
Symphony No. 1 in C major op. 21
05. I. Adagio molto - Allegro con brio [0:08:24.10]
06. II. Andante cantabile con moto [0:06:27.23]
07. III. Minuetto/Allegro molto e vivace [0:04:00.63]
08. IV. Finale/Adagio - Allegro molto e vivace [0:05:31.08]
Лог создания рипа

Exact Audio Copy V1.0 beta 3 from 29. August 2011
EAC extraction logfile from 1. October 2012, 12:44
The Deutsche Kammerphlharmonie, Järvi / Beethoven: Symphonien Nr. 5 & 1
Used drive  : PIONEER BD-RW   BDR-206   Adapter: 0  ID: 2
Read mode               : Secure
Utilize accurate stream : Yes
Defeat audio cache      : Yes
Make use of C2 pointers : No
Read offset correction                      : 667
Overread into Lead-In and Lead-Out          : No
Fill up missing offset samples with silence : Yes
Delete leading and trailing silent blocks   : No
Null samples used in CRC calculations       : Yes
Used interface                              : Native Win32 interface for Win NT & 2000
Used output format              : User Defined Encoder
Selected bitrate                : 1024 kBit/s
Quality                         : High
Add ID3 tag                     : Yes
Command line compressor         : C:\Program Files\FLAC\flac.exe
Additional command line options : -5 -T "Artist=%artist%" -T "Title=%title%" -T "Album=%albumtitle%" -T "Date=%year%" -T "Tracknumber=%tracknr%" -T "Genre=%genre%" %source% -o %dest%
TOC of the extracted CD
     Track |   Start  |  Length  | Start sector | End sector
    ---------------------------------------------------------
        1  |  0:00.00 |  6:58.00 |         0    |    31349
        2  |  6:58.00 |  8:19.37 |     31350    |    68811
        3  | 15:17.37 |  4:45.14 |     68812    |    90200
        4  | 20:02.51 | 10:25.54 |     90201    |   137129
        5  | 30:28.30 |  8:24.10 |    137130    |   174939
        6  | 38:52.40 |  6:27.23 |    174940    |   203987
        7  | 45:19.63 |  4:00.63 |    203988    |   222050
        8  | 49:20.51 |  5:31.08 |    222051    |   246883
Range status and errors
Selected range
     Filename F:\=== VINYL RIPS ===\=== EAC===\X FRESH RIP\Beethoven- Deutsche Kammerphlharmonie, Järvi - Symphonien Nr. 5 & 1.wav
     Peak level 100.0 %
     Extraction speed 7.6 X
     Range quality 99.9 %
     Test CRC CF2E1800
     Copy CRC CF2E1800
     Copy OK
No errors occurred
AccurateRip summary
Track  1  accurately ripped (confidence 9)  [D2D04014]  (AR v2)
Track  2  accurately ripped (confidence 9)  [E4CAE5ED]  (AR v2)
Track  3  accurately ripped (confidence 9)  [24202F1A]  (AR v2)
Track  4  accurately ripped (confidence 9)  [9F3ED88D]  (AR v2)
Track  5  accurately ripped (confidence 9)  [2C311F77]  (AR v2)
Track  6  accurately ripped (confidence 9)  [C45AF77F]  (AR v2)
Track  7  accurately ripped (confidence 9)  [BC6FBACC]  (AR v2)
Track  8  accurately ripped (confidence 9)  [5FD8C708]  (AR v2)
All tracks accurately ripped
End of status report
---- CUETools DB Plugin V2.1.3
[CTDB TOCID: F2.sV5.Pwo4n5.5QdKNT6X.xz94-] found, Submit result: F2.sV5.Pwo4n5.5QdKNT6X.xz94- has been confirmed
[5e6ba026] (10/11) Accurately ripped
[ba4e626e] (01/11) No match
==== Log checksum 67B288E336F591F0ACD3CB9416F10467F8D09DB80ABAB1FB677D4B78A596085C ====


Содержание индексной карты (.CUE)

REM GENRE Symphonie
REM DATE 2006
REM DISCID 590CDB08
REM COMMENT "ExactAudioCopy v1.0b3"
CATALOG 4988017659373
PERFORMER "The Deutsche Kammerphilharmonie Bremen, Paavo Järvi"
TITLE "Beethoven: Symphonies No. 5 & No. 1"
FILE "Symphonies No. 5 & No. 1.flac" WAVE
  TRACK 01 AUDIO
    TITLE "Symphony No. 5 in C minor op. 67 - I. Allegro con brio"
    PERFORMER "The Deutsche Kammerphilharmonie Bremen, Paavo Järvi"
    ISRC JPBV00601007
    INDEX 01 00:00:00
  TRACK 02 AUDIO
    TITLE "Symphony No. 5 in C minor op. 67 - II. Andante con moto"
    PERFORMER "The Deutsche Kammerphilharmonie Bremen, Paavo Järvi"
    ISRC JPBV00601008
    INDEX 00 06:55:16
    INDEX 01 06:58:00
  TRACK 03 AUDIO
    TITLE "Symphony No. 5 in C minor op. 67 - III. Allegro"
    PERFORMER "The Deutsche Kammerphilharmonie Bremen, Paavo Järvi"
    ISRC JPBV00601009
    INDEX 00 15:15:47
    INDEX 01 15:17:37
  TRACK 04 AUDIO
    TITLE "Symphony No. 5 in C minor op. 67 - IV. Allegro"
    PERFORMER "The Deutsche Kammerphilharmonie Bremen, Paavo Järvi"
    ISRC JPBV00601010
    INDEX 01 20:02:51
  TRACK 05 AUDIO
    TITLE "Symphony No. 1 in C major op. 21 - I. Adagio molto - Allegro con brio"
    PERFORMER "The Deutsche Kammerphilharmonie Bremen, Paavo Järvi"
    ISRC JPBV00601011
    INDEX 00 30:18:56
    INDEX 01 30:28:30
  TRACK 06 AUDIO
    TITLE "Symphony No. 1 in C major op. 21 - II. Andante cantabile con moto"
    PERFORMER "The Deutsche Kammerphilharmonie Bremen, Paavo Järvi"
    ISRC JPBV00601012
    INDEX 00 38:50:19
    INDEX 01 38:52:40
  TRACK 07 AUDIO
    TITLE "Symphony No. 1 in C major op. 21 - III. Minuetto/Allegro molto e vivace"
    PERFORMER "The Deutsche Kammerphilharmonie Bremen, Paavo Järvi"
    ISRC JPBV00601013
    INDEX 01 45:19:63
  TRACK 08 AUDIO
    TITLE "Symphony No. 1 in C major op. 21 - IV. Finale/Adagio - Allegro molto e vivace"
    PERFORMER "The Deutsche Kammerphilharmonie Bremen, Paavo Järvi"
    ISRC JPBV00601014
    INDEX 01 49:20:51



Symphonies No. 6 'Pastorale' & No. 2
Symphony No. 6 in F major op. 68 / Pastorale
01. I. Angenehme, heitere Empfindungen, welche bei der Ankunft auf dem Lande im Menschen erwachen (Allegro ma non troppo) [0:11:17.54]
02. II. Szene am Bach. (Andante molto moto) [0:11:41.51]
03. III. Lustiges Zusammensein der Landleute (Allegro) [0:05:07.16]
04. IV. Donner. Sturm (Allegro) [0:03:38.05]
05. V. Hirtengesang. Wohltätige, mit Dank an die Gottheit verbundene Gefühle nach dem Sturm (Allegretto) [0:09:28.66]
Symphony No. 2 in D major op. 36
06. I. Adagio molto - Allegro con brio [0:11:39.63]
07. II. Larghetto [0:09:53.26]
08. III. Scherzo. Allegro [0:03:50.44]
09. IV. Allegro molto [0:06:10.57]
Лог создания рипа

Exact Audio Copy V1.0 beta 3 from 29. August 2011
EAC extraction logfile from 24. June 2012, 16:27
The Deutsche Kammerphilharmonie Bremen - Paavo Järvi / Beethoven: Symphonies No. 6 "Pastorale" & No. 2
Used drive  : PIONEER BD-RW   BDR-206   Adapter: 2  ID: 3
Read mode               : Secure
Utilize accurate stream : Yes
Defeat audio cache      : Yes
Make use of C2 pointers : No
Read offset correction                      : 667
Overread into Lead-In and Lead-Out          : No
Fill up missing offset samples with silence : Yes
Delete leading and trailing silent blocks   : No
Null samples used in CRC calculations       : Yes
Used interface                              : Native Win32 interface for Win NT & 2000
Used output format              : User Defined Encoder
Selected bitrate                : 896 kBit/s
Quality                         : High
Add ID3 tag                     : No
Command line compressor         : C:\Program Files\FLAC\flac.exe
Additional command line options : -5 -T "Artist=%artist%" -T "Title=%title%" -T "Album=%albumtitle%" -T "Date=%year%" -T "Tracknumber=%tracknr%" -T "Genre=%genre%" %source% -o %dest%
TOC of the extracted CD
     Track |   Start  |  Length  | Start sector | End sector
    ---------------------------------------------------------
        1  |  0:00.00 | 11:17.54 |         0    |    50828
        2  | 11:17.54 | 11:41.51 |     50829    |   103454
        3  | 22:59.30 |  5:07.16 |    103455    |   126495
        4  | 28:06.46 |  3:38.05 |    126496    |   142850
        5  | 31:44.51 |  9:28.66 |    142851    |   185516
        6  | 41:13.42 | 11:39.63 |    185517    |   238004
        7  | 52:53.30 |  9:53.26 |    238005    |   282505
        8  | 62:46.56 |  3:50.44 |    282506    |   299799
        9  | 66:37.25 |  6:10.57 |    299800    |   327606
Range status and errors
Selected range
     Filename I:\=== VINYL RIPS ===\=== EAC===\X FRESH RIP\Beethoven- Kammerphilharmonie Bremen, Järvi - Symphonies No. 6 Pastorale & No.2.wav
     Peak level 100.0 %
     Extraction speed 8.2 X
     Range quality 100.0 %
     Test CRC 74C99D83
     Copy CRC 74C99D83
     Copy OK
No errors occurred
AccurateRip summary
Track  1  accurately ripped (confidence 12)  [3242710F]  (AR v2)
Track  2  accurately ripped (confidence 12)  [5B6F82BF]  (AR v2)
Track  3  accurately ripped (confidence 12)  [47DF10AE]  (AR v2)
Track  4  accurately ripped (confidence 12)  [98F24F02]  (AR v2)
Track  5  accurately ripped (confidence 12)  [91B90EC9]  (AR v2)
Track  6  accurately ripped (confidence 12)  [727E9DF1]  (AR v2)
Track  7  accurately ripped (confidence 12)  [A7745FD8]  (AR v2)
Track  8  accurately ripped (confidence 12)  [713FF8EB]  (AR v2)
Track  9  accurately ripped (confidence 11)  [82E180BB]  (AR v2)
All tracks accurately ripped
End of status report
---- CUETools DB Plugin V2.1.3
[CTDB TOCID: bQ9a3H7UnAdnMPeVcpVoioFM03M-] found, Submit result: bQ9a3H7UnAdnMPeVcpVoioFM03M- has been confirmed
[c13c23b0] (53/53) Accurately ripped
==== Log checksum B60A45D72D1B836752C76DFFB5A0BD0E49E0A40776044576652B3ABA58845FB4 ====


Содержание индексной карты (.CUE)

REM GENRE Classical
REM DATE 2009
REM DISCID A4111009
REM COMMENT "ExactAudioCopy v1.0b3"
CATALOG 4988017667736
PERFORMER "The Deutsche Kammerphilharmonie Bremen, Paavo Järvi"
TITLE "Beethoven: Symphonies No. 6 'Pastorale' & No. 2"
FILE "Symphonies No. 6 Pastorale & No. 2.flac" WAVE
  TRACK 01 AUDIO
    TITLE "Symphony No. 6 in F major op. 68 / Pastorale - I. Angenehme, heitere Empfindungen, welche bei der Ankunft auf dem Lande im Menschen erwachen (Allegro ma non troppo)"
    PERFORMER "The Deutsche Kammerphilharmonie Bremen, Paavo Järvi"
    ISRC JPBV00701084
    INDEX 01 00:00:00
  TRACK 02 AUDIO
    TITLE "Symphony No. 6 in F major op. 68 / Pastorale - II. Szene am Bach. (Andante molto moto)"
    PERFORMER "The Deutsche Kammerphilharmonie Bremen, Paavo Järvi"
    ISRC JPBV00701085
    INDEX 00 11:13:61
    INDEX 01 11:17:54
  TRACK 03 AUDIO
    TITLE "Symphony No. 6 in F major op. 68 / Pastorale - III. Lustiges Zusammensein der Landleute (Allegro)"
    PERFORMER "The Deutsche Kammerphilharmonie Bremen, Paavo Järvi"
    ISRC JPBV00701086
    INDEX 01 22:59:30
  TRACK 04 AUDIO
    TITLE "Symphony No. 6 in F major op. 68 / Pastorale - IV. Donner. Sturm (Allegro)"
    PERFORMER "The Deutsche Kammerphilharmonie Bremen, Paavo Järvi"
    ISRC JPBV00701087
    INDEX 01 28:06:46
  TRACK 05 AUDIO
    TITLE "Symphony No. 6 in F major op. 68 / Pastorale - V. Hirtengesang. Wohltätige, mit Dank an die Gottheit verbundene Gefühle nach dem Sturm (Allegretto)"
    PERFORMER "The Deutsche Kammerphilharmonie Bremen, Paavo Järvi"
    ISRC JPBV00701088
    INDEX 01 31:44:51
  TRACK 06 AUDIO
    TITLE "Symphony No. 2 in D major op. 36 - I. Adagio molto - Allegro con brio"
    PERFORMER "The Deutsche Kammerphilharmonie Bremen, Paavo Järvi"
    ISRC JPBV00701089
    INDEX 00 41:03:16
    INDEX 01 41:13:42
  TRACK 07 AUDIO
    TITLE "Symphony No. 2 in D major op. 36 - II. Larghetto"
    PERFORMER "The Deutsche Kammerphilharmonie Bremen, Paavo Järvi"
    ISRC JPBV00701090
    INDEX 00 52:50:39
    INDEX 01 52:53:30
  TRACK 08 AUDIO
    TITLE "Symphony No. 2 in D major op. 36 - III. Scherzo. Allegro"
    PERFORMER "The Deutsche Kammerphilharmonie Bremen, Paavo Järvi"
    ISRC JPBV00701091
    INDEX 00 62:42:42
    INDEX 01 62:46:56
  TRACK 09 AUDIO
    TITLE "Symphony No. 2 in D major op. 36 - IV. Allegro molto"
    PERFORMER "The Deutsche Kammerphilharmonie Bremen, Paavo Järvi"
    ISRC JPBV00701092
    INDEX 01 66:37:25



Symphony No. 9
Symphony No. 9 in D minor op. 125
01. I. Allegro ma non troppo e un poco maestoso [0:13:57.49]
02. II. Molto vivace [0:13:30.62]
03. III. Adagio molto e cantabile [0:13:15.11]
04. IV. Presto - Allegro assai [0:06:04.00]
05. - Presto - Recitativo "O Freunde, nicht diese Töne!" (bar 208) [0:03:30.47]
06. - Allegro assai vivace "Froh, froh, wie seine Sonnen" (bar 331) [0:02:51.31]
07. - "Freude, schöner Götterfunken" (bar 543) [0:00:47.06]
08. - Andante maestoso "Seid umschlungen Millionen!" (bar 594) [0:03:17.51]
09. - Allegro energico, sempre ben marcato "Freude, schöner Götterfunken" (bar 654) [0:02:34.38]
10. - Allegro ma non tanto "Tochter, Tochter aus Elysium!" (bar 763) [0:02:22.18]
11. - Poco allegro, stringendo it tempo, sempre più Allegro (bar 843) [0:01:46.61]
Лог создания рипа

Exact Audio Copy V1.0 beta 3 from 29. August 2011
EAC extraction logfile from 1. October 2012, 12:25
The Deutsche Kammerphlharmonie, Järvi / Beethoven: Symphonie Nr. 9
Used drive  : PIONEER BD-RW   BDR-206   Adapter: 0  ID: 2
Read mode               : Secure
Utilize accurate stream : Yes
Defeat audio cache      : Yes
Make use of C2 pointers : No
Read offset correction                      : 667
Overread into Lead-In and Lead-Out          : No
Fill up missing offset samples with silence : Yes
Delete leading and trailing silent blocks   : No
Null samples used in CRC calculations       : Yes
Used interface                              : Native Win32 interface for Win NT & 2000
Used output format              : User Defined Encoder
Selected bitrate                : 1024 kBit/s
Quality                         : High
Add ID3 tag                     : Yes
Command line compressor         : C:\Program Files\FLAC\flac.exe
Additional command line options : -5 -T "Artist=%artist%" -T "Title=%title%" -T "Album=%albumtitle%" -T "Date=%year%" -T "Tracknumber=%tracknr%" -T "Genre=%genre%" %source% -o %dest%
TOC of the extracted CD
     Track |   Start  |  Length  | Start sector | End sector
    ---------------------------------------------------------
        1  |  0:00.00 | 13:57.49 |         0    |    62823
        2  | 13:57.49 | 13:30.62 |     62824    |   123635
        3  | 27:28.36 | 13:15.11 |    123636    |   183271
        4  | 40:43.47 |  6:04.00 |    183272    |   210571
        5  | 46:47.47 |  3:30.47 |    210572    |   226368
        6  | 50:18.19 |  2:51.31 |    226369    |   239224
        7  | 53:09.50 |  0:47.06 |    239225    |   242755
        8  | 53:56.56 |  3:17.51 |    242756    |   257581
        9  | 57:14.32 |  2:34.38 |    257582    |   269169
       10  | 59:48.70 |  2:22.18 |    269170    |   279837
       11  | 62:11.13 |  1:46.61 |    279838    |   287848
Range status and errors
Selected range
     Filename F:\=== VINYL RIPS ===\=== EAC===\X FRESH RIP\Beethoven- Deutsche Kammerphilharmonie, Järvi - Symphonie Nr. 9.wav
     Peak level 99.0 %
     Extraction speed 8.0 X
     Range quality 100.0 %
     Test CRC 6B40391E
     Copy CRC 6B40391E
     Copy OK
No errors occurred
AccurateRip summary
Track  1  accurately ripped (confidence 17)  [F4E4D561]  (AR v2)
Track  2  accurately ripped (confidence 18)  [7C1BD7E5]  (AR v2)
Track  3  accurately ripped (confidence 18)  [EB6CF10D]  (AR v2)
Track  4  accurately ripped (confidence 18)  [D94D06A7]  (AR v2)
Track  5  accurately ripped (confidence 18)  [5E181121]  (AR v2)
Track  6  accurately ripped (confidence 18)  [02B2666E]  (AR v2)
Track  7  accurately ripped (confidence 18)  [325B9DA6]  (AR v2)
Track  8  accurately ripped (confidence 18)  [95B32F51]  (AR v2)
Track  9  accurately ripped (confidence 18)  [44127013]  (AR v2)
Track 10  accurately ripped (confidence 18)  [3AF806B5]  (AR v2)
Track 11  accurately ripped (confidence 18)  [81B392DD]  (AR v2)
All tracks accurately ripped
End of status report
---- CUETools DB Plugin V2.1.3
[CTDB TOCID: 9BhUgjj91GQD1dxUg3Dk1EXdIzc-] found, Submit result: 9BhUgjj91GQD1dxUg3Dk1EXdIzc- has been confirmed
[23b4ad8f] (10/10) Accurately ripped
==== Log checksum B0CA0B4A2A723DA8F86827C9D9175756B6377A6DFDFA1AC0281C55CE146C9D2B ====


Содержание индексной карты (.CUE)

REM GENRE Symphonie
REM DATE 2008
REM DISCID 980EFD0B
REM COMMENT "ExactAudioCopy v1.0b3"
CATALOG 0886975760626
PERFORMER "The Deutsche Kammerphilharmonie Bremen, Paavo Järvi"
TITLE "Beethoven: Symphony No. 9"
FILE "Symphony No. 9.flac" WAVE
  TRACK 01 AUDIO
    TITLE "Symphony No. 9 in D minor op. 125 - I. Allegro ma non troppo e un poco maestoso"
    PERFORMER "The Deutsche Kammerphilharmonie Bremen, Paavo Järvi"
    ISRC JPP300900865
    INDEX 01 00:00:00
  TRACK 02 AUDIO
    TITLE "Symphony No. 9 in D minor op. 125 - II. Molto vivace"
    PERFORMER "The Deutsche Kammerphilharmonie Bremen, Paavo Järvi"
    ISRC JPP300900866
    INDEX 00 13:55:21
    INDEX 01 13:57:49
  TRACK 03 AUDIO
    TITLE "Symphony No. 9 in D minor op. 125 - III. Adagio molto e cantabile"
    PERFORMER "The Deutsche Kammerphilharmonie Bremen, Paavo Järvi"
    ISRC JPP300900867
    INDEX 00 27:25:56
    INDEX 01 27:28:36
  TRACK 04 AUDIO
    TITLE "Symphony No. 9 in D minor op. 125 - IV. Presto - Allegro assai"
    PERFORMER "The Deutsche Kammerphilharmonie Bremen, Paavo Järvi"
    ISRC JPP300900868
    INDEX 01 40:43:47
  TRACK 05 AUDIO
    TITLE "- Presto - Recitativo 'O Freunde, nicht diese Töne!' (bar 208)"
    PERFORMER "The Deutsche Kammerphilharmonie Bremen, Paavo Järvi"
    ISRC JPP300900869
    INDEX 01 46:47:47
  TRACK 06 AUDIO
    TITLE "- Allegro assai vivace 'Froh, froh, wie seine Sonnen' (bar 331)"
    PERFORMER "The Deutsche Kammerphilharmonie Bremen, Paavo Järvi"
    ISRC JPP300900870
    INDEX 01 50:18:19
  TRACK 07 AUDIO
    TITLE "- 'Freude, schöner Götterfunken' (bar 543)"
    PERFORMER "The Deutsche Kammerphilharmonie Bremen, Paavo Järvi"
    ISRC JPP300900871
    INDEX 01 53:09:50
  TRACK 08 AUDIO
    TITLE "- Andante maestoso 'Seid umschlungen Millionen!' (bar 594)"
    PERFORMER "The Deutsche Kammerphilharmonie Bremen, Paavo Järvi"
    ISRC JPP300900872
    INDEX 01 53:56:56
  TRACK 09 AUDIO
    TITLE "- Allegro energico, sempre ben marcato 'Freude, schöner Götterfunken' (bar 654)"
    PERFORMER "The Deutsche Kammerphilharmonie Bremen, Paavo Järvi"
    ISRC JPP300900873
    INDEX 01 57:14:32
  TRACK 10 AUDIO
    TITLE "- Allegro ma non tanto 'Tochter, Tochter aus Elysium!' (bar 763)"
    PERFORMER "The Deutsche Kammerphilharmonie Bremen, Paavo Järvi"
    ISRC JPP300900874
    INDEX 01 59:48:70
  TRACK 11 AUDIO
    TITLE "- Poco allegro, stringendo it tempo, sempre più Allegro (bar 843)"
    PERFORMER "The Deutsche Kammerphilharmonie Bremen, Paavo Järvi"
    ISRC JPP300900875
    INDEX 01 62:11:13


Исполнители:
Christiane Oelze, soprano
Petra Lang, alto
Klaus Florian Vogt, tenor
Matthias Goerne, baritone
Deutscher Kammerchor
The Deutsche Kammerphilharmonie Bremen
Paavo Järvi, conductor
Edition: Bärenreiter, New Urtext Edition
Beethoven - The Complete Symphonies & The Beethoven Project - Die Deutsche Kammerphilharmonie Bremen, Paavo Järvi (2009) [4 DVD]                                                                                       
                       
                       
                       
                       
                       
                                磁力下载(论坛代下载服务)::
                                                               
                                       
付费主题

已有0人支付


                                               
  • 1.78 GB
  • 温馨提示

    记得善用社区搜索功能,那里可能会有你想要的资源;论坛站内搜索

    如果你有什么需要的资源可以去资源求档发帖,求助社区的网友,我们会在第一时间给你回复哦;资源求档

    对于本社区网盘链接失效密码错误各种报错请在反馈板块反馈报错发帖,您的支持,是我们发展的最大动力;投诉建议

    回复

    使用道具 举报

    您需要登录后才可以回帖 登录 | 立即注册 微信登录

    本版积分规则

    关注0

    粉丝0

    帖子31255

    发布主题
    阅读排行更多+
    关闭

    站长推荐上一条 /1 下一条

    活动提示

    赞助永久VIP会员送3T硬盘一块 限时活动

    地址:立刻参加

    我知道了
    收藏帖子 返回列表 这是一个自定义按钮
    音乐分享,音乐下载。
    微信公众号
    微信号:hires_
    意见反馈:admin@maomicd.com

    加入我们的官方QQ群和微信群

    Powered by Discuz! X3.4 Archiver|手机版|小黑屋|捌零音乐论坛 ( 苏ICP备20015413号 )|( 苏公网安备 32030502000272号) 繁體

    GMT+8, 2021-9-22 21:36