[古典] (Classical/Symphony) Дмитрий Шостакович - Симфония №10 / Dmitri Shostakovich - Symphony No.10 Op.93; Veljo Tormis - Overture No.2 (Cincinnati Symphony Orchestra, Paavo Jarvi) - 200

[复制链接]
elmisy 发表于 2021-9-10 16:56:51 | 显示全部楼层 |阅读模式 打印 上一主题 下一主题
Дмитрий Шостакович - Симфония №10 / Dmitri Shostakovich - Symphony No.10 Op.93; Veljo Tormis - Overture No.2
Cincinnati Symphony Orchestra, Paavo Järvi
Жанр: Classical/Symphony
Страна-производитель диска: EU
Год издания диска: 2009
Издатель (лейбл): Telarc
Номер по каталогу: CD-80702
Дата записи: 27-28.04.2008
Аудиокодек: FLAC
Тип рипа: image+.cue
Битрейт аудио: lossless
Продолжительность: 67'35
Источник: собственный рип
Наличие сканов в содержимом раздачи: да
Треклист:
Дмитрий Шостакович (1906-1975)
Симфония № 10 e-moll, соч. 93 (1953)
01. I. Moderato [0:24:56.51]
02. II. Allegro [0:04:13.16]
03. III. Allegretto [0:13:07.04]
04. IV. Andante. Allegro [0:13:57.38]
Veljo Tormis (*1930)
05. Overture No. 2 [0:11:19.35]
Исполнители:
Cincinnati Symphony Orchestra
Paavo Järvi, conductor
Лог создания рипа

Exact Audio Copy V1.0 beta 3 from 29. August 2011
Отчёт EAC об извлечении, выполненном 27. сентября 2013, 3:04
Cincinnati Symphony Orchestra, Paavo Järvi / Shostakovich Symphony No. 10; Tormis Overture No. 2
Дисковод: HL-DT-STDVDRAM GT33N   Adapter: 1  ID: 0
Режим чтения                 : Достоверность
Использование точного потока : Да
Отключение кэша аудио        : Да
Использование указателей C2  : Нет
Коррекция смещения при чтении                     : 103
Способность читать области Lead-in и Lead-out     : Нет
Заполнение пропущенных сэмплов тишиной            : Да
Удаление блоков с тишиной в начале и конце        : Нет
При вычислениях CRC использовались нулевые сэмплы : Да
Интерфейс                                         : Встроенный Win32-интерфейс для Win NT/2000
Выходной формат          : Пользовательский кодировщик
Выбранный битрейт        : 1024 kBit/s
Качество                 : Высокий
Добавление ID3-тега      : Да
Утилита сжатия           : C:\Program Files (x86)\Exact Audio Copy\Flac\flac.exe
Дополнительные параметры : -8 -V -T "ALBUMARTIST=%albumartist%" -T "ALBUM=%albumtitle%" -T "DATE=%year%" -T "TRACKTOTAL=%numtracks%" -T "GENRE=%genre%" -T "COMMENT=%comment%" -T "PERFORMER=%albuminterpret%" -T "COMPOSER=%composer%" %source% -o %dest%
TOC извлечённого CD
     Трек |   Старт  | Длительность | Начальный сектор | Конечный сектор
    ---------------------------------------------------------------------
       1  |  0:00.00 |   24:56.51   |           0      |     112250
       2  | 24:56.51 |    4:13.16   |      112251      |     131241
       3  | 29:09.67 |   13:07.04   |      131242      |     190270
       4  | 42:16.71 |   13:57.38   |      190271      |     253083
       5  | 56:14.34 |   11:19.35   |      253084      |     304043
Характеристики диапазона извлечения и сообщения об ошибках
Выбранный диапазон
     Имя файла O:\!Rips\Shostakovich Symphony No. 10; Tormis Overture No. 2.wav
     Пиковый уровень 98.2 %
     Скорость извлечения 2.2 X
     Качество диапазона 100.0 %
     CRC теста B7A9A2B0
     CRC копии B7A9A2B0
     Копирование... OK
Ошибок не произошло
AccurateRip: сводка
Трек  1  : извлечено точно (доверие 2)  [3F9A66F4]  (AR v1)
Трек  2  : извлечено точно (доверие 2)  [FBD69F06]  (AR v1)
Трек  3  : извлечено точно (доверие 2)  [E18E9EF5]  (AR v1)
Трек  4  : извлечено точно (доверие 2)  [A7001393]  (AR v1)
Трек  5  : извлечено точно (доверие 2)  [6D6684E4]  (AR v1)
Все треки извлечены точно
Конец отчёта
==== Контрольная сумма отчёта 252130DB1567514A4A5B8F82D3B2CDAF05EF814565229C371E5B36B0BC0A160F ====


Содержание индексной карты (.CUE)

REM GENRE Classical
REM DATE 2009
REM DISCID 4B0FD505
REM COMMENT "ExactAudioCopy v1.0b3"
PERFORMER "Cincinnati Symphony Orchestra, Paavo Jarvi"
TITLE "Shostakovich Symphony No. 10; Tormis Overture No. 2"
FILE "Shostakovich Symphony No. 10; Tormis Overture No. 2.flac" WAVE
  TRACK 01 AUDIO
    TITLE "Dmitri Shostakovich - Symphony No. 10 Op. 93: I. Moderato"
    PERFORMER "Cincinnati Symphony Orchestra, Paavo Jarvi"
    INDEX 01 00:00:00
  TRACK 02 AUDIO
    TITLE "II. Allegro"
    PERFORMER "Cincinnati Symphony Orchestra, Paavo Jarvi"
    INDEX 00 24:52:70
    INDEX 01 24:56:51
  TRACK 03 AUDIO
    TITLE "III. Allegretto"
    PERFORMER "Cincinnati Symphony Orchestra, Paavo Jarvi"
    INDEX 00 29:06:46
    INDEX 01 29:09:67
  TRACK 04 AUDIO
    TITLE "IV. Andante. Allegro"
    PERFORMER "Cincinnati Symphony Orchestra, Paavo Jarvi"
    INDEX 00 42:14:67
    INDEX 01 42:16:71
  TRACK 05 AUDIO
    TITLE "Veljo Tormis - Overture No. 2"
    PERFORMER "Cincinnati Symphony Orchestra, Paavo Jarvi"
    INDEX 00 56:08:20
    INDEX 01 56:14:34

                                                                                       
                       
                       
                       
                       
                       
                                磁力下载(论坛代下载服务)::
                                                               
                                       
付费主题

已有0人支付


                                               
  • 253.7 MB
  • 温馨提示

    记得善用社区搜索功能,那里可能会有你想要的资源;论坛站内搜索

    如果你有什么需要的资源可以去资源求档发帖,求助社区的网友,我们会在第一时间给你回复哦;资源求档

    对于本社区网盘链接失效密码错误各种报错请在反馈板块反馈报错发帖,您的支持,是我们发展的最大动力;投诉建议

    回复

    使用道具 举报

    您需要登录后才可以回帖 登录 | 立即注册 微信登录

    本版积分规则

    关注0

    粉丝3

    帖子30621

    发布主题
    阅读排行更多+
    关闭

    站长推荐上一条 /1 下一条

    活动提示

    赞助永久VIP会员送3T硬盘一块 限时活动

    地址:立刻参加

    我知道了
    收藏帖子 返回列表 这是一个自定义按钮
    音乐分享,音乐下载。
    微信公众号
    微信号:hires_
    意见反馈:admin@maomicd.com

    加入我们的官方QQ群和微信群

    Powered by Discuz! X3.4 Archiver|手机版|小黑屋|捌零音乐论坛 ( 苏ICP备20015413号 )|( 苏公网安备 32030502000272号) 繁體

    GMT+8, 2021-9-21 14:12