[古典] (Classical/Symphony) П.И.Чайковский - Симфония №6 'Патетическая', Увертюра 'Ромео и Джульетта' / Tchaikovsky - Symphony No.6 'Pathetique' Op.74, Romeo and Juliet (Cincinnati Sympho

[复制链接]
kayda 发表于 2021-9-10 16:56:51 | 显示全部楼层 |阅读模式 打印 上一主题 下一主题
П.И.Чайковский - Симфония №6 'Патетическая', Увертюра 'Ромео и Джульетта' / Tchaikovsky - Symphony No.6 'Pathetique' Op.74, Romeo and Juliet
Cincinnati Symphony Orchestra, Paavo Järvi
Жанр: Classical/Symphony
Страна-производитель диска: EU
Год издания диска: 2007
Издатель (лейбл): Telarc
Номер по каталогу: CD-80681
Дата записи: 21-22.01.2007
Аудиокодек: FLAC
Тип рипа: image+.cue
Битрейт аудио: lossless
Продолжительность: 67'19
Источник: собственный рип
Наличие сканов в содержимом раздачи: да
Треклист:
Петр Ильич Чайковский (1840-1893)
01. Ромео и Джульетта, увертюра-фантазия (1869) [0:20:26.34]
Симфония № 6 h-moll "Патетическая", соч. 74 (1893)
02. I. Adagio - Allegro non troppo [0:18:33.40]
03. II. Allegro con grazia [0:07:54.49]
04. III. Allegro molto vivace [0:09:12.11]
05. IV. Finale. Adagio lamentoso - Andante [0:11:11.07]
Исполнители:
Cincinnati Symphony Orchestra
Paavo Järvi, conductor
Лог создания рипа

Exact Audio Copy V1.0 beta 3 from 29. August 2011
Отчёт EAC об извлечении, выполненном 27. сентября 2013, 4:15
Cincinnati Symphony Orchestra, Paavo Järvi / Symphony No. 6 'Pathétique' / Romeo and Juliet
Дисковод: HL-DT-STDVDRAM GT33N   Adapter: 1  ID: 0
Режим чтения                 : Достоверность
Использование точного потока : Да
Отключение кэша аудио        : Да
Использование указателей C2  : Нет
Коррекция смещения при чтении                     : 103
Способность читать области Lead-in и Lead-out     : Нет
Заполнение пропущенных сэмплов тишиной            : Да
Удаление блоков с тишиной в начале и конце        : Нет
При вычислениях CRC использовались нулевые сэмплы : Да
Интерфейс                                         : Встроенный Win32-интерфейс для Win NT/2000
Выходной формат          : Пользовательский кодировщик
Выбранный битрейт        : 1024 kBit/s
Качество                 : Высокий
Добавление ID3-тега      : Да
Утилита сжатия           : C:\Program Files (x86)\Exact Audio Copy\Flac\flac.exe
Дополнительные параметры : -8 -V -T "ALBUMARTIST=%albumartist%" -T "ALBUM=%albumtitle%" -T "DATE=%year%" -T "TRACKTOTAL=%numtracks%" -T "GENRE=%genre%" -T "COMMENT=%comment%" -T "PERFORMER=%albuminterpret%" -T "COMPOSER=%composer%" %source% -o %dest%
TOC извлечённого CD
     Трек |   Старт  | Длительность | Начальный сектор | Конечный сектор
    ---------------------------------------------------------------------
       1  |  0:00.00 |   20:26.34   |           0      |      91983
       2  | 20:26.34 |   18:33.40   |       91984      |     175498
       3  | 38:59.74 |    7:54.49   |      175499      |     211097
       4  | 46:54.48 |    9:12.11   |      211098      |     252508
       5  | 56:06.59 |   11:11.07   |      252509      |     302840
Характеристики диапазона извлечения и сообщения об ошибках
Выбранный диапазон
     Имя файла O:\!Rips\Symphony No. 6 'Pathetique', Romeo and Juliet.wav
     Пиковый уровень 99.7 %
     Скорость извлечения 2.2 X
     Качество диапазона 100.0 %
     CRC теста 4368134E
     CRC копии 4368134E
     Копирование... OK
Ошибок не произошло
AccurateRip: сводка
Трек  1  : извлечено точно (доверие 3)  [7D45431E]  (AR v2)
Трек  2  : извлечено точно (доверие 3)  [C7A0EDCD]  (AR v2)
Трек  3  : извлечено точно (доверие 3)  [68F00C89]  (AR v2)
Трек  4  : извлечено точно (доверие 3)  [C4826853]  (AR v2)
Трек  5  : извлечено точно (доверие 3)  [EAF523FD]  (AR v2)
Все треки извлечены точно
Конец отчёта
==== Контрольная сумма отчёта 288C970F93851FC3A6E7283097F50290275CB9228C5E129A10C51EFCDB306A96 ====


Содержание индексной карты (.CUE)

REM GENRE Classical
REM DATE 2007
REM DISCID 3E0FC505
REM COMMENT "ExactAudioCopy v1.0b3"
PERFORMER "Cincinnati Symphony Orchestra, Paavo Jarvi"
TITLE "Symphony No. 6 'Pathetique' / Romeo and Juliet"
FILE "Symphony No. 6 'Pathetique', Romeo and Juliet.flac" WAVE
  TRACK 01 AUDIO
    TITLE "Romeo and Juliet Overture-Fantasy"
    PERFORMER "Cincinnati Symphony Orchestra, Paavo Jarvi"
    INDEX 01 00:00:00
  TRACK 02 AUDIO
    TITLE "Symphony no. 6 in B minor, op. 74 'Pathetique': I. Adagio - Allegro non troppo"
    PERFORMER "Cincinnati Symphony Orchestra, Paavo Jarvi"
    INDEX 00 20:18:43
    INDEX 01 20:26:34
  TRACK 03 AUDIO
    TITLE "Symphony no. 6 in B minor, op. 74 'Pathetique': II. Allegro con grazia"
    PERFORMER "Cincinnati Symphony Orchestra, Paavo Jarvi"
    INDEX 00 38:54:64
    INDEX 01 38:59:74
  TRACK 04 AUDIO
    TITLE "Symphony no. 6 in B minor, op. 74 'Pathetique': III. Allegro molto vivace"
    PERFORMER "Cincinnati Symphony Orchestra, Paavo Jarvi"
    INDEX 00 46:50:07
    INDEX 01 46:54:48
  TRACK 05 AUDIO
    TITLE "Symphony no. 6 in B minor, op. 74 'Pathetique': IV. Finale. Adagio lamentoso - Andante"
    PERFORMER "Cincinnati Symphony Orchestra, Paavo Jarvi"
    INDEX 00 56:05:56
    INDEX 01 56:06:59

                                                                                       
                       
                       
                       
                       
                       
                                磁力下载(论坛代下载服务)::
                                                               
                                       
付费主题

已有0人支付


                                               
  • 269.9 MB
  • 温馨提示

    记得善用社区搜索功能,那里可能会有你想要的资源;论坛站内搜索

    如果你有什么需要的资源可以去资源求档发帖,求助社区的网友,我们会在第一时间给你回复哦;资源求档

    对于本社区网盘链接失效密码错误各种报错请在反馈板块反馈报错发帖,您的支持,是我们发展的最大动力;投诉建议

    回复

    使用道具 举报

    您需要登录后才可以回帖 登录 | 立即注册 微信登录

    本版积分规则

    关注0

    粉丝2

    帖子31142

    发布主题
    阅读排行更多+
    关闭

    站长推荐上一条 /1 下一条

    活动提示

    赞助永久VIP会员送3T硬盘一块 限时活动

    地址:立刻参加

    我知道了
    收藏帖子 返回列表 这是一个自定义按钮
    音乐分享,音乐下载。
    微信公众号
    微信号:hires_
    意见反馈:admin@maomicd.com

    加入我们的官方QQ群和微信群

    Powered by Discuz! X3.4 Archiver|手机版|小黑屋|捌零音乐论坛 ( 苏ICP备20015413号 )|( 苏公网安备 32030502000272号) 繁體

    GMT+8, 2021-9-21 14:08