[古典] (Orchestral) [CD] Рихард Вагнер - Увертюры и Прелюдии (Оркестр Берлинской оперы, Карл Мук) | Richard Wagner - Overtures and Preludes (Berlin State Opera Orchestra, Karl Muck), Naxo

[复制链接]
lz189 发表于 2021-9-10 16:56:51 | 显示全部楼层 |阅读模式 打印 上一主题 下一主题
Richard Wagner - Overtures and Preludes
Жанр: Orchestral • Издание диска: Naxos E.U. • Номер по каталогу: 8.110858 • Год издания: 2002
Продолжительность: 1:16:14 • Аудиокодек: FLAC (*.flac) • Тип рипа: image+.cue • Битрейт аудио: lossless • Источник: свой диск • Наличие сканов: да
Треклист
Richard Wagner
01. Die Meistersinger von Nurnberg - Prelude to Act I (8:36)
02. Gotterdammerung - Siegfrid's Funeral Music (Act III) (8:05)
03. Tristan und Isolde - Prelude to Act I (12:07)
04. Der Fliegende Hollander - Overture (10:04)
05. Tannhauser - Overture (Dresden version) (16:05)
06. Lohengrin - Prelude to Act III (3:43)
07. Siegfrid Idyll (17:35)
Karl Muck - Berlin State Opera Orchestra
[Recorded 1927-1929]

Лог создания рипа

Exact Audio Copy V1.6 from 23. October 2020
EAC extraction logfile from 6. May 2021, 21:32
Richard Wagner - Overtures and Preludes / Great Conductors - Muck, Berlin State Opera Orchestra - Karl Muck
Used drive  : HL-DT-STDVDRAM GP65NB60   Adapter: 1  ID: 0
Read mode               : Secure
Utilize accurate stream : Yes
Defeat audio cache      : Yes
Make use of C2 pointers : No
Read offset correction                      : 6
Overread into Lead-In and Lead-Out          : No
Fill up missing offset samples with silence : Yes
Delete leading and trailing silent blocks   : No
Null samples used in CRC calculations       : Yes
Used interface                              : Native Win32 interface for Win NT & 2000
Used output format              : User Defined Encoder
Selected bitrate                : 1024 kBit/s
Quality                         : High
Add ID3 tag                     : No
Command line compressor         : C:\Program Files (x86)\Exact Audio Copy\Flac\flac.exe
Additional command line options : -V -8 -T "Date=%year%" -T "Genre=%genre%" %source%
TOC of the extracted CD
     Track |   Start  |  Length  | Start sector | End sector
    ---------------------------------------------------------
        1  |  0:00.00 |  8:35.50 |         0    |    38674
        2  |  8:35.50 |  8:04.55 |     38675    |    75029
        3  | 16:40.30 | 12:06.65 |     75030    |   129544
        4  | 28:47.20 | 10:04.00 |    129545    |   174844
        5  | 38:51.20 | 16:05.07 |    174845    |   247226
        6  | 54:56.27 |  3:42.73 |    247227    |   263949
        7  | 58:39.25 | 17:34.50 |    263950    |   343049
Range status and errors
Selected range
     Filename D:\Wagner - Overtures and Preludes - Muck.wav
     Peak level 99.9 %
     Extraction speed 5.0 X
     Range quality 99.9 %
     Test CRC C5856EE5
     Copy CRC C5856EE5
     Copy OK
No errors occurred
AccurateRip summary
Track  1  cannot be verified as accurate (confidence 3)  [FF435E0A], AccurateRip returned [2446A98D]  (AR v2)
Track  2  cannot be verified as accurate (confidence 3)  [C67164BC], AccurateRip returned [DD51D203]  (AR v2)
Track  3  cannot be verified as accurate (confidence 3)  [4DB8E79B], AccurateRip returned [C320BA57]  (AR v2)
Track  4  cannot be verified as accurate (confidence 3)  [F43BAB4D], AccurateRip returned [8FEA5E1B]  (AR v2)
Track  5  cannot be verified as accurate (confidence 3)  [1F1807BE], AccurateRip returned [D06A6D69]  (AR v2)
Track  6  cannot be verified as accurate (confidence 3)  [67A888E3], AccurateRip returned [F86F4B3B]  (AR v2)
Track  7  cannot be verified as accurate (confidence 3)  [4F133055], AccurateRip returned [880ECDBD]  (AR v2)
No tracks could be verified as accurate
You may have a different pressing from the one(s) in the database
End of status report
---- CUETools DB Plugin V2.1.6
[CTDB TOCID: Qywt25_DE.tzr2qFGZMCjbqHZbk-] found
Submit result: Qywt25_DE.tzr2qFGZMCjbqHZbk- has been confirmed
Track | CTDB Status
  1   | (7/7) Accurately ripped
  2   | (7/7) Accurately ripped
  3   | (7/7) Accurately ripped
  4   | (7/7) Accurately ripped
  5   | (7/7) Accurately ripped
  6   | (7/7) Accurately ripped
  7   | (7/7) Accurately ripped
==== Log checksum 0D6FE9D0DCCF440CBBD8960396B930F9F49308D96E36AFF06F686FBB2CFB3FA4 ====


Содержание индексной карты (.cue)

REM GENRE 8.110858
REM DATE 2002
REM DISCID 5111DE07
REM COMMENT "ExactAudioCopy v1.6"
PERFORMER "Richard Wagner - Overtures and Preludes"
TITLE "Great Conductors - Karl Muck, Berlin State Opera Orchestra"
REM COMPOSER ""
FILE "Wagner - Overtures and Preludes - Muck.flac" WAVE
  TRACK 01 AUDIO
    TITLE "Die Meistersinger von Nurnberg - Prelude to Act I"
    PERFORMER "Richard Wagner - Overtures and Preludes"
    REM COMPOSER ""
    ISRC HKI190211001
    INDEX 01 00:00:00
  TRACK 02 AUDIO
    TITLE "Gotterdammerung - Siegfrid's Funeral Music (Act III)"
    PERFORMER "Richard Wagner - Overtures and Preludes"
    REM COMPOSER ""
    ISRC HKI190211002
    INDEX 00 08:30:37
    INDEX 01 08:35:50
  TRACK 03 AUDIO
    TITLE "Tristan und Isolde - Prelude to Act I"
    PERFORMER "Richard Wagner - Overtures and Preludes"
    REM COMPOSER ""
    ISRC HKI190211003
    INDEX 00 16:34:25
    INDEX 01 16:40:30
  TRACK 04 AUDIO
    TITLE "Der Fliegende Hollander - Overture"
    PERFORMER "Richard Wagner - Overtures and Preludes"
    REM COMPOSER ""
    ISRC HKI190211004
    INDEX 00 28:41:57
    INDEX 01 28:47:20
  TRACK 05 AUDIO
    TITLE "Tannhauser - Overture (Dresden version)"
    PERFORMER "Richard Wagner - Overtures and Preludes"
    REM COMPOSER ""
    ISRC HKI190211005
    INDEX 00 38:46:32
    INDEX 01 38:51:20
  TRACK 06 AUDIO
    TITLE "Lohengrin - Prelude to Act III"
    PERFORMER "Richard Wagner - Overtures and Preludes"
    REM COMPOSER ""
    ISRC HKI190211006
    INDEX 00 54:52:02
    INDEX 01 54:56:27
  TRACK 07 AUDIO
    TITLE "Siegfrid Idyll"
    PERFORMER "Richard Wagner - Overtures and Preludes"
    REM COMPOSER ""
    ISRC HKI190211007
    INDEX 00 58:34:10
    INDEX 01 58:39:25


DRM

foobar2000 1.1.7 / Замер динамического диапазона (DR) 1.1.1
Дата отчёта:  2021-05-06 21:44:31
--------------------------------------------------------------------------------
Анализ:   Richard Wagner - Overtures and Preludes / Great Conductors - Karl Muck, Berlin State Opera Orchestra
--------------------------------------------------------------------------------
DR         Пики         RMS           Продолжительность трека
--------------------------------------------------------------------------------
DR13      -0.51 дБ   -17.97 дБ      8:36 01-Die Meistersinger von Nurnberg - Prelude to Act I
DR12       0.00 дБ   -17.84 дБ      8:05 02-Gotterdammerung - Siegfrid's Funeral Music (Act III)
DR13      -3.74 дБ   -23.11 дБ     12:07 03-Tristan und Isolde - Prelude to Act I
DR12      -0.85 дБ   -17.50 дБ     10:04 04-Der Fliegende Hollander - Overture
DR12      -1.81 дБ   -19.69 дБ     16:05 05-Tannhauser - Overture (Dresden version)
DR13      -1.03 дБ   -17.64 дБ      3:43 06-Lohengrin - Prelude to Act III
DR14      -4.31 дБ   -23.94 дБ     17:35 07-Siegfrid Idyll
--------------------------------------------------------------------------------
Количество треков: 7
Реальные значения DR: DR13
Частота:   44100 Гц
Каналов:   2
Разрядность:   16
Битрейт:   372 кбит/с
Кодек:   FLAC
================================================================================


.accurip

[CUETools log; Date: 06.05.2021 22:17:34; Version: 2.1.6]
[CTDB TOCID: Qywt25_DE.tzr2qFGZMCjbqHZbk-] found.
Track | CTDB Status
  1   | (8/8) Accurately ripped
  2   | (8/8) Accurately ripped
  3   | (8/8) Accurately ripped
  4   | (8/8) Accurately ripped
  5   | (8/8) Accurately ripped
  6   | (8/8) Accurately ripped
  7   | (8/8) Accurately ripped
[AccurateRip ID: 00136a02-00769092-5111de07] found.
Track   [  CRC   |   V2   ] Status
01     [e1b2e005|ff435e0a] (0+0/6) No match
02     [e31082cb|c67164bc] (0+0/6) No match
03     [6fa3769b|4db8e79b] (0+0/6) No match
04     [b1cb4729|f43bab4d] (0+0/6) No match
05     [6db524c7|1f1807be] (0+0/6) No match
06     [ee2c3391|67a888e3] (0+0/6) No match
07     [15691a1f|4f133055] (0+0/6) No match
Offsetted by 86:
01     [2446a98d] (3/6) Accurately ripped
02     [dd51d203] (3/6) Accurately ripped
03     [c320ba57] (3/6) Accurately ripped
04     [8fea5e1b] (3/6) Accurately ripped
05     [d06a6d69] (3/6) Accurately ripped
06     [f86f4b3b] (3/6) Accurately ripped
07     [880ecdbd] (3/6) Accurately ripped
Track Peak [ CRC32  ] [W/O NULL] [  LOG   ]
--   99,9 [C5856EE5] [0CE8B04A]   CRC32
01   94,3 [A311A879] [2D628915]
02   99,9 [84D996AD] [4DBC7AAF]
03   65,0 [52E5BCE5] [E78F7507]
04   90,6 [B95292BB] [4C62CCB6]
05   81,2 [BB50AA99] [8DF22025]
06   88,8 [FBE7E9DD] [BE25B36A]
07   60,8 [C712184F] [E52BFB64]



Richard Wagner - Parsifal (Historical Recordings 1913, 1927-28)                                                                                       
                       
                       
                       
                       
                       
                                磁力下载(论坛代下载服务)::
                                                               
                                       
付费主题

已有0人支付


                                               
  • 226.7 MB
  • 温馨提示

    记得善用社区搜索功能,那里可能会有你想要的资源;论坛站内搜索

    如果你有什么需要的资源可以去资源求档发帖,求助社区的网友,我们会在第一时间给你回复哦;资源求档

    对于本社区网盘链接失效密码错误各种报错请在反馈板块反馈报错发帖,您的支持,是我们发展的最大动力;投诉建议

    回复

    使用道具 举报

    您需要登录后才可以回帖 登录 | 立即注册 微信登录

    本版积分规则

    关注0

    粉丝0

    帖子31255

    发布主题
    阅读排行更多+
    关闭

    站长推荐上一条 /1 下一条

    活动提示

    赞助永久VIP会员送3T硬盘一块 限时活动

    地址:立刻参加

    我知道了
    收藏帖子 返回列表 这是一个自定义按钮
    音乐分享,音乐下载。
    微信公众号
    微信号:hires_
    意见反馈:admin@maomicd.com

    加入我们的官方QQ群和微信群

    Powered by Discuz! X3.4 Archiver|手机版|小黑屋|捌零音乐论坛 ( 苏ICP备20015413号 )|( 苏公网安备 32030502000272号) 繁體

    GMT+8, 2021-9-21 14:13