[古典] (Classical) Mozart - The Late Symphonies (35, 36, 38, 39, 40, 41), Symphonies 25 & 29 (Leonard Bernstein) 3 CD- 2006, FLAC (image+.cue), lossless

[复制链接]
lz189 发表于 2021-9-10 16:56:51 | 显示全部楼层 |阅读模式 打印 上一主题 下一主题
Mozart - The Late Symphonies (35, 36, 38, 39, 40, 41), Symphonies 25 & 29 - Leonard Bernstein
Жанр: Classical
Год выпуска диска: 2006
Производитель диска: DG
Аудио кодек: FLAC
Тип рипа: image+.cue
Битрейт аудио: lossless
Продолжительность: 77:14+81:15+71:03
Трэклист:Wolfgang Amadeus Mozart
CD1
Symphony No.25 in G Minor
1. Allegro con brio
2. Andante
3. Menuetto & Trio
4. Allegro
Symphony No.29 in A Major
5. Allegro moderato
6. Andante
7. Menuet & Trio
8. Allegro con spirito
Symphony No.38 in D "Prague"
9. Adagio - Allegro
10. Andante
11. Finale (Presto)

CD2
Symphony No.35 in D "Haffner"
1. Allegro con spirito
2. Andante
3. Menuetto
4. Finale (Presto)
Symphony No.36 in C "Linz"
5. Adagio - Allegro spiritoso
6. Andante
7. Menuetto
8. Finale (Presto)
Symphony No.40 in G minor
9. Molto allegro
10. Andante
11. Menuetto (Allegretto) - Trio
12. Finale (Allegro assai)

CD3
Symphony No.39 in E flat
1. Adagio - Allegro
2. Andante con moto
3. Menuetto (Allegretto)
4. Finale (Allegro)
Symphony No.41 in C "Jupiter"
5. Allegro vivace
6. Andante cantabile
7. Menuetto (Allegretto)
8. Molto allegro
Доп. информация:
Wiener Philharmoniker
Conductor: Leonard Bernstein
Отчёт EAC

CD1
Exact Audio Copy V0.99 prebeta 4 from 23. January 2008
EAC extraction logfile from 13. March 2010, 14:23
Leonard Bernstein & Wiener Philharmoniker / Mozart : The Late Symphonies (CD1) - Symphonies Nos.25, 29 & 38
Used drive : ASUS DRW-1814BLT Adapter: 2 ID: 2
Read mode : Secure
Utilize accurate stream : Yes
Defeat audio cache : Yes
Make use of C2 pointers : No
Read offset correction : 6
Overread into Lead-In and Lead-Out : No
Fill up missing offset samples with silence : Yes
Delete leading and trailing silent blocks : No
Null samples used in CRC calculations : Yes
Used interface : Native Win32 interface for Win NT & 2000
Used output format : Internal WAV Routines
Sample format : 44.100 Hz; 16 Bit; Stereo
TOC of the extracted CD
Track | Start | Length | Start sector | End sector
---------------------------------------------------------
1 | 0:00.00 | 8:10.30 | 0 | 36779
2 | 8:10.30 | 4:11.41 | 36780 | 55645
3 | 12:21.71 | 3:49.46 | 55646 | 72866
4 | 16:11.42 | 6:01.42 | 72867 | 99983
5 | 22:13.09 | 8:08.56 | 99984 | 136639
6 | 30:21.65 | 6:52.51 | 136640 | 167590
7 | 37:14.41 | 3:25.61 | 167591 | 183026
8 | 40:40.27 | 5:12.66 | 183027 | 206492
9 | 45:53.18 | 13:29.17 | 206493 | 267184
10 | 59:22.35 | 9:10.47 | 267185 | 308481
11 | 68:33.07 | 8:40.48 | 308482 | 347529
Range status and errors
Selected range
Filename D:\EAC\Leonard Bernstein & Wiener Philharmoniker - Mozart The Late Symphonies (CD1) - Symphonies Nos.25, 29 & 38.wav
Peak level 92.1 %
Range quality 100.0 %
Copy CRC A779A091
Copy OK
No errors occurred
AccurateRip summary
Track 1 accurately ripped (confidence 9) [04EF2D4A]
Track 2 accurately ripped (confidence 9) [A49F0BBC]
Track 3 accurately ripped (confidence 9) [0DD74AD9]
Track 4 accurately ripped (confidence 9) [F80AD0E3]
Track 5 accurately ripped (confidence 9) [C2CE3A31]
Track 6 accurately ripped (confidence 9) [FEB9D117]
Track 7 accurately ripped (confidence 9) [25DE7276]
Track 8 accurately ripped (confidence 9) [1D856F27]
Track 9 accurately ripped (confidence 9) [3AA5DE94]
Track 10 accurately ripped (confidence 9) [4E104558]
Track 11 accurately ripped (confidence 9) [610F25B2]
All tracks accurately ripped
End of status report

CD2
Exact Audio Copy V0.99 prebeta 4 from 23. January 2008
EAC extraction logfile from 13. March 2010, 17:43
Leonard Bernstein & Wiener Philharmoniker / Mozart : The Late Symphonies (CD2) - Symphonies Nos.35, 36 & 40
Used drive : ASUS DRW-1814BLT Adapter: 2 ID: 2
Read mode : Secure
Utilize accurate stream : Yes
Defeat audio cache : Yes
Make use of C2 pointers : No
Read offset correction : 6
Overread into Lead-In and Lead-Out : No
Fill up missing offset samples with silence : Yes
Delete leading and trailing silent blocks : No
Null samples used in CRC calculations : Yes
Used interface : Native Win32 interface for Win NT & 2000
Used output format : Internal WAV Routines
Sample format : 44.100 Hz; 16 Bit; Stereo
TOC of the extracted CD
Track | Start | Length | Start sector | End sector
---------------------------------------------------------
1 | 0:00.00 | 5:47.38 | 0 | 26062
2 | 5:47.38 | 7:09.37 | 26063 | 58274
3 | 12:57.00 | 3:16.13 | 58275 | 72987
4 | 16:13.13 | 3:42.62 | 72988 | 89699
5 | 19:56.00 | 11:09.37 | 89700 | 139911
6 | 31:05.37 | 7:57.39 | 139912 | 175725
7 | 39:03.01 | 3:45.62 | 175726 | 192662
8 | 42:48.63 | 7:28.09 | 192663 | 226271
9 | 50:16.72 | 8:33.03 | 226272 | 264749
10 | 58:50.00 | 8:17.01 | 264750 | 302025
11 | 67:07.01 | 4:52.06 | 302026 | 323931
12 | 71:59.07 | 9:15.68 | 323932 | 365624
Range status and errors
Selected range
Filename D:\EAC\Leonard Bernstein & Wiener Philharmoniker - Mozart The Late Symphonies (CD2) - Symphonies Nos.35, 36 & 40.wav
Peak level 87.6 %
Range quality 99.9 %
Copy CRC 0139B3AA
Copy OK
No errors occurred
AccurateRip summary
Track 1 accurately ripped (confidence 12) [CF787925]
Track 2 accurately ripped (confidence 12) [387BFA30]
Track 3 accurately ripped (confidence 12) [097AAF85]
Track 4 accurately ripped (confidence 12) [C1E83779]
Track 5 accurately ripped (confidence 12) [856CEB9A]
Track 6 accurately ripped (confidence 12) [800BE467]
Track 7 accurately ripped (confidence 12) [B90FB034]
Track 8 accurately ripped (confidence 12) [B08CB905]
Track 9 accurately ripped (confidence 12) [ED74B0E2]
Track 10 accurately ripped (confidence 12) [D6001BCC]
Track 11 accurately ripped (confidence 12) [7A9B8798]
Track 12 accurately ripped (confidence 11) [1D39DBEC]
All tracks accurately ripped
End of status report

CD3
Exact Audio Copy V0.99 prebeta 4 from 23. January 2008
EAC extraction logfile from 13. March 2010, 20:13
Leonard Bernstein & Wiener Philharmoniker / Mozart : The Late Symphonies (CD3) - Symphonies Nos.39 & 41
Used drive : ASUS DRW-1814BLT Adapter: 2 ID: 2
Read mode : Secure
Utilize accurate stream : Yes
Defeat audio cache : Yes
Make use of C2 pointers : No
Read offset correction : 6
Overread into Lead-In and Lead-Out : No
Fill up missing offset samples with silence : Yes
Delete leading and trailing silent blocks : No
Null samples used in CRC calculations : Yes
Used interface : Native Win32 interface for Win NT & 2000
Used output format : Internal WAV Routines
Sample format : 44.100 Hz; 16 Bit; Stereo
TOC of the extracted CD
Track | Start | Length | Start sector | End sector
---------------------------------------------------------
1 | 0:00.00 | 11:22.09 | 0 | 51158
2 | 11:22.09 | 9:20.16 | 51159 | 93174
3 | 20:42.25 | 4:06.38 | 93175 | 111662
4 | 24:48.63 | 8:04.62 | 111663 | 148024
5 | 32:53.50 | 11:58.26 | 148025 | 201900
6 | 44:52.01 | 9:11.74 | 201901 | 243299
7 | 54:04.00 | 5:16.13 | 243300 | 267012
8 | 59:20.13 | 11:42.63 | 267013 | 319725
Range status and errors
Selected range
Filename D:\EAC\Leonard Bernstein & Wiener Philharmoniker - Mozart The Late Symphonies (CD3) - Symphonies Nos.39 & 41.wav
Peak level 92.5 %
Range quality 99.9 %
Copy CRC 0016C106
Copy OK
No errors occurred
AccurateRip summary
Track 1 accurately ripped (confidence 7) [30977964]
Track 2 accurately ripped (confidence 7) [8BFF3F03]
Track 3 accurately ripped (confidence 7) [92B82AD5]
Track 4 accurately ripped (confidence 7) [940FEBC0]
Track 5 accurately ripped (confidence 7) [9480A1A6]
Track 6 accurately ripped (confidence 7) [CAFCD072]
Track 7 accurately ripped (confidence 7) [A9BA4348]
Track 8 accurately ripped (confidence 7) [327D7EFC]
All tracks accurately ripped
End of status report

                                                                                       
                       
                       
                       
                       
                       
                                磁力下载(论坛代下载服务)::
                                                               
                                       
付费主题

已有1人支付


                                               
  • 1.01 GB
  • 温馨提示

    记得善用社区搜索功能,那里可能会有你想要的资源;论坛站内搜索

    如果你有什么需要的资源可以去资源求档发帖,求助社区的网友,我们会在第一时间给你回复哦;资源求档

    对于本社区网盘链接失效密码错误各种报错请在反馈板块反馈报错发帖,您的支持,是我们发展的最大动力;投诉建议

    回复

    使用道具 举报

    您需要登录后才可以回帖 登录 | 立即注册 微信登录

    本版积分规则

    关注0

    粉丝0

    帖子32315

    发布主题
    阅读排行更多+
    关闭

    站长推荐上一条 /1 下一条

    活动提示

    赞助永久VIP会员送3T硬盘一块 限时活动

    地址:立刻参加

    我知道了
    收藏帖子 返回列表 这是一个自定义按钮
    音乐分享,音乐下载。
    微信公众号
    微信号:hires_
    意见反馈:admin@maomicd.com

    加入我们的官方QQ群和微信群

    Powered by Discuz! X3.4 Archiver|手机版|小黑屋|捌零音乐论坛 ( 苏ICP备20015413号 )|( 苏公网安备 32030502000272号) 繁體

    GMT+8, 2021-9-26 09:45