[古典] (Симфоническая музыка) Моцарт Симфония No.40; Бетховен Симфония No.4; Лядов, Глазунов - Мравинский (Mozart, Beethoven, Lyadov & Glazunov - Mravinsky) - 1972, APE (image + .

[复制链接]
10086 发表于 7 天前 | 显示全部楼层 |阅读模式 打印 上一主题 下一主题
Моцарт Симфония No.40; Бетховен Симфония No.4; Лядов, Глазунов - Мравинский
Страна: Россия
Жанр: Симфоническая музыка
Год выпуска: 1972
Формат: APE (image + .cue)
Битрейт аудио: lossless
Продолжительность: 63'12''
Трэклист:
CD: Leningrad PhO, Mravinsky - Mozart, Beethoven, Lyadov & Glazunov
01. Mozart Symphony No.40 - I. Molto allegro [0:08:20.15]
02. Mozart Symphony No.40 - II. Andante [0:07:15.60]
03. Mozart Symphony No.40 - III. Menuetto: Allegro [0:04:32.00]
04. Mozart Symphony No.40 - IV. Allegro assai [0:04:51.67]
05. Beethoven Symphony No.4 - I. Adagio - Allegro vivace [0:08:59.65]
06. Beethoven Symphony No.4 - II. Adagio [0:09:39.73]
07. Beethoven Symphony No.4 - III. Menuetto: Allegro vivace [0:05:39.10]
08. Beethoven Symphony No.4 - IV. Allegro ma non troppo [0:06:45.55]
09. Lyadov Baba Yaga Op.56 [0:03:32.42]
10. Glazunov Entracte from Raymonda [0:03:35.08]
Доп. информация: Это единственная у Мравинского запись 40-й симфонии, и выходила она только один раз на этом диске в 1994 году. Очень ясное, точное и искреннее прочтение! Бетховен, Лядов и Глазунов записаны по трансляции в Японии в 1973 году
скрытый текст
Exact Audio Copy V0.99 prebeta 3 from 28. July 2007
EAC extraction logfile from 19. March 2008, 16:02
Leningrad PhO, Mravinsky / Mozart, Beethoven, Lyadov & Glazunov
Used drive : _NEC DVD_RW ND-3540A Adapter: 0 ID: 0
Read mode : Secure
Utilize accurate stream : Yes
Defeat audio cache : No
Make use of C2 pointers : No
Read offset correction : 48
Overread into Lead-In and Lead-Out : No
Fill up missing offset samples with silence : Yes
Delete leading and trailing silent blocks : No
Null samples used in CRC calculations : No
Used interface : Installed external ASPI interface
Used output format : Internal WAV Routines
Sample format : 44.100 Hz; 16 Bit; Stereo
TOC of the extracted CD
Track | Start | Length | Start sector | End sector
---------------------------------------------------------
1 | 0:00.00 | 8:20.15 | 0 | 37514
2 | 8:20.15 | 7:15.60 | 37515 | 70199
3 | 15:36.00 | 4:32.00 | 70200 | 90599
4 | 20:08.00 | 4:51.67 | 90600 | 112491
5 | 24:59.67 | 8:59.65 | 112492 | 152981
6 | 33:59.57 | 9:39.73 | 152982 | 196479
7 | 43:39.55 | 5:39.10 | 196480 | 221914
8 | 49:18.65 | 6:45.55 | 221915 | 252344
9 | 56:04.45 | 3:32.42 | 252345 | 268286
10 | 59:37.12 | 3:35.08 | 268287 | 284419
Range status and errors
Selected range
Filename G:\Temp\Mozart 40, Beethoven 4, Lyadov, Glazunov - Mravinsky [1972,73 Russian Disc]\Leningrad PhO, Mravinsky - Mozart, Beethoven, Lyadov & Glazunov.wav
Peak level 69.0 %
Range quality 100.0 %
Test CRC 9D84147C
Copy CRC 9D84147C
Copy OK
No errors occurred
End of status report
Ссылки на другие выложенные записи Мравинского можно найти здесь https://rutracker.org/forum/https://rutracker.net/forum/viewtopic.php?t=674831                                                                                       
                       
                       
                       
                       
                       
                                磁力下载(论坛代下载服务)::
                                                               
                                       
付费主题

已有0人支付


                                               
  • 247.5 MB
  • 温馨提示

    记得善用社区搜索功能,那里可能会有你想要的资源;论坛站内搜索

    如果你有什么需要的资源可以去资源求档发帖,求助社区的网友,我们会在第一时间给你回复哦;资源求档

    对于本社区网盘链接失效密码错误各种报错请在反馈板块反馈报错发帖,您的支持,是我们发展的最大动力;投诉建议

    回复

    使用道具 举报

    您需要登录后才可以回帖 登录 | 立即注册 微信登录

    本版积分规则

    关注0

    粉丝7

    帖子52319

    发布主题
    阅读排行更多+
    关闭

    站长推荐上一条 /1 下一条

    活动提示

    赞助永久VIP会员送3T硬盘一块 限时活动

    地址:立刻参加

    我知道了
    收藏帖子 返回列表 这是一个自定义按钮
    音乐分享,音乐下载。
    微信公众号
    微信号:hires_
    意见反馈:admin@maomicd.com

    加入我们的官方QQ群和微信群

    Powered by Discuz! X3.4 Archiver|手机版|小黑屋|捌零音乐论坛 ( 苏ICP备20015413号 )|( 苏公网安备 32030502000272号) 繁體

    GMT+8, 2021-9-17 00:15