[古典] (Симфоническая музыка) Бетховен Симфония 4, Брамс Симфония 4 - Мравинский/Beethoven Symphony 4, Brahms Symphony 4 - Mravinsky, FLAC (tracks), lossless

[复制链接]
Бетховен Симфония 4, Брамс Симфония 4 - Мравинский/Beethoven Symphony 4, Brahms Symphony 4 - Mravinsky
Жанр: Симфоническая музыка
Год выпуска диска: 2004
Производитель диска: Россия
Аудио кодек: FLAC
Тип рипа: tracks
Битрейт аудио: lossless
Продолжительность: 71'11''
Трэклист:
01. Beethoven. Symphony No.4, Op.60 I. Adagio. Allegro vivace.flac
02. II. Adagio.flac
03. III. Menuetto. Allegro vivace.flac
04. IV. Allegro ma non troppo.flac
05. Brahms. Symphony No.4, Op.98 I. Allegro non troppo.flac
06. II. Andante moderato.flac
07. III. Allegro giocoso.flac
08. IV. Allegro energico e passionato.flac
Доп. информация: ЗКР АСО Лен.филармонии
Запись из Большого зала Лен. филармонии, 28.04.1973
Log
Exact Audio Copy V0.99 prebeta 5 from 4. May 2009
EAC extraction logfile from 12. October 2009, 14:01
Evgeni Mravinsky, Leningrad Philharmonic Orchestra / Evgeni Mravinsky - Beethoven, Brahms. Symphonies 4
Used drive : PLEXTOR DVDR PX-800A Adapter: 1 ID: 0
Read mode : Secure
Utilize accurate stream : Yes
Defeat audio cache : Yes
Make use of C2 pointers : No
Read offset correction : 48
Overread into Lead-In and Lead-Out : No
Fill up missing offset samples with silence : Yes
Delete leading and trailing silent blocks : No
Null samples used in CRC calculations : No
Used interface : Native Win32 interface for Win NT & 2000
Gap handling : Not detected, thus appended to previous track
Used output format : User Defined Encoder
Selected bitrate : 1024 kBit/s
Quality : High
Add ID3 tag : No
Command line compressor : C:\Program Files\Exact Audio Copy\FLAC\FLAC.EXE
Additional command line options : -6 -V -T "ARTIST=%a" -T "TITLE=%t" -T "ALBUM=%g" -T "DATE=%y" -T "TRACKNUMBER=%n" -T "GENRE=%m" -T "COMMENT=%e" %s -o %d
TOC of the extracted CD
Track | Start | Length | Start sector | End sector
---------------------------------------------------------
1 | 0:00.00 | 9:24.58 | 0 | 42357
2 | 9:24.58 | 9:46.00 | 42358 | 86307
3 | 19:10.58 | 5:52.18 | 86308 | 112725
4 | 25:03.01 | 6:51.61 | 112726 | 143611
5 | 31:54.62 | 12:37.40 | 143612 | 200426
6 | 44:32.27 | 10:14.10 | 200427 | 246486
7 | 54:46.37 | 6:09.35 | 246487 | 274196
8 | 60:55.72 | 10:18.20 | 274197 | 320566
Track 1
Filename E:\1111\Evgeni_Mravinsky-Beethoven,Brahms.Sym.4(28.04.1973)(flac)\01 - Beethoven. Symphony No.4, Op.60 I. Adagio. Allegro vivace.wav
Peak level 95.8 %
Track quality 100.0 %
Copy CRC CC020F21
Track not present in AccurateRip database
Copy OK
Track 2
Filename E:\1111\Evgeni_Mravinsky-Beethoven,Brahms.Sym.4(28.04.1973)(flac)\02 - II. Adagio.wav
Peak level 86.8 %
Track quality 100.0 %
Copy CRC A5DCF56C
Track not present in AccurateRip database
Copy OK
Track 3
Filename E:\1111\Evgeni_Mravinsky-Beethoven,Brahms.Sym.4(28.04.1973)(flac)\03 - III. Menuetto. Allegro vivace.wav
Peak level 82.4 %
Track quality 100.0 %
Copy CRC 6C665300
Track not present in AccurateRip database
Copy OK
Track 4
Filename E:\1111\Evgeni_Mravinsky-Beethoven,Brahms.Sym.4(28.04.1973)(flac)\04 - IV. Allegro ma non troppo.wav
Peak level 90.2 %
Track quality 100.0 %
Copy CRC 86E746AF
Track not present in AccurateRip database
Copy OK
Track 5
Filename E:\1111\Evgeni_Mravinsky-Beethoven,Brahms.Sym.4(28.04.1973)(flac)\05 - Brahms. Symphony No.4, Op.98 I. Allegro non troppo.wav
Peak level 94.9 %
Track quality 100.0 %
Copy CRC 1A3C1434
Track not present in AccurateRip database
Copy OK
Track 6
Filename E:\1111\Evgeni_Mravinsky-Beethoven,Brahms.Sym.4(28.04.1973)(flac)\06 - II. Andante moderato.wav
Peak level 70.0 %
Track quality 100.0 %
Copy CRC 7E4C3051
Track not present in AccurateRip database
Copy OK
Track 7
Filename E:\1111\Evgeni_Mravinsky-Beethoven,Brahms.Sym.4(28.04.1973)(flac)\07 - III. Allegro giocoso.wav
Peak level 76.6 %
Track quality 100.0 %
Copy CRC CAC0FE9C
Track not present in AccurateRip database
Copy OK
Track 8
Filename E:\1111\Evgeni_Mravinsky-Beethoven,Brahms.Sym.4(28.04.1973)(flac)\08 - IV. Allegro energico e passionato.wav
Peak level 80.3 %
Track quality 100.0 %
Copy CRC 45C99575
Track not present in AccurateRip database
Copy OK
None of the tracks are present in the AccurateRip database
No errors occurred
End of status report
                                                                                       
                       
                       
                       
                       
                       
                                磁力下载(论坛代下载服务)::
                                                               
                                       
付费主题

已有0人支付


                                               
  • 318.6 MB
  • 温馨提示

    记得善用社区搜索功能,那里可能会有你想要的资源;论坛站内搜索

    如果你有什么需要的资源可以去资源求档发帖,求助社区的网友,我们会在第一时间给你回复哦;资源求档

    对于本社区网盘链接失效密码错误各种报错请在反馈板块反馈报错发帖,您的支持,是我们发展的最大动力;投诉建议

    回复

    使用道具 举报

    您需要登录后才可以回帖 登录 | 立即注册 微信登录

    本版积分规则

    关注0

    粉丝18

    帖子87653

    发布主题
    阅读排行更多+
    关闭

    站长推荐上一条 /1 下一条

    活动提示

    赞助永久VIP会员送3T硬盘一块 限时活动

    地址:立刻参加

    我知道了
    收藏帖子 返回列表 这是一个自定义按钮
    音乐分享,音乐下载。
    微信公众号
    微信号:hires_
    意见反馈:admin@maomicd.com

    加入我们的官方QQ群和微信群

    Powered by Discuz! X3.4 Archiver|手机版|小黑屋|捌零音乐论坛 ( 苏ICP备20015413号 )|( 苏公网安备 32030502000272号) 繁體

    GMT+8, 2021-9-17 00:07