[古典] (Симфоническая музыка) Mravinsky in Japan vol.8 - Glazunov, Tchaikovsky (Мравинский в Японии (том 8) - Глазунов, Чайковский) - 1979, APE (image + .cue), lossless

[复制链接]
全球搬运 发表于 2021-9-10 16:56:51 | 显示全部楼层 |阅读模式 打印 上一主题 下一主题
Mravinsky in Japan vol.8 - Glazunov, Tchaikovsky (Мравинский в Японии (том 8) - Глазунов, Чайковский)
Страна: Япония
Жанр: Симфоническая музыка
Год выпуска: 1979
Формат: APE (image + .cue)
Битрейт аудио: lossless
Продолжительность: 57:07
Трэклист:
CD: Leningrad Philharmonic Orchestra, Yevgeni Mravinsky - Mravinsky in Japan Vol.8
01. Glazunov Symphony No.5 - I. Moderato maestoso - Allegro [0:12:02.72]
02. Glazunov Symphony No.5 - II. Scherzo. Moderato [0:05:20.66]
03. Glazunov Symphony No.5 - III. Andante [0:09:52.30]
04. Glazunov Symphony No.5 - IV. Allegro maestoso [0:07:42.63]
05. Tchaikovsky The Sleeping Beauty - Overture (Introduction) [0:05:39.17]
06. Tchaikovsky The Sleeping Beauty - Adagio [0:06:37.16]
07. Tchaikovsky The Sleeping Beauty - Panorama [0:04:43.13]
08. Tchaikovsky The Sleeping Beauty - Waltz [0:05:08.31]
Доп. информация: Записано с концертов в Токио, 1979 год
Фрагменты из "Спящей красавицы" - редкая запись у Мравинского, которую сейчас уже сложно найти. Тем более, единственная запись была сделана в 48 году (могу её потом выложить тоже). А эта запись (хотя всего 4 номера, а не 12, как в 48 году) - 30 лет спустя, больше нигде не издавалась.
Глазунов у Мравинского замечательный! (честно говоря, я начал его слушать только после знакомства с записями Мравинского :-)) Пятая была на EMI-шном двойнике (запись 68 года), там она звучит совершенно иначе. Очень интересно сравнивать Глазунова - например, Четвертую - у Мравинского и Светланова. Порой совершенно разная музыка, но замечательная и интересная по-своему у каждого!
Том 1 выложен здесь https://rutracker.org/forum/https://rutracker.net/forum/viewtopic.php?p=7129731
Том 4 выложен здесь https://rutracker.org/forum/https://rutracker.net/forum/viewtopic.php?t=663488
Том 5 выложен здесь https://rutracker.org/forum/https://rutracker.net/forum/viewtopic.php?p=7254243
скрытый текст
Exact Audio Copy V0.99 prebeta 3 from 28. July 2007
EAC extraction logfile from 14. February 2008, 20:31
Leningrad Philharmonic Orchestra, Yevgeni Mravinsky / Mravinsky in Japan Vol.8
Used drive : _NEC DVD_RW ND-3540A Adapter: 0 ID: 0
Read mode : Secure
Utilize accurate stream : Yes
Defeat audio cache : No
Make use of C2 pointers : No
Read offset correction : 48
Overread into Lead-In and Lead-Out : No
Fill up missing offset samples with silence : Yes
Delete leading and trailing silent blocks : No
Null samples used in CRC calculations : No
Used interface : Installed external ASPI interface
Used output format : Internal WAV Routines
Sample format : 44.100 Hz; 16 Bit; Stereo
TOC of the extracted CD
Track | Start | Length | Start sector | End sector
---------------------------------------------------------
1 | 0:00.00 | 12:02.72 | 0 | 54221
2 | 12:02.72 | 5:20.66 | 54222 | 78287
3 | 17:23.63 | 9:52.30 | 78288 | 122717
4 | 27:16.18 | 7:42.63 | 122718 | 157430
5 | 34:59.06 | 5:39.17 | 157431 | 182872
6 | 40:38.23 | 6:37.16 | 182873 | 212663
7 | 47:15.39 | 4:43.13 | 212664 | 233901
8 | 51:58.52 | 5:08.31 | 233902 | 257032
Range status and errors
Selected range
Filename G:\Temp\Mravinsky in Japan vol.8 - Glazunov, Tchaikovsky\Mravinsky in Japan Vol.8.wav
Peak level 97.4 %
Range quality 100.0 %
Test CRC 740DF08A
Copy CRC 740DF08A
Copy OK
No errors occurred
End of status report
Ссылки на другие выложенные записи Мравинского можно найти здесь https://rutracker.org/forum/https://rutracker.net/forum/viewtopic.php?t=674831                                                                                       
                       
                       
                       
                       
                       
                                磁力下载(论坛代下载服务)::
                                                               
                                       
付费主题

已有0人支付


                                               
  • 265.3 MB
  • 温馨提示

    记得善用社区搜索功能,那里可能会有你想要的资源;论坛站内搜索

    如果你有什么需要的资源可以去资源求档发帖,求助社区的网友,我们会在第一时间给你回复哦;资源求档

    对于本社区网盘链接失效密码错误各种报错请在反馈板块反馈报错发帖,您的支持,是我们发展的最大动力;投诉建议

    回复

    使用道具 举报

    您需要登录后才可以回帖 登录 | 立即注册 微信登录

    本版积分规则

    关注0

    粉丝16

    帖子70967

    发布主题
    阅读排行更多+
    关闭

    站长推荐上一条 /1 下一条

    活动提示

    赞助永久VIP会员送3T硬盘一块 限时活动

    地址:立刻参加

    我知道了
    收藏帖子 返回列表 这是一个自定义按钮
    音乐分享,音乐下载。
    微信公众号
    微信号:hires_
    意见反馈:admin@maomicd.com

    加入我们的官方QQ群和微信群

    Powered by Discuz! X3.4 Archiver|手机版|小黑屋|捌零音乐论坛 ( 苏ICP备20015413号 )|( 苏公网安备 32030502000272号) 繁體

    GMT+8, 2021-9-21 13:35