[古典] (Симфоническая музыка) Mravinsky in Japan vol.4 - Sibelius, Tchaikovsky - 1977 (Мравинский в Японии (том 4) - Сибелиус, Чайковский), APE (image + .cue), lossless

[复制链接]
lz189 发表于 6 天前 | 显示全部楼层 |阅读模式 打印 上一主题 下一主题
Mravinsky in Japan vol.4 - Sibelius, Tchaikovsky (Мравинский в Японии (том 4) - Сибелиус, Чайковский)
Страна: Япония
Жанр: Симфоническая музыка
Год выпуска: 1977
Формат: APE (image + .cue)
Битрейт аудио: lossless
Продолжительность: 55 минут
Трэклист:
CD: Leningrad Philharmonic Orchestra, Yevgeni Mravinsky - Mravinsky in Japan Vol.4
01. Sibelius Symphony No.7 [0:21:06.69]
02. Tchaikovsky The Nutcracher - No.6. Departure of the guests. Night [0:07:50.30]
03. Tchaikovsky The Nutcracher - No.7. The battle [0:03:32.64]
04. Tchaikovsky The Nutcracher - No.8. The forest of firs in winter [0:03:51.74]
05. Tchaikovsky The Nutcracher - No.9. Waltz of the snowflakes [0:06:36.56]
06. Tchaikovsky The Nutcracher - No.14. Pas de deux [0:05:41.60]
07. Tchaikovsky The Nutcracher - No.15. Final Waltz and Apotheosis [0:05:02.49]
Доп. информация: Записано с концертов в Токио, 1977 год
Хочу предупредить - качество трансляционное! Звучание (по динамике и передаче тембров) хорошее, непохожее на любые другие записи оркестра (в СССР или в Европе). Очень рекомендую ознакомиться хотя бы с одним диском!
Как я не пытался выяснить у японцев - как делались эти записи? ("с коленки", по трансляции, официально или ещё как...) - ничего выяснить не удалось: "восточные люди" да-нет не говорят. Вообще, практически все зарубежные записи делались без санкции Мравинского, до конца причин его запретов я не понимаю (он не хотел слишком нервировать оркестр дополнительной ответственностью). Поэтому делали - как могли. Редко когда встречается качественный и полноценный стереозвук. Но исполнения бесподобные! можно смело сказать, что так оркестр нигде не играл.
(у меня, увы, есть далеко не все тома, вышедшие на этой фирме - 6 или 7...)
скрытый текст
Exact Audio Copy V0.99 prebeta 3 from 28. July 2007
EAC extraction logfile from 13. February 2008, 22:51
Leningrad Philharmonic Orchestra, Yevgeni Mravinsky / Mravinsky in Japan Vol.4
Used drive : _NEC DVD_RW ND-3540A Adapter: 0 ID: 0
Read mode : Secure
Utilize accurate stream : Yes
Defeat audio cache : No
Make use of C2 pointers : No
Read offset correction : 48
Overread into Lead-In and Lead-Out : No
Fill up missing offset samples with silence : Yes
Delete leading and trailing silent blocks : No
Null samples used in CRC calculations : No
Used interface : Installed external ASPI interface
Used output format : Internal WAV Routines
Sample format : 44.100 Hz; 16 Bit; Stereo
TOC of the extracted CD
Track | Start | Length | Start sector | End sector
---------------------------------------------------------
1 | 0:00.00 | 21:06.69 | 0 | 95018
2 | 21:06.69 | 7:50.30 | 95019 | 130298
3 | 28:57.24 | 3:32.64 | 130299 | 146262
4 | 32:30.13 | 3:51.74 | 146263 | 163661
5 | 36:22.12 | 6:36.56 | 163662 | 193417
6 | 42:58.68 | 5:41.60 | 193418 | 219052
7 | 48:40.53 | 5:02.49 | 219053 | 241751
Range status and errors
Selected range
Filename G:\Temp\Mravinsky in Japan vol.4 - Sibelius, Tchaikovsky\Mravinsky in Japan Vol.4.wav
Peak level 97.5 %
Range quality 99.9 %
Test CRC 428E903A
Copy CRC 428E903A
Copy OK
No errors occurred
End of status report
Том 1 выложен здесь https://rutracker.org/forum/https://rutracker.net/forum/viewtopic.php?p=7129731
Том 5 выложен здесь https://rutracker.org/forum/https://rutracker.net/forum/viewtopic.php?p=7254243
Том 8 выложен здесь https://rutracker.org/forum/https://rutracker.net/forum/viewtopic.php?p=7143795
Ссылки на другие выложенные записи Мравинского можно найти здесь https://rutracker.org/forum/https://rutracker.net/forum/viewtopic.php?t=674831                                                                                       
                       
                       
                       
                       
                       
                                磁力下载(论坛代下载服务)::
                                                               
                                       
付费主题

已有0人支付


                                               
  • 253 MB
  • 温馨提示

    记得善用社区搜索功能,那里可能会有你想要的资源;论坛站内搜索

    如果你有什么需要的资源可以去资源求档发帖,求助社区的网友,我们会在第一时间给你回复哦;资源求档

    对于本社区网盘链接失效密码错误各种报错请在反馈板块反馈报错发帖,您的支持,是我们发展的最大动力;投诉建议

    回复

    使用道具 举报

    您需要登录后才可以回帖 登录 | 立即注册 微信登录

    本版积分规则

    关注0

    粉丝0

    帖子31255

    发布主题
    阅读排行更多+
    关闭

    站长推荐上一条 /1 下一条

    活动提示

    赞助永久VIP会员送3T硬盘一块 限时活动

    地址:立刻参加

    我知道了
    收藏帖子 返回列表 这是一个自定义按钮
    音乐分享,音乐下载。
    微信公众号
    微信号:hires_
    意见反馈:admin@maomicd.com

    加入我们的官方QQ群和微信群

    Powered by Discuz! X3.4 Archiver|手机版|小黑屋|捌零音乐论坛 ( 苏ICP备20015413号 )|( 苏公网安备 32030502000272号) 繁體

    GMT+8, 2021-9-16 23:55