[古典] (Симфоническая музыка) Mravinsky in Japan vol.1 - Wagner, Brahms (Мравинский в Японии (том 1) - Вагнер, Брамс) - 1977, APE (image + .cue), lossless

[复制链接]
lz189 发表于 2021-9-10 16:56:50 | 显示全部楼层 |阅读模式 打印 上一主题 下一主题
Mravinsky in Japan vol.1 - Wagner, Brahms (Мравинский в Японии (том 1) - Вагнер, Брамс)
Страна: Япония
Жанр: Симфоническая музыка
Год выпуска: 1977
Формат: APE (image + .cue)
Битрейт аудио: lossless
Продолжительность: 48:56
Трэклист:
CD: Leningrad Philharmonic Orchestra, Yevgeni Mravinsky - Mravinsky in Japan Vol.1
01. Wagner Die Meistersinger von Nurnberg. Vorspiel [0:10:28.01]
02. Brahms Symphony No.2 - I. Allegro non troppo [0:15:32.10]
03. Brahms Symphony No.2 - II. Adagio non troppo [0:09:09.57]
04. Brahms Symphony No.2 - III. Allegretto grazioso [0:04:53.23]
05. Brahms Symphony No.2 - IV. Allegro con spirito [0:08:53.48]
Доп. информация: Записано с концертов в Токио, 1977 год
Снова предупреждаю - качество трансляционное! Однако запись дает хорошее представление о том, как оркестр звучал в зале. Во многих других записях (сделанных в СССР, но не на "Мелодии") слышна "перегрузка" - это очень искажает тембры и общее представление о балансе. А японские записи (даже сделанные "издалека") в этом плане звучат много выигрышнее!
Том 4 выложен здесь https://rutracker.org/forum/https://rutracker.net/forum/viewtopic.php?t=663488
Том 5 выложен здесь https://rutracker.org/forum/https://rutracker.net/forum/viewtopic.php?p=7254243
Том 8 выложен здесь https://rutracker.org/forum/https://rutracker.net/forum/viewtopic.php?p=7143795
скрытый текст
Exact Audio Copy V0.99 prebeta 3 from 28. July 2007
EAC extraction logfile from 14. February 2008, 7:38
Leningrad Philharmonic Orchestra, Yevgeni Mravinsky / Mravinsky in Japan Vol.1
Used drive : _NEC DVD_RW ND-3540A Adapter: 0 ID: 0
Read mode : Secure
Utilize accurate stream : Yes
Defeat audio cache : No
Make use of C2 pointers : No
Read offset correction : 48
Overread into Lead-In and Lead-Out : No
Fill up missing offset samples with silence : Yes
Delete leading and trailing silent blocks : No
Null samples used in CRC calculations : No
Used interface : Installed external ASPI interface
Used output format : Internal WAV Routines
Sample format : 44.100 Hz; 16 Bit; Stereo
TOC of the extracted CD
Track | Start | Length | Start sector | End sector
---------------------------------------------------------
1 | 0:00.00 | 10:28.01 | 0 | 47100
2 | 10:28.01 | 15:32.10 | 47101 | 117010
3 | 26:00.11 | 9:09.57 | 117011 | 158242
4 | 35:09.68 | 4:53.23 | 158243 | 180240
5 | 40:03.16 | 8:53.48 | 180241 | 220263
Range status and errors
Selected range
Filename G:\Temp\Mravinsky in Japan vol.1 - Wagner, Brahms\Mravinsky in Japan Vol.1.wav
Peak level 97.4 %
Range quality 100.0 %
Test CRC A6F81884
Copy CRC A6F81884
Copy OK
No errors occurred
End of status report
Ссылки на другие выложенные записи Мравинского можно найти здесь https://rutracker.org/forum/https://rutracker.net/forum/viewtopic.php?t=674831                                                                                       
                       
                       
                       
                       
                       
                                磁力下载(论坛代下载服务)::
                                                               
                                       
付费主题

已有0人支付


                                               
  • 239.1 MB
  • 温馨提示

    记得善用社区搜索功能,那里可能会有你想要的资源;论坛站内搜索

    如果你有什么需要的资源可以去资源求档发帖,求助社区的网友,我们会在第一时间给你回复哦;资源求档

    对于本社区网盘链接失效密码错误各种报错请在反馈板块反馈报错发帖,您的支持,是我们发展的最大动力;投诉建议

    回复

    使用道具 举报

    您需要登录后才可以回帖 登录 | 立即注册 微信登录

    本版积分规则

    关注0

    粉丝0

    帖子31255

    发布主题
    阅读排行更多+
    关闭

    站长推荐上一条 /1 下一条

    活动提示

    赞助永久VIP会员送3T硬盘一块 限时活动

    地址:立刻参加

    我知道了
    收藏帖子 返回列表 这是一个自定义按钮
    音乐分享,音乐下载。
    微信公众号
    微信号:hires_
    意见反馈:admin@maomicd.com

    加入我们的官方QQ群和微信群

    Powered by Discuz! X3.4 Archiver|手机版|小黑屋|捌零音乐论坛 ( 苏ICP备20015413号 )|( 苏公网安备 32030502000272号) 繁體

    GMT+8, 2021-9-21 13:13