[古典] (Orchestral) [CD] Igor Stravinsky performs Stravinsky - Petrushka / Петрушка, The Fire Bird / Жар-птица, Capriccio for Piano and Orchestra (Walter Straram Concerts Orchestra, The S

[复制链接]
10086 发表于 2021-9-10 16:56:50 | 显示全部楼层 |阅读模式 打印 上一主题 下一主题
Igor Stravinsky performs Stravinsky
Жанр: Orchestral, Instrumental • Издание диска: Dutton Austria • Номер по каталогу: CDBP 9814 • Год издания: 2012
Продолжительность: 1:09:07 • Аудиокодек: FLAC (*.flac) • Тип рипа: image+.cue • Битрейт аудио: lossless • Источник: свой диск • Наличие сканов: да
Треклист
Petrushka "Ballet Scenes" Suite:
01. The Shrove-tide Fair (3:58)
02. Le Tour de Passe-Passe (1:36)
03. Russian Dance (2:19)
04. In Petrushka's Room (3:47)
05. The Blackamoor's Room (3:43)
06. The Shrove-tide Fair (3:44)
07. Dance of The Coachmen - Finale (4:03)
Igor Stravinsky - The Symphony Orchestra
[Recorded June 27-28, 1928]
The Fire Bird:
08. The Enchanted Garden (2:58)
09. Entry and Dance of The Firebird (3:58)
10. The Firebird beseeches Prince Ivan to release her (3:55)
11. The Princesses play with the golden apples (2:39)
12. Rondo of The Princesses (3:56)
13. Danse Infermale of King Kastchei and Demons (3:53)
14. Interlude (berceuse) (3:34)
15. Marrige of The Firebird and Prince Ivan (3:22)
Igor Stravinsky - Walter Straram Concerts Orchestra
[Recorded November 8, 10, 1928]
Capriccio for Piano and Orchestra:
16. Presto (6:52)
17. Andante rapsodico (5:33)
18. Allegro capriccioso ma tempo giusto (5:18)
Igor Stravinsky (piano)
Ernest Ansermet - Walter Straram Concerts Orchestra
[Recorded May 8-10, 1930]

Лог создания рипа

Exact Audio Copy V1.6 from 23. October 2020
EAC extraction logfile from 10. March 2021, 3:33
Igor Stravinsky / performs Stravinsky
Used drive  : HL-DT-STDVDRAM GP65NB60   Adapter: 1  ID: 0
Read mode               : Secure
Utilize accurate stream : Yes
Defeat audio cache      : Yes
Make use of C2 pointers : No
Read offset correction                      : 6
Overread into Lead-In and Lead-Out          : No
Fill up missing offset samples with silence : Yes
Delete leading and trailing silent blocks   : No
Null samples used in CRC calculations       : Yes
Used interface                              : Native Win32 interface for Win NT & 2000
Used output format              : User Defined Encoder
Selected bitrate                : 1024 kBit/s
Quality                         : High
Add ID3 tag                     : No
Command line compressor         : C:\Program Files (x86)\Exact Audio Copy\Flac\flac.exe
Additional command line options : -V -8 -T "Date=%year%" -T "Genre=%genre%" %source%
TOC of the extracted CD
     Track |   Start  |  Length  | Start sector | End sector
    ---------------------------------------------------------
        1  |  0:01.00 |  3:57.64 |        75    |    17913
        2  |  3:58.64 |  1:35.53 |     17914    |    25091
        3  |  5:34.42 |  2:19.33 |     25092    |    35549
        4  |  7:54.00 |  3:46.64 |     35550    |    52563
        5  | 11:40.64 |  3:42.68 |     52564    |    69281
        6  | 15:23.57 |  3:44.10 |     69282    |    86091
        7  | 19:07.67 |  4:02.51 |     86092    |   104292
        8  | 23:10.43 |  2:58.16 |    104293    |   117658
        9  | 26:08.59 |  3:57.42 |    117659    |   135475
       10  | 30:06.26 |  3:55.02 |    135476    |   153102
       11  | 34:01.28 |  2:38.45 |    153103    |   164997
       12  | 36:39.73 |  3:56.08 |    164998    |   182705
       13  | 40:36.06 |  3:52.61 |    182706    |   200166
       14  | 44:28.67 |  3:34.33 |    200167    |   216249
       15  | 48:03.25 |  3:21.40 |    216250    |   231364
       16  | 51:24.65 |  6:51.72 |    231365    |   262261
       17  | 58:16.62 |  5:33.11 |    262262    |   287247
       18  | 63:49.73 |  5:17.63 |    287248    |   311085
Range status and errors
Selected range
     Filename D:\Igor Stravinsky performs Stravinsky [CDBP 9814].wav
     Peak level 77.6 %
     Extraction speed 2.1 X
     Range quality 100.0 %
     Test CRC A611444C
     Copy CRC A611444C
     Copy OK
No errors occurred
AccurateRip summary
Track  1  not present in database
Track  2  not present in database
Track  3  not present in database
Track  4  not present in database
Track  5  not present in database
Track  6  not present in database
Track  7  not present in database
Track  8  not present in database
Track  9  not present in database
Track 10  not present in database
Track 11  not present in database
Track 12  not present in database
Track 13  not present in database
Track 14  not present in database
Track 15  not present in database
Track 16  not present in database
Track 17  not present in database
Track 18  not present in database
None of the tracks are present in the AccurateRip database
End of status report
---- CUETools DB Plugin V2.1.6
[CTDB TOCID: iD_2iR3ufBzBIHFbexwdw7ZfpYg-] disk not present in database
Submit result: iD_2iR3ufBzBIHFbexwdw7ZfpYg- has been uploaded
==== Log checksum 619727DD5CD3544489470FEA3191CC12C5499C2A39C726781CA6C9B843449596 ====


Содержание индексной карты (.cue)

REM GENRE "[CDBP 9814]"
REM DATE 2012
REM DISCID F8103212
REM COMMENT "ExactAudioCopy v1.6"
PERFORMER "Igor Stravinsky"
TITLE "performs Stravinsky"
REM COMPOSER ""
FILE "Igor Stravinsky performs Stravinsky [CDBP 9814].flac" WAVE
  TRACK 01 AUDIO
    TITLE "Petrushka 'Ballet Scenes' Suites: The Shrove-tide Fair"
    PERFORMER "Igor Stravinsky"
    REM COMPOSER ""
    ISRC GBCTP1291401
    INDEX 00 00:00:00
    INDEX 01 00:01:00
  TRACK 02 AUDIO
    TITLE "Le Tour de Passe-Passe"
    PERFORMER "Igor Stravinsky"
    REM COMPOSER ""
    ISRC GBCTP1291402
    INDEX 01 03:58:64
  TRACK 03 AUDIO
    TITLE "Russian Dance"
    PERFORMER "Igor Stravinsky"
    REM COMPOSER ""
    ISRC GBCTP1291403
    INDEX 01 05:34:42
  TRACK 04 AUDIO
    TITLE "In Petrushka's Room"
    PERFORMER "Igor Stravinsky"
    REM COMPOSER ""
    ISRC GBCTP1291404
    INDEX 01 07:54:00
  TRACK 05 AUDIO
    TITLE "The Blackamoor's Room"
    PERFORMER "Igor Stravinsky"
    REM COMPOSER ""
    ISRC GBCTP1291405
    INDEX 01 11:40:64
  TRACK 06 AUDIO
    TITLE "The Shrove-tide Fair"
    PERFORMER "Igor Stravinsky"
    REM COMPOSER ""
    ISRC GBCTP1291406
    INDEX 01 15:23:57
  TRACK 07 AUDIO
    TITLE "Dance of The Coachmen - Finale"
    PERFORMER "Igor Stravinsky"
    REM COMPOSER ""
    ISRC GBCTP1291407
    INDEX 01 19:07:67
  TRACK 08 AUDIO
    TITLE "The Fire Bird: The Enchanted Garden"
    PERFORMER "Igor Stravinsky"
    REM COMPOSER ""
    ISRC GBCTP1291408
    INDEX 00 23:03:05
    INDEX 01 23:10:43
  TRACK 09 AUDIO
    TITLE "Entry and Dance of The Firebird"
    PERFORMER "Igor Stravinsky"
    REM COMPOSER ""
    ISRC GBCTP1291409
    INDEX 01 26:08:59
  TRACK 10 AUDIO
    TITLE "The Firebird beseeches Prince Ivan to release her"
    PERFORMER "Igor Stravinsky"
    REM COMPOSER ""
    ISRC GBCTP1291410
    INDEX 01 30:06:26
  TRACK 11 AUDIO
    TITLE "The Princesses play with the golden apples"
    PERFORMER "Igor Stravinsky"
    REM COMPOSER ""
    ISRC GBCTP1291411
    INDEX 01 34:01:28
  TRACK 12 AUDIO
    TITLE "Rondo of The Princesses"
    PERFORMER "Igor Stravinsky"
    REM COMPOSER ""
    ISRC GBCTP1291412
    INDEX 01 36:39:73
  TRACK 13 AUDIO
    TITLE "Danse Infermale of King Kastchei and Demons"
    PERFORMER "Igor Stravinsky"
    REM COMPOSER ""
    ISRC GBCTP1291413
    INDEX 01 40:36:06
  TRACK 14 AUDIO
    TITLE "Interlude (berceuse)"
    PERFORMER "Igor Stravinsky"
    REM COMPOSER ""
    ISRC GBCTP1291414
    INDEX 01 44:28:67
  TRACK 15 AUDIO
    TITLE "Marrige of The Firebird and Prince Ivan"
    PERFORMER "Igor Stravinsky"
    REM COMPOSER ""
    ISRC GBCTP1291415
    INDEX 01 48:03:25
  TRACK 16 AUDIO
    TITLE "Capriccio for Piano and Orchestra: Presto"
    PERFORMER "Igor Stravinsky"
    REM COMPOSER ""
    ISRC GBCTP1291416
    INDEX 00 51:20:05
    INDEX 01 51:24:65
  TRACK 17 AUDIO
    TITLE "Andante rapsodico"
    PERFORMER "Igor Stravinsky"
    REM COMPOSER ""
    ISRC GBCTP1291417
    INDEX 00 58:15:05
    INDEX 01 58:16:62
  TRACK 18 AUDIO
    TITLE "Allegro capriccioso ma tempo giusto"
    PERFORMER "Igor Stravinsky"
    REM COMPOSER ""
    ISRC GBCTP1291418
    INDEX 01 63:49:73


DRM

foobar2000 1.1.7 / Замер динамического диапазона (DR) 1.1.1
Дата отчёта:  2021-03-20 19:43:59
--------------------------------------------------------------------------------
Анализ:   Igor Stravinsky / performs Stravinsky
--------------------------------------------------------------------------------
DR         Пики         RMS           Продолжительность трека
--------------------------------------------------------------------------------
DR14      -4.78 дБ   -23.84 дБ      3:58 01-Petrushka 'Ballet Scenes' Suites: The Shrove-tide Fair
DR13     -16.65 дБ   -35.14 дБ      1:36 02-Le Tour de Passe-Passe
DR12      -8.44 дБ   -24.80 дБ      2:19 03-Russian Dance
DR13      -6.44 дБ   -26.24 дБ      3:47 04-In Petrushka's Room
DR14      -4.49 дБ   -25.52 дБ      3:43 05-The Blackamoor's Room
DR11      -6.13 дБ   -22.04 дБ      3:44 06-The Shrove-tide Fair
DR12      -4.14 дБ   -20.75 дБ      4:03 07-Dance of The Coachmen - Finale
DR11     -17.56 дБ   -34.17 дБ      2:58 08-The Fire Bird: The Enchanted Garden
DR13      -6.66 дБ   -24.82 дБ      3:58 09-Entry and Dance of The Firebird
DR12     -10.93 дБ   -28.56 дБ      3:55 10-The Firebird beseeches Prince Ivan to release her
DR13     -10.09 дБ   -26.19 дБ      2:39 11-The Princesses play with the golden apples
DR13      -7.96 дБ   -26.95 дБ      3:56 12-Rondo of The Princesses
DR14      -2.20 дБ   -20.06 дБ      3:53 13-Danse Infermale of King Kastchei and Demons
DR13     -10.19 дБ   -28.44 дБ      3:34 14-Interlude (berceuse)
DR13      -8.85 дБ   -25.52 дБ      3:22 15-Marrige of The Firebird and Prince Ivan
DR18      -2.86 дБ   -26.22 дБ      6:52 16-Capriccio for Piano and Orchestra: Presto
DR14     -11.61 дБ   -29.80 дБ      5:33 17-Andante rapsodico
DR16      -3.76 дБ   -25.67 дБ      5:18 18-Allegro capriccioso ma tempo giusto
--------------------------------------------------------------------------------
Количество треков: 18
Реальные значения DR: DR13
Частота:   44100 Гц
Каналов:   2
Разрядность:   16
Битрейт:   476 кбит/с
Кодек:   FLAC
================================================================================


.accurip

[CUETools log; Date: 20.03.2021 19:57:27; Version: 2.1.6]
Pregap length 00:01:00.
[CTDB TOCID: iD_2iR3ufBzBIHFbexwdw7ZfpYg-] found.
Track | CTDB Status
  1   | (1/1) Accurately ripped
  2   | (1/1) Accurately ripped
  3   | (1/1) Accurately ripped
  4   | (1/1) Accurately ripped
  5   | (1/1) Accurately ripped
  6   | (1/1) Accurately ripped
  7   | (1/1) Accurately ripped
  8   | (1/1) Accurately ripped
  9   | (1/1) Accurately ripped
10   | (1/1) Accurately ripped
11   | (1/1) Accurately ripped
12   | (1/1) Accurately ripped
13   | (1/1) Accurately ripped
14   | (1/1) Accurately ripped
15   | (1/1) Accurately ripped
16   | (1/1) Accurately ripped
17   | (1/1) Accurately ripped
18   | (1/1) Accurately ripped
[AccurateRip ID: 00287bfe-0226fc19-f8103212] disk not present in database.
Track Peak [ CRC32  ] [W/O NULL] [  LOG   ]
--   77,6 [A611444C] [CE24747F]   CRC32
01   57,6 [0C5D9C0C] [BF4F580A]
02   14,7 [230AC793] [7011F45F]
03   37,8 [D66D0050] [D4FC9E15]
04   47,6 [40485D56] [BC935F30]
05   59,6 [2E709FF4] [046FA0B6]
06   49,3 [4E3082A7] [11EA2A56]
07   62,0 [C70B3369] [A636BA01]
08   13,2 [04229A35] [9FEC6387]
09   46,4 [D35D91E9] [20006BD4]
10   28,3 [C525E078] [894A3071]
11   31,3 [F05B8B0A] [1EE42DA3]
12   40,0 [615ECD28] [8BEA8C40]
13   77,6 [BB5C8B58] [2C361440]
14   30,9 [ED0EC59C] [63292BA0]
15   36,1 [7485CFF1] [DCD53129]
16   71,9 [5494DB87] [EF01695E]
17   26,2 [B0FE7FF7] [8F58C315]
18   64,8 [D7F8CB35] [791AB54F]

Реставрации Майкла Даттона на трекере - Dutton Vocalion                                                                                       
                       
                       
                       
                       
                       
                                磁力下载(论坛代下载服务)::
                                                               
                                       
付费主题

已有0人支付


                                               
  • 256.7 MB
  • 温馨提示

    记得善用社区搜索功能,那里可能会有你想要的资源;论坛站内搜索

    如果你有什么需要的资源可以去资源求档发帖,求助社区的网友,我们会在第一时间给你回复哦;资源求档

    对于本社区网盘链接失效密码错误各种报错请在反馈板块反馈报错发帖,您的支持,是我们发展的最大动力;投诉建议

    回复

    使用道具 举报

    您需要登录后才可以回帖 登录 | 立即注册 微信登录

    本版积分规则

    关注0

    粉丝7

    帖子52319

    发布主题
    阅读排行更多+
    关闭

    站长推荐上一条 /1 下一条

    活动提示

    赞助永久VIP会员送3T硬盘一块 限时活动

    地址:立刻参加

    我知道了
    收藏帖子 返回列表 这是一个自定义按钮
    音乐分享,音乐下载。
    微信公众号
    微信号:hires_
    意见反馈:admin@maomicd.com

    加入我们的官方QQ群和微信群

    Powered by Discuz! X3.4 Archiver|手机版|小黑屋|捌零音乐论坛 ( 苏ICP备20015413号 )|( 苏公网安备 32030502000272号) 繁體

    GMT+8, 2021-9-21 13:00