[古典] (Classical) Сергей Рахманинов - Симфонии 1-3, Утёс / Sergei Rachmaninov - Symphonies, The Rock (Berliner Philharmoniker, Lorin Maazel) - 1996, FLAC (image+.cue) lossless

[复制链接]
tikus75 发表于 2021-9-10 16:56:50 | 显示全部楼层 |阅读模式 打印 上一主题 下一主题
Сергей Рахманинов - Симфонии 1-3, Утёс (Lorin Maazel)
Жанр: Classical
Страна-производитель диска: Germany
Год издания диска: 1996
Издатель (лейбл): Deutsche Grammophon
Номер по каталогу: 445 590-2
Дата записи: 1981-1984
Аудиокодек: FLAC
Тип рипа: image+.cue
Битрейт аудио: lossless
Продолжительность: 78:40+70:14
Источник: собственный рип
Наличие сканов в содержимом раздачи: да
Треклист:
CD1
Sergey Rachmaninov (1873 - 1943)
Symphony No.2 in E minor, Op.27
1. I. Largo - Allegro moderato 17:55
2. II. Allegro molto 9:21
3. III. Adagio 15:29
4. IV. Allegro vivace 13:07
Symphony No.1 in D minor, Op.13
5. I. Grave - Allegro ma non troppo 13:58
6. II. Allegro animato 8:42
CD2
1. III. Larghetto 9:04
2. IV. Allegro con fuoco 12:29
Symphony No.3 in A minor, Op.44
3. I. Lento - Allegro moderato 12:24
4. II. Adagio ma non troppo 11:29
5. III. Allegro 11:47
6. The Rock, Op.7 12:39
Исполнители:
Berliner Philharmoniker
Conductor: Lorin Maazel
Лог создания рипа

CD1

Exact Audio Copy V1.0 beta 3 from 29. August 2011
EAC extraction logfile from 23. June 2012, 0:01
Rachmaninov / 3 Symphonies, The Rock (Berliner Philharmoniker, Lorin Maazel) [Disc 1]
Used drive  : ASUS    DRW-2014L1   Adapter: 0  ID: 0
Read mode               : Secure
Utilize accurate stream : Yes
Defeat audio cache      : Yes
Make use of C2 pointers : No
Read offset correction                      : 6
Overread into Lead-In and Lead-Out          : No
Fill up missing offset samples with silence : Yes
Delete leading and trailing silent blocks   : No
Null samples used in CRC calculations       : Yes
Used interface                              : Native Win32 interface for Win NT & 2000
Used output format              : User Defined Encoder
Selected bitrate                : 128 kBit/s
Quality                         : High
Add ID3 tag                     : No
Command line compressor         : C:\Program Files (x86)\Exact Audio Copy\Flac\flac.exe
Additional command line options : -V -8 -T "Date=%year%" -T "Genre=%genre%" %source%
TOC of the extracted CD
     Track |   Start  |  Length  | Start sector | End sector
    ---------------------------------------------------------
        1  |  0:00.32 | 17:55.00 |        32    |    80656
        2  | 17:55.32 |  9:21.00 |     80657    |   122731
        3  | 27:16.32 | 15:29.00 |    122732    |   192406
        4  | 42:45.32 | 13:15.00 |    192407    |   252031
        5  | 56:00.32 | 13:58.00 |    252032    |   314881
        6  | 69:58.32 |  8:42.00 |    314882    |   354031
Range status and errors
Selected range
     Filename D:\EAC\Rachmaninov - 3 Symphonies, The Rock (Berliner Philharmoniker, Lorin Maazel) [Disc 1].wav
     Peak level 99.7 %
     Extraction speed 8.5 X
     Range quality 100.0 %
     Test CRC 2FC42103
     Copy CRC 2FC42103
     Copy OK
No errors occurred
AccurateRip summary
Track  1  accurately ripped (confidence 11)  [D4AD6F09]  (AR v1)
Track  2  accurately ripped (confidence 11)  [DF897FAE]  (AR v1)
Track  3  accurately ripped (confidence 10)  [B7890F4E]  (AR v1)
Track  4  accurately ripped (confidence 11)  [4DC512C7]  (AR v1)
Track  5  accurately ripped (confidence 10)  [77F7A134]  (AR v1)
Track  6  accurately ripped (confidence 11)  [FA8532EF]  (AR v1)
All tracks accurately ripped
End of status report
==== Log checksum F456B4A1F44C0998D4FFBF6DEE7499BD525761CB612F6C721BD77A0C3D68B4A9 ====


CD2

Exact Audio Copy V1.0 beta 3 from 29. August 2011
EAC extraction logfile from 23. June 2012, 0:46
Berliner Philharmoniker, Lorin Maazel / Rachmaninov - 3 Symphonies - The Rock - Cd 2
Used drive  : ASUS    DRW-2014L1   Adapter: 0  ID: 0
Read mode               : Secure
Utilize accurate stream : Yes
Defeat audio cache      : Yes
Make use of C2 pointers : No
Read offset correction                      : 6
Overread into Lead-In and Lead-Out          : No
Fill up missing offset samples with silence : Yes
Delete leading and trailing silent blocks   : No
Null samples used in CRC calculations       : Yes
Used interface                              : Native Win32 interface for Win NT & 2000
Used output format              : User Defined Encoder
Selected bitrate                : 128 kBit/s
Quality                         : High
Add ID3 tag                     : No
Command line compressor         : C:\Program Files (x86)\Exact Audio Copy\Flac\flac.exe
Additional command line options : -V -8 -T "Date=%year%" -T "Genre=%genre%" %source%
TOC of the extracted CD
     Track |   Start  |  Length  | Start sector | End sector
    ---------------------------------------------------------
        1  |  0:00.32 |  9:04.00 |        32    |    40831
        2  |  9:04.32 | 12:41.00 |     40832    |    97906
        3  | 21:45.32 | 12:24.00 |     97907    |   153706
        4  | 34:09.32 | 11:29.00 |    153707    |   205381
        5  | 45:38.32 | 11:57.00 |    205382    |   259156
        6  | 57:35.32 | 12:39.25 |    259157    |   316106
Range status and errors
Selected range
     Filename D:\EAC\Rachmaninov - 3 Symphonies, The Rock (Berliner Philharmoniker, Lorin Maazel) [Disc 2].wav
     Peak level 99.9 %
     Extraction speed 6.7 X
     Range quality 99.9 %
     Test CRC B4D4485C
     Copy CRC B4D4485C
     Copy OK
No errors occurred
AccurateRip summary
Track  1  accurately ripped (confidence 11)  [72B4E3DD]  (AR v1)
Track  2  accurately ripped (confidence 11)  [47B3D4EA]  (AR v1)
Track  3  accurately ripped (confidence 11)  [694A608B]  (AR v1)
Track  4  accurately ripped (confidence 10)  [1397EDEA]  (AR v1)
Track  5  accurately ripped (confidence 11)  [9E8710DD]  (AR v1)
Track  6  accurately ripped (confidence 11)  [9304590A]  (AR v1)
All tracks accurately ripped
End of status report
==== Log checksum 4E6214C5E626B91A1D7D36A2730F34C19057E3E2F9202AE1244B2416207EB2C5 ====


                                                                                       
                       
                       
                       
                       
                       
                                磁力下载(论坛代下载服务)::
                                                               
                                       
付费主题

已有0人支付


                                               
  • 628.8 MB
  • 温馨提示

    记得善用社区搜索功能,那里可能会有你想要的资源;论坛站内搜索

    如果你有什么需要的资源可以去资源求档发帖,求助社区的网友,我们会在第一时间给你回复哦;资源求档

    对于本社区网盘链接失效密码错误各种报错请在反馈板块反馈报错发帖,您的支持,是我们发展的最大动力;投诉建议

    回复

    使用道具 举报

    您需要登录后才可以回帖 登录 | 立即注册 微信登录

    本版积分规则

    关注0

    粉丝1

    帖子31072

    发布主题
    阅读排行更多+
    关闭

    站长推荐上一条 /1 下一条

    活动提示

    赞助永久VIP会员送3T硬盘一块 限时活动

    地址:立刻参加

    我知道了
    收藏帖子 返回列表 这是一个自定义按钮
    音乐分享,音乐下载。
    微信公众号
    微信号:hires_
    意见反馈:admin@maomicd.com

    加入我们的官方QQ群和微信群

    Powered by Discuz! X3.4 Archiver|手机版|小黑屋|捌零音乐论坛 ( 苏ICP备20015413号 )|( 苏公网安备 32030502000272号) 繁體

    GMT+8, 2021-9-21 13:14