[古典] (Classical) Ludwig van Beethoven / Symphonies Nos. 6 ("Pastoral") & №8 The Dresden Philharmonic Orchestra dir. Herbert Kegel - 1995, FLAC (image+.cue) los

[复制链接]
tikus75 发表于 2021-9-10 16:56:50 | 显示全部楼层 |阅读模式 打印 上一主题 下一主题
Ludwig van Beethoven • Symphonies Nos. 6 ("Pastoral") & №8 •
The Dresden Philharmonic Orchestra dir. Herbert Kegel
Жанр: Classical Страна-производитель диска: USA Год издания диска: 1995
Издатель (лейбл): Delta Misic Inc. Номер по каталогу: 14259 Аудиокодек: FLAC Тип рипа: image+.cue Битрейт аудио: lossless
Продолжительность: 67:59 Источник: собственный рип Наличие сканов в содержимом раздачи: да
Tracklist:
Ludwig van Beethoven / Symphonies Nos. 6 ("Pastoral") & 8 The Dresden Philharmonic Orchestra dir. Herbert Hegel
Delta Misic Inc. | 1995 | FLAC (img + cue) | 252 MB
Ludwig van Beethoven (1770 - 1827)


Symphony No.6 in F major, Op.68 "Pastoral"
I. Allegro ma non troppo ("The awakening of happy emotions upon arrival in the countryside")
II. Andante molto mosso ("Scene by the brook")
III. Allegro ("A merry gathering of country folk")
IV. Allegro ("The thunderstorm")
V. Allegretto ("Shepherd's song. Joy and thanksgiving after the storm")
Symphony No.8 in F major, Op.93
I. Allegro vivace e con brio
II. Allegretto scherzando
III. Tempo di Menuetto
IV. Allegro vivace
The Dresden Philharmonic Orchestra
dir. Herbert Hegel
Total Time: 1h 07' 59''
Delta Misic Inc. 14259
Исполнители:
The Dresden Philharmonic Orchestra dir. Herbert Kegel

Лог создания рипа

Exact Audio Copy V1.0 beta 3 from 29. August 2011
Отчёт EAC об извлечении, выполненном 27. сентября 2013, 9:57
Beethoven, Ludwig van / Symphonies No. 6 & No. 8
Дисковод: TSSTcorpCDDVDW TS-L633J   Adapter: 0  ID: 1
Режим чтения                 : Достоверность
Использование точного потока : Да
Отключение кэша аудио        : Да
Использование указателей C2  : Нет
Коррекция смещения при чтении                     : 6
Способность читать области Lead-in и Lead-out     : Нет
Заполнение пропущенных сэмплов тишиной            : Да
Удаление блоков с тишиной в начале и конце        : Нет
При вычислениях CRC использовались нулевые сэмплы : Да
Интерфейс                                         : Встроенный Win32-интерфейс для Win NT/2000
Выходной формат          : Пользовательский кодировщик
Выбранный битрейт        : 1024 kBit/s
Качество                 : Высокий
Добавление ID3-тега      : Нет
Утилита сжатия           : C:\Program Files (x86)\Exact Audio Copy\FLAC\FLAC.EXE
Дополнительные параметры : -8 -V -T "ARTIST=%artist%" -T "TITLE=%title%" -T "ALBUM=%albumtitle%" -T "DATE=%year%" -T "TRACKNUMBER=%tracknr%" -T "GENRE=%genre%" -T "COMMENT=%comment%" -T "BAND=%albuminterpret%" -T "ALBUMARTIST=%albuminterpret%" -T "COMPOSER=%composer%" %haslyrics%--tag-from-file=LYRICS="%lyricsfile%"%haslyrics% -T "DISCNUMBER=%cdnumber%" -T "TOTALDISCS=%totalcds%" -T "TOTALTRACKS=%numtracks%" %hascover%--picture="%coverfile%"%hascover% %source% -o %dest%
TOC извлечённого CD
     Трек |   Старт  | Длительность | Начальный сектор | Конечный сектор
    ---------------------------------------------------------------------
       1  |  0:00.00 |   10:52.20   |           0      |      48919
       2  | 10:52.20 |   13:29.10   |       48920      |     109604
       3  | 24:21.30 |    5:23.60   |      109605      |     133889
       4  | 29:45.15 |    3:53.13   |      133890      |     151377
       5  | 33:38.28 |    8:29.72   |      151378      |     189624
       6  | 42:08.25 |    9:15.35   |      189625      |     231284
       7  | 51:23.60 |    4:05.50   |      231285      |     249709
       8  | 55:29.35 |    4:44.28   |      249710      |     271037
       9  | 60:13.63 |    7:45.27   |      271038      |     305939
Характеристики диапазона извлечения и сообщения об ошибках
Выбранный диапазон
     Имя файла D:\磁力下载(论坛代下载服务)::\Ludwig van Beethoven - Symphonies No. 6 & No. 8 (flac)\Beethoven, Ludwig van - Symphonies No. 6 & No. 8.wav
     Пиковый уровень 98.2 %
     Скорость извлечения 3.1 X
     Качество диапазона 100.0 %
     CRC теста D7749DC8
     CRC копии D7749DC8
     Копирование... OK
Ошибок не произошло
AccurateRip: сводка
Трек  1  : извлечено точно (доверие 2)  [F2EF4C6F]  (AR v1)
Трек  2  : извлечено точно (доверие 2)  [DF7885D1]  (AR v1)
Трек  3  : извлечено точно (доверие 2)  [A32B3D84]  (AR v1)
Трек  4  : извлечено точно (доверие 2)  [5665A157]  (AR v1)
Трек  5  : извлечено точно (доверие 2)  [04B814A7]  (AR v1)
Трек  6  : извлечено точно (доверие 2)  [3BEB85C0]  (AR v1)
Трек  7  : извлечено точно (доверие 2)  [30784EC1]  (AR v1)
Трек  8  : извлечено точно (доверие 2)  [95973904]  (AR v1)
Трек  9  точность не определена (достоверность 4)  [203C7E16], AccurateRip вернул [DD727997]  (AR v2)
8 трек(и) скопированы точно
1 трек(и) не удалось проверить на точность
Некоторые треки не прошли проверку на точность
Конец отчёта
==== Контрольная сумма отчёта B804D2FFBB88410B836F85EB03BC06A489C89D213CB8B06FBC9DF0B463742EE6 ====


Содержание индексной карты (.CUE)

REM GENRE Classical
REM DISCID 6D0FEF09
REM COMMENT "ExactAudioCopy v1.0b3"
PERFORMER "Beethoven, Ludwig van"
TITLE "Symphonies No. 6 & No. 8"
FILE "Beethoven, Ludwig van - Symphonies No. 6 & No. 8.flac" WAVE
  TRACK 01 AUDIO
    TITLE "Symphony No. 6 in F Major, Op.68 'Pastorale' 1. Allegro ma non troppo"
    PERFORMER "Beethoven, Ludwig van"
    INDEX 01 00:00:00
  TRACK 02 AUDIO
    TITLE "Symphony No. 6 in F Major, Op.68 'Pastorale' 2. Andante molto mosso"
    PERFORMER "Beethoven, Ludwig van"
    INDEX 00 10:46:63
    INDEX 01 10:52:20
  TRACK 03 AUDIO
    TITLE "Symphony No. 6 in F Major, Op.68 'Pastorale' 3. Allegro"
    PERFORMER "Beethoven, Ludwig van"
    INDEX 00 24:19:15
    INDEX 01 24:21:30
  TRACK 04 AUDIO
    TITLE "Symphony No. 6 in F Major, Op.68 'Pastorale' 4. Allegro"
    PERFORMER "Beethoven, Ludwig van"
    INDEX 01 29:45:15
  TRACK 05 AUDIO
    TITLE "Symphony No. 6 in F Major, Op.68 'Pastorale' 5. Allegretto"
    PERFORMER "Beethoven, Ludwig van"
    INDEX 01 33:38:28
  TRACK 06 AUDIO
    TITLE "Symphony No. 8 in F Major, Op.93 - 1. Allegro vivace e con brio"
    PERFORMER "Beethoven, Ludwig van"
    INDEX 00 41:59:03
    INDEX 01 42:08:25
  TRACK 07 AUDIO
    TITLE "Symphony No. 8 in F Major, Op.93 - 2. Allegretto scherzando"
    PERFORMER "Beethoven, Ludwig van"
    INDEX 00 51:22:23
    INDEX 01 51:23:60
  TRACK 08 AUDIO
    TITLE "Symphony No. 8 in F Major, Op.93 - 3. Tempo di menuetto"
    PERFORMER "Beethoven, Ludwig van"
    INDEX 01 55:29:35
  TRACK 09 AUDIO
    TITLE "Symphony No. 8 in F Major, Op.93 - 4. Allegro vivace"
    PERFORMER "Beethoven, Ludwig van"
    INDEX 01 60:13:63

                                                                                       
                       
                       
                       
                       
                       
                                磁力下载(论坛代下载服务)::
                                                               
                                       
付费主题

已有0人支付


                                               
  • 253 MB
  • 温馨提示

    记得善用社区搜索功能,那里可能会有你想要的资源;论坛站内搜索

    如果你有什么需要的资源可以去资源求档发帖,求助社区的网友,我们会在第一时间给你回复哦;资源求档

    对于本社区网盘链接失效密码错误各种报错请在反馈板块反馈报错发帖,您的支持,是我们发展的最大动力;投诉建议

    回复

    使用道具 举报

    您需要登录后才可以回帖 登录 | 立即注册 微信登录

    本版积分规则

    关注0

    粉丝1

    帖子31072

    发布主题
    阅读排行更多+
    关闭

    站长推荐上一条 /1 下一条

    活动提示

    赞助永久VIP会员送3T硬盘一块 限时活动

    地址:立刻参加

    我知道了
    收藏帖子 返回列表 这是一个自定义按钮
    音乐分享,音乐下载。
    微信公众号
    微信号:hires_
    意见反馈:admin@maomicd.com

    加入我们的官方QQ群和微信群

    Powered by Discuz! X3.4 Archiver|手机版|小黑屋|捌零音乐论坛 ( 苏ICP备20015413号 )|( 苏公网安备 32030502000272号) 繁體

    GMT+8, 2021-9-22 22:16