[古典] (Classical/Orchestral/Symphony) Wolfgang Amadeus Mozart - The Complete Symphonies (The English Concert, Trevor Pinnock) [11 CD] - 1993-1995/2002, FLAC (tracks+.cue) lossless

[复制链接]
韬199435 发表于 2021-9-10 16:56:49 | 显示全部楼层 |阅读模式 打印 上一主题 下一主题
Wolfgang Amadeus Mozart - The Complete Symphonies (The English Concert, Trevor Pinnock)
Жанр: Classical/Orchestral/Symphony
Страна-производитель диска: EU
Год издания диска: 1993-1995/2002
Издатель (лейбл): Deutsche Grammophon
Номер по каталогу: 471 666-2
Дата записи: 1992-1995
Аудиокодек: FLAC
Тип рипа: tracks+.cue
Битрейт аудио: lossless
Продолжительность: 13:39:05
Источник: скачано с
сайт-источник/ник/другое: avaxhome
Наличие сканов в содержимом раздачи: да
Треклист

CD01
Symphony No. 1 in E flat major, K. 16
[1] 1. Molto allegro 5:49
[2] 2. Andante 6:13
[3] 3. Presto 2:01
Symphony in F major (fragment), K. Anh. 223 (K. 19a)
[4] 1. Allegro assai 5:00
[5] 2. Andante 3:54
[6] 3. Presto 2:36
Symphony No. 4 in D major, K. 19
[7] 1. Allegro 2:14
[8] 2. Andante 4:04
[9] 3. Presto 2:47
Symphony No. 5 in B flat major, K. 22
[10] 1. Allegro 2:38
[11] 2. Andante 2:48
[12] 3. Molto allegro 1:17
Symphony No. 7a in G major ("Alte Lambacher"), K. Anh. 221 (K. 45a)
[13] 1. Allegro maestoso 5:04
[14] 2. Andante 4:55
[15] 3. Presto 2:30
Symphony No. 6 in F major, K. 43
[16] 1. Allegro 5:32
[17] 2. Andante 5:31
[18] 3. Menuetto - Trio 2:18
[19] 4. Allegro 3:38

CD02
Symphony No. 7 in D major, K. 45
[1] 1. Molto allegro 2:35
[2] 2. Andante 2:25
[3] 3. Menuetto - Trio 3:09
[4] 4. Molto allegro 2:38
Symphony No. 8 in D major, K. 48
[5] 1. Allegro 3:04
[6] 2. Andante 3:51
[7] 3. Menuetto - Trio 3:30
[8] 4. Molto allegro 3:04
Symphony No. 9 in C major, K. 73
[9] 1. Allegro 3:05
[10] 2. Andante 4:21
[11] 3. Menuetto - Trio 3:17
[12] 4. Molto Allegro 2:00
Symphony No. 43 in F major, K. 76 (K. 42a)
[13] 1. Allegro maestoso 4:22
[14] 2. Andante 3:51
[15] 3. Menuetto - Trio 3:42
[16] 4. Allegro 2:46
Symphony No. 55 in B flat major, K. Anh. 214 (K. 45b)
[17] 1. Allegro 2:18
[18] 2. Andante 4:40
[19] 3. Menuetto - Trio 2:44
[20] 4. Allegro 3:41
Symphony No. 44 in D major, K. 81 (K. 73l)
[21] 1. Allegro 2:52
[22] 2. Andante 4:38
[23] 3. Allegro molto 2:26

CD03
Symphony No. 47 in D major, K. 97 (K. 73m)
[1] 1. Allegro 2:36
[2] 2. Andante 3:28
[3] 3. Menuetto - Trio 3:05
[4] 4. Presto 1:38
Symphony No. 45 in D major, K. 95 (K. 73n)
[5] 1. Allegro 2:15
[6] 2. Andante 3:13
[7] 3. Menuetto - Trio 3:16
[8] 4. Allegro 3:06
Symphony No. 11 in D major, K. 84 (K. 73q)
[9] 1. Allegro 3:40
[10] 2. Andante 2:30
[11] 3. Allegro 3:21
Symphony No. 54 in B flat major (doubtful), K. Anh. 216 (K. Anh. C 11.03 / K(3) 74g)
[12] 1. Allegro 3:27
[13] 2. Andante 4:10
[14] 3. Menuet - Trio 2:40
[15] 4. Allegro molto 3:38
Symphony No. 42 in F major, K. 75
[16] 1. Allegro 3:11
[17] 2. Andantino 5:16
[18] 3. Menuetto - Trio 3:32
[19] 4. Allegro 2:20
Symphony No. 46 in C major, K. 96 (K. 111b)
[20] 1. Allegro 1:58
[21] 2. Andante 5:28
[22] 3. Menuetto - Trio 3:42
[23] 4. Molto allegro 2:55

CD04
Symphony No. 10 in G major, K. 74
[1] 1. Allegro 3:10
[2] 2. Andante 2:40
[3] 3. Allegro 1:51
Symphony No. 12 in G major, K. 110 (K. 75b)
[4] 1. Allegro 6:41
[5] 2. Andante 4:29
[6] 3. Menuetto - Trio 3:48
[7] 4. Allegro 2:11
Symphony No. 13 in F major, K. 112
[8] 1. Allegro 5:20
[9] 2. Andante 5:24
[10] 3. Menuetto - Trio 2:18
[11] 4. Molto allegro 2:24
Symphony No. 14 in A major, K. 114
[12] 1. Allegro moderato 7:41
[13] 2. Andante 4:55
[14] 3. Menuetto - Trio 3:49
[15] 4. Molto allegro 4:23
Symphony No. 15 in G major, K. 124
[16] 1. Allegro 5:09
[17] 2. Andante 4:58
[18] 3. Menuetto - Trio 3:22
[19] 4. Presto 2:10

CD05
Symphony No. 16 in C major, K. 128
[1] 1. Allegro maestoso 4:24
[2] 2. Andante grazioso 4:06
[3] 3. Allegro 3:20
Symphony No. 17 in G major, K. 129
[4] 1. Allegro 6:27
[5] 2. Andante 5:46
[6] 3. Allegro 3:48
Symphony No. 18 in F major, K. 130
[7] 1. Allegro 5:16
[8] 2. Andantino grazioso 5:08
[9] 3. Menuetto - Trio 2:15
[10] 4. Molto allegro 7:02
Symphony No. 19 in E flat major, K. 132
[11] 1. Allegro 4:04
[12] 2. Andante 6:09
[13] 3. Menuetto - Trio 4:19
[14] 4. Allegro 3:54
Symphony No. 26 in E flat major, K. 184 (K. 161a)
[15] 1. Molto presto - 2:50
[16] 2. Andante 3:09
[17] 3. Allegro 2:12

CD06
Symphony No. 20 in D major, K. 133
[1] 1. Allegro 7:20
[2] 2. Andante 5:57
[3] 3. Menuetto - Trio 3:55
[4] 4. (Allegro) 5:29
Symphony No. 21 in A major, K. 134
[5] 1. Allegro 5:20
[6] 2. Andante 4:36
[7] 3. Menuetto - Trio 4:10
[8] 4. Allegro 3:34
Symphony No. 22 in C major, K. 162
[9] 1. Allegro assai 3:33
[10] 2. Andantino grazioso 3:00
[11] 3. Presto assai 2:05
Symphony No. 23 in D major, K. 181 (K. 162b)
[12] 1. Allegro spiritoso - 4:53
[13] 2. Andantino grazioso - 2:05
[14] 3. Presto assai 2:11
Symphony No. 27 in G major, K. 199 (K. 161b)
[15] 1. Allegro 6:47
[16] 2. Andantino grazioso 5:33
[17] 3. Presto 5:18

CD07
Symphony No. 24 in B flat major, K. 182 (K. 173dA)
[1] 1. Allegro spiritoso 4:00
[2] 2. Andantino grazioso 2:35
[3] 3. Allegro 1:32
Symphony No. 25 in G minor, K. 183 (K. 173dB)
[4] 1. Allegro con brio 10:13
[5] 2. Andante 6:50
[6] 3. Menuetto - Trio 4:08
[7] 4. Allegro 6:31
Symphony No. 30 in D major, K. 202 (K. 186b)
[8] 1. Molto allegro 5:53
[9] 2. Andantino con moto 5:57
[10] 3. Menuetto - Trio 4:53
[11] 4. Presto 4:48
Symphony No. 31 in D major ("Paris"), K. 297 (K. 300a)
[12] 1. Allegro assai 7:28
[13] 2. Andante 5:53
[14] 3. Allegro 3:35

CD08
Symphony No. 29 in A major, K. 201 (K. 186a)
[1] 1. Allegro moderato 9:59
[2] 2. Andante 11:22
[3] 3. Menuetto - Trio 3:47
[4] 4. Allegro con spirito 6:39
Symphony No. 28 in C major, K. 200 (K. 189k)
[5] 1. Allegro spiritoso 7:27
[6] 2. Andante 8:30
[7] 3. Menuetto: Allegretto - Trio 4:24
[8] 4. Presto 5:28
Symphony No. 33 in B flat major, K. 319
[9] 1. Allegro assai 6:52
[10] 2. Andante moderato 4:26
[11] 3. Menuetto - Trio 3:12
[12] 4. Allegro assai 8:11

CD09
Symphony No. 32 in G major, K. 318
[1] 1. Allegro spiritoso 2:54
[2] 2. Andante 2:50
[3] 3. Tempo primo 1:55
Symphony No. 34 in C major, K. 338
[4] 1. Allegro vivace 6:57
[5] 2. Andante di molto piu tosto allegretto 7:08
[6] 3. Finale: Allegro vivace 7:37
Symphony No. 35 in D major ("Haffner"), K. 385
[7] 1. Allegro con spirito 5:46
[8] 2. Andante 6:45
[9] 3. Menuetto - Trio 3:28
[10] 4. Presto 3:53
Symphony No. 36 in C major ("Linz"), K. 425
[11] 1. Adagio - Allegro spiritoso 11:04
[12] 2. Andante 9:21
[13] 3. Menuetto - Trio 3:56
[14] 4. Presto 7:32

CD10
Symphony No. 38 in D major ("Prague"), K. 504
[1] 1. Adagio - Allegro 13:07
[2] 2. Andante 12:10
[3] 3. Presto 7:36
Symphony No. 39 in E flat major, K. 543
[4] 1. Adagio - Allegro 10:21
[5] 2. Andante con moto 8:25
[6] 3. Menuetto: Allegretto - Trio 4:23
[7] 4. Finale: Allegro 7:25

CD11
Symphony No. 40 in G minor, K. 550
[1] 1. Molto allegro 7:23
[2] 2. Andante 11:21
[3] 3. Menuetto: Allegretto - Trio 4:48
[4] 4. Allegro assai 9:28
Symphony No. 41 in C major ("Jupiter"), K. 551
[5] 1. Allegro vivace 11:16
[6] 2. Andante cantabile 11:22
[7] 3. Menuetto: Allegretto - Trio 5:27
[8] 4. Molto allegro 11:26

Исполнители:
The English Concert
Trevor Pinnock
Лог создания рипа

CD01

Exact Audio Copy V1.0 beta 3 from 29. August 2011
EAC extraction logfile from 31. March 2014, 21:35
Wolfgang Amadeus Mozart / The Complete Mozart Symphonies Disc 1
Used drive  : PLDS    DVD+-RW DS-8A5SH   Adapter: 0  ID: 0
Read mode               : Secure
Utilize accurate stream : Yes
Defeat audio cache      : Yes
Make use of C2 pointers : No
Read offset correction                      : 6
Overread into Lead-In and Lead-Out          : No
Fill up missing offset samples with silence : Yes
Delete leading and trailing silent blocks   : No
Null samples used in CRC calculations       : Yes
Used interface                              : Native Win32 interface for Win NT & 2000
Gap handling                                : Appended to previous track
Used output format              : User Defined Encoder
Selected bitrate                : 128 kBit/s
Quality                         : High
Add ID3 tag                     : No
Command line compressor         : C:\Program Files (x86)\Exact Audio Copy\FLAC\FLAC.EXE
Additional command line options : -8 -V -T "ARTIST=%artist%" -T "TITLE=%title%" -T "ALBUM=%albumtitle%" -T "DATE=%year%" -T "TRACKNUMBER=%tracknr%" -T "TOTALTRACKS=%numtracks%" -T "GENRE=%genre%" -T "ALBUMARTIST=%albumartist%" -T "ALBUM ARTIST=%albumartist%" -T "COMMENT=EAC Secure Mode, Test & Copy, AccurateRip, FLAC -8" %source%
TOC of the extracted CD
     Track |   Start  |  Length  | Start sector | End sector
    ---------------------------------------------------------
        1  |  0:00.32 |  5:49.00 |        32    |    26206
        2  |  5:49.32 |  6:13.00 |     26207    |    54181
        3  | 12:02.32 |  2:01.00 |     54182    |    63256
        4  | 14:03.32 |  5:00.00 |     63257    |    85756
        5  | 19:03.32 |  3:54.00 |     85757    |   103306
        6  | 22:57.32 |  2:36.00 |    103307    |   115006
        7  | 25:33.32 |  2:14.00 |    115007    |   125056
        8  | 27:47.32 |  4:04.00 |    125057    |   143356
        9  | 31:51.32 |  2:47.00 |    143357    |   155881
       10  | 34:38.32 |  2:38.00 |    155882    |   167731
       11  | 37:16.32 |  2:48.25 |    167732    |   180356
       12  | 40:04.57 |  1:17.50 |    180357    |   186181
       13  | 41:22.32 |  5:04.00 |    186182    |   208981
       14  | 46:26.32 |  4:55.00 |    208982    |   231106
       15  | 51:21.32 |  2:30.00 |    231107    |   242356
       16  | 53:51.32 |  5:32.40 |    242357    |   267296
       17  | 59:23.72 |  5:31.35 |    267297    |   292156
       18  | 64:55.32 |  2:18.00 |    292157    |   302506
       19  | 67:13.32 |  3:39.00 |    302507    |   318931
Track  1
     Filename C:\Users\porcupine\Desktop\EAC\01 - Trevor Pinnock & Wolfgang Amadeus Mozart - Symphony No. 1 in E flat major, K.16 I. Molto allegro.wav
     Pre-gap length  0:00:02.32
     Peak level 83.0 %
     Extraction speed 1.3 X
     Track quality 100.0 %
     Test CRC 4DEB0497
     Copy CRC 4DEB0497
     Accurately ripped (confidence 6)  [EC091362]  (AR v2)
     Copy OK
Track  2
     Filename C:\Users\porcupine\Desktop\EAC\02 - Trevor Pinnock & Wolfgang Amadeus Mozart - Symphony No. 1 in E flat major, K.16 II. Andante.wav
     Peak level 61.8 %
     Extraction speed 1.4 X
     Track quality 100.0 %
     Test CRC 9D9717F6
     Copy CRC 9D9717F6
     Accurately ripped (confidence 6)  [0B7B4D38]  (AR v2)
     Copy OK
Track  3
     Filename C:\Users\porcupine\Desktop\EAC\03 - Trevor Pinnock & Wolfgang Amadeus Mozart - Symphony No. 1 in E flat major, K.16 III. Presto.wav
     Peak level 77.1 %
     Extraction speed 1.3 X
     Track quality 100.0 %
     Test CRC FF9EE7E2
     Copy CRC FF9EE7E2
     Accurately ripped (confidence 6)  [F352F8FB]  (AR v2)
     Copy OK
Track  4
     Filename C:\Users\porcupine\Desktop\EAC\04 - Trevor Pinnock & Wolfgang Amadeus Mozart - Symphony in F major K.Anh 223 I. Allegro assai.wav
     Pre-gap length  0:00:06.00
     Peak level 88.5 %
     Extraction speed 1.6 X
     Track quality 100.0 %
     Test CRC 8DBE08B0
     Copy CRC 8DBE08B0
     Accurately ripped (confidence 6)  [C51AEA3D]  (AR v2)
     Copy OK
Track  5
     Filename C:\Users\porcupine\Desktop\EAC\05 - Trevor Pinnock & Wolfgang Amadeus Mozart - Symphony in F major K.Anh 223 II. Andante.wav
     Peak level 34.9 %
     Extraction speed 1.6 X
     Track quality 100.0 %
     Test CRC CB020BD0
     Copy CRC CB020BD0
     Accurately ripped (confidence 6)  [B320C87A]  (AR v2)
     Copy OK
Track  6
     Filename C:\Users\porcupine\Desktop\EAC\06 - Trevor Pinnock & Wolfgang Amadeus Mozart - Symphony in F major K.Anh 223 III. Presto.wav
     Peak level 86.0 %
     Extraction speed 1.3 X
     Track quality 99.9 %
     Test CRC 3CCC8B91
     Copy CRC 3CCC8B91
     Accurately ripped (confidence 6)  [D36EC85C]  (AR v2)
     Copy OK
Track  7
     Filename C:\Users\porcupine\Desktop\EAC\07 - Trevor Pinnock & Wolfgang Amadeus Mozart - Symphony No. 4 in D major, K.19 I. Allegro.wav
     Pre-gap length  0:00:04.00
     Peak level 77.3 %
     Extraction speed 1.6 X
     Track quality 100.0 %
     Test CRC 6A9A582E
     Copy CRC 6A9A582E
     Accurately ripped (confidence 6)  [D8BFD9DA]  (AR v2)
     Copy OK
Track  8
     Filename C:\Users\porcupine\Desktop\EAC\08 - Trevor Pinnock & Wolfgang Amadeus Mozart - Symphony No. 4 in D major, K.19 II. Andante.wav
     Peak level 39.5 %
     Extraction speed 1.6 X
     Track quality 99.9 %
     Test CRC 56D2AA83
     Copy CRC 56D2AA83
     Accurately ripped (confidence 6)  [99747C38]  (AR v2)
     Copy OK
Track  9
     Filename C:\Users\porcupine\Desktop\EAC\09 - Trevor Pinnock & Wolfgang Amadeus Mozart - Symphony No. 4 in D major, K.19 III. Presto.wav
     Peak level 81.5 %
     Extraction speed 1.5 X
     Track quality 99.9 %
     Test CRC 2D7D5BD0
     Copy CRC 2D7D5BD0
     Accurately ripped (confidence 6)  [DCDA27F7]  (AR v2)
     Copy OK
Track 10
     Filename C:\Users\porcupine\Desktop\EAC\10 - Trevor Pinnock & Wolfgang Amadeus Mozart - Symphony No. 5 in B flat major, K.22 I. Allegro.wav
     Pre-gap length  0:00:03.00
     Peak level 81.7 %
     Extraction speed 1.5 X
     Track quality 99.9 %
     Test CRC 50284599
     Copy CRC 50284599
     Accurately ripped (confidence 6)  [BDE3FB92]  (AR v2)
     Copy OK
Track 11
     Filename C:\Users\porcupine\Desktop\EAC\11 - Trevor Pinnock & Wolfgang Amadeus Mozart - Symphony No. 5 in B flat major, K.22 II. Andante.wav
     Peak level 48.6 %
     Extraction speed 1.6 X
     Track quality 99.9 %
     Test CRC 127F8C96
     Copy CRC 127F8C96
     Accurately ripped (confidence 6)  [C71F5230]  (AR v2)
     Copy OK
Track 12
     Filename C:\Users\porcupine\Desktop\EAC\12 - Trevor Pinnock & Wolfgang Amadeus Mozart - Symphony No. 5 in B flat major, K.22 III. Molto allegro.wav
     Peak level 61.4 %
     Extraction speed 1.2 X
     Track quality 99.8 %
     Test CRC A1BF9E4D
     Copy CRC A1BF9E4D
     Accurately ripped (confidence 6)  [F2DB8994]  (AR v2)
     Copy OK
Track 13
     Filename C:\Users\porcupine\Desktop\EAC\13 - Trevor Pinnock & Wolfgang Amadeus Mozart - Symphony in G major K.Anh 221 I. Allegro maestoso.wav
     Pre-gap length  0:00:03.00
     Peak level 79.7 %
     Extraction speed 2.1 X
     Track quality 100.0 %
     Test CRC 4D4518F1
     Copy CRC 4D4518F1
     Accurately ripped (confidence 6)  [A83724D1]  (AR v2)
     Copy OK
Track 14
     Filename C:\Users\porcupine\Desktop\EAC\14 - Trevor Pinnock & Wolfgang Amadeus Mozart - Symphony in G major K.Anh 221 II. Andante.wav
     Peak level 52.2 %
     Extraction speed 2.2 X
     Track quality 100.0 %
     Test CRC 22E6725B
     Copy CRC 22E6725B
     Accurately ripped (confidence 6)  [66CDF016]  (AR v2)
     Copy OK
Track 15
     Filename C:\Users\porcupine\Desktop\EAC\15 - Trevor Pinnock & Wolfgang Amadeus Mozart - Symphony in G major K.Anh 221 III. Presto.wav
     Peak level 81.1 %
     Extraction speed 2.0 X
     Track quality 100.0 %
     Test CRC 82460BB0
     Copy CRC 82460BB0
     Accurately ripped (confidence 6)  [2FD90C07]  (AR v2)
     Copy OK
Track 16
     Filename C:\Users\porcupine\Desktop\EAC\16 - Trevor Pinnock & Wolfgang Amadeus Mozart - Symphony No. 6 in F major, K.43 I. Allegro.wav
     Pre-gap length  0:00:04.00
     Peak level 76.8 %
     Extraction speed 2.4 X
     Track quality 100.0 %
     Test CRC A4881EB5
     Copy CRC A4881EB5
     Accurately ripped (confidence 6)  [1A14F5C7]  (AR v2)
     Copy OK
Track 17
     Filename C:\Users\porcupine\Desktop\EAC\17 - Trevor Pinnock & Wolfgang Amadeus Mozart - Symphony No. 6 in F major, K.43 II. Andante.wav
     Peak level 32.0 %
     Extraction speed 2.5 X
     Track quality 100.0 %
     Test CRC C590C10C
     Copy CRC C590C10C
     Accurately ripped (confidence 6)  [F0F3093B]  (AR v2)
     Copy OK
Track 18
     Filename C:\Users\porcupine\Desktop\EAC\18 - Trevor Pinnock & Wolfgang Amadeus Mozart - Symphony No. 6 in F major, K.43 III. Menuetto-Trio.wav
     Peak level 67.8 %
     Extraction speed 2.2 X
     Track quality 100.0 %
     Test CRC 0885BCC8
     Copy CRC 0885BCC8
     Accurately ripped (confidence 6)  [08A7EEB0]  (AR v2)
     Copy OK
Track 19
     Filename C:\Users\porcupine\Desktop\EAC\19 - Trevor Pinnock & Wolfgang Amadeus Mozart - Symphony No. 6 in F major, K.43 IV. Allegro.wav
     Peak level 85.2 %
     Extraction speed 2.4 X
     Track quality 100.0 %
     Test CRC 82D9BEF0
     Copy CRC 82D9BEF0
     Accurately ripped (confidence 6)  [E4F27DCE]  (AR v2)
     Copy OK
All tracks accurately ripped
No errors occurred
End of status report
==== Log checksum 99E8DC3346D4987BF198B3B28E77E70955D7872D35D93672413D7C41B85CA501 ====


CD02

Exact Audio Copy V1.0 beta 3 from 29. August 2011
EAC extraction logfile from 1. April 2014, 6:00
Wolfgang Amadeus Mozart / The Complete Mozart Symphonies Disc 2
Used drive  : PLDS    DVD+-RW DS-8A5SH   Adapter: 0  ID: 0
Read mode               : Secure
Utilize accurate stream : Yes
Defeat audio cache      : Yes
Make use of C2 pointers : No
Read offset correction                      : 6
Overread into Lead-In and Lead-Out          : No
Fill up missing offset samples with silence : Yes
Delete leading and trailing silent blocks   : No
Null samples used in CRC calculations       : Yes
Used interface                              : Native Win32 interface for Win NT & 2000
Gap handling                                : Appended to previous track
Used output format              : User Defined Encoder
Selected bitrate                : 128 kBit/s
Quality                         : High
Add ID3 tag                     : No
Command line compressor         : C:\Program Files (x86)\Exact Audio Copy\FLAC\FLAC.EXE
Additional command line options : -8 -V -T "ARTIST=%artist%" -T "TITLE=%title%" -T "ALBUM=%albumtitle%" -T "DATE=%year%" -T "TRACKNUMBER=%tracknr%" -T "TOTALTRACKS=%numtracks%" -T "GENRE=%genre%" -T "ALBUMARTIST=%albumartist%" -T "ALBUM ARTIST=%albumartist%" -T "COMMENT=EAC Secure Mode, Test & Copy, AccurateRip, FLAC -8" %source%
TOC of the extracted CD
     Track |   Start  |  Length  | Start sector | End sector
    ---------------------------------------------------------
        1  |  0:00.00 |  2:35.00 |         0    |    11624
        2  |  2:35.00 |  2:25.38 |     11625    |    22537
        3  |  5:00.38 |  3:09.37 |     22538    |    36749
        4  |  8:10.00 |  2:38.00 |     36750    |    48599
        5  | 10:48.00 |  3:04.00 |     48600    |    62399
        6  | 13:52.00 |  3:51.00 |     62400    |    79724
        7  | 17:43.00 |  3:30.00 |     79725    |    95474
        8  | 21:13.00 |  3:04.00 |     95475    |   109274
        9  | 24:17.00 |  3:05.00 |    109275    |   123149
       10  | 27:22.00 |  4:21.13 |    123150    |   142737
       11  | 31:43.13 |  3:17.62 |    142738    |   157574
       12  | 35:01.00 |  2:00.00 |    157575    |   166574
       13  | 37:01.00 |  4:22.38 |    166575    |   186262
       14  | 41:23.38 |  3:51.00 |    186263    |   203587
       15  | 45:14.38 |  3:42.50 |    203588    |   220287
       16  | 48:57.13 |  2:46.62 |    220288    |   232799
       17  | 51:44.00 |  2:18.00 |    232800    |   243149
       18  | 54:02.00 |  4:40.25 |    243150    |   264174
       19  | 58:42.25 |  2:44.38 |    264175    |   276512
       20  | 61:26.63 |  3:41.62 |    276513    |   293149
       21  | 65:08.50 |  2:52.25 |    293150    |   306074
       22  | 68:01.00 |  4:38.00 |    306075    |   326924
       23  | 72:39.00 |  2:27.00 |    326925    |   337949
Track  1
     Filename C:\Users\porcupine\Desktop\EAC\01 - Trevor Pinnock & Wolfgang Amadeus Mozart - Symphony No. 7 in D major, K.45 I. Molto allegro.wav
     Pre-gap length  0:00:02.00
     Peak level 83.8 %
     Extraction speed 2.1 X
     Track quality 99.9 %
     Test CRC F5D2A900
     Copy CRC F5D2A900
     Accurately ripped (confidence 16)  [BE37ECAB]  (AR v2)
     Copy OK
Track  2
     Filename C:\Users\porcupine\Desktop\EAC\02 - Trevor Pinnock & Wolfgang Amadeus Mozart - Symphony No. 7 in D major, K.45 II. Andante.wav
     Peak level 29.8 %
     Extraction speed 2.8 X
     Track quality 100.0 %
     Test CRC DB125572
     Copy CRC DB125572
     Accurately ripped (confidence 16)  [0C36B601]  (AR v2)
     Copy OK
Track  3
     Filename C:\Users\porcupine\Desktop\EAC\03 - Trevor Pinnock & Wolfgang Amadeus Mozart - Symphony No. 7 in D major, K.45 III. Menuetto-Trio.wav
     Peak level 69.1 %
     Extraction speed 3.1 X
     Track quality 100.0 %
     Test CRC E5CCBDF6
     Copy CRC E5CCBDF6
     Accurately ripped (confidence 16)  [6E653082]  (AR v2)
     Copy OK
Track  4
     Filename C:\Users\porcupine\Desktop\EAC\04 - Trevor Pinnock & Wolfgang Amadeus Mozart - Symphony No. 7 in D major, K.45 IV. Molto allegro.wav
     Peak level 95.9 %
     Extraction speed 2.5 X
     Track quality 99.9 %
     Test CRC A905B2F3
     Copy CRC A905B2F3
     Accurately ripped (confidence 16)  [75524EEE]  (AR v2)
     Copy OK
Track  5
     Filename C:\Users\porcupine\Desktop\EAC\05 - Trevor Pinnock & Wolfgang Amadeus Mozart - Symphony No. 8 in D major, K.48 I. Allegro.wav
     Pre-gap length  0:00:04.00
     Peak level 84.9 %
     Extraction speed 3.4 X
     Track quality 100.0 %
     Test CRC 76D8BCF9
     Copy CRC 76D8BCF9
     Accurately ripped (confidence 16)  [39C53173]  (AR v2)
     Copy OK
Track  6
     Filename C:\Users\porcupine\Desktop\EAC\06 - Trevor Pinnock & Wolfgang Amadeus Mozart - Symphony No. 8 in D major, K.48 II. Andante.wav
     Peak level 29.7 %
     Extraction speed 3.7 X
     Track quality 100.0 %
     Test CRC 150FD623
     Copy CRC 150FD623
     Accurately ripped (confidence 16)  [6F76CA0B]  (AR v2)
     Copy OK
Track  7
     Filename C:\Users\porcupine\Desktop\EAC\07 - Trevor Pinnock & Wolfgang Amadeus Mozart - Symphony No. 8 in D major, K.48 III. Menuetto-Trio.wav
     Peak level 87.3 %
     Extraction speed 3.8 X
     Track quality 100.0 %
     Test CRC 754041FF
     Copy CRC 754041FF
     Accurately ripped (confidence 16)  [331BE18A]  (AR v2)
     Copy OK
Track  8
     Filename C:\Users\porcupine\Desktop\EAC\08 - Trevor Pinnock & Wolfgang Amadeus Mozart - Symphony No. 8 in D major, K.48 IV. Molto allegro.wav
     Peak level 72.6 %
     Extraction speed 3.9 X
     Track quality 100.0 %
     Test CRC 36DECD3A
     Copy CRC 36DECD3A
     Accurately ripped (confidence 16)  [0E0B6B6C]  (AR v2)
     Copy OK
Track  9
     Filename C:\Users\porcupine\Desktop\EAC\09 - Trevor Pinnock & Wolfgang Amadeus Mozart - Symphony No. 9 in C major, K.73 I. Allegro.wav
     Pre-gap length  0:00:04.00
     Peak level 92.6 %
     Extraction speed 4.1 X
     Track quality 100.0 %
     Test CRC D2C6D413
     Copy CRC D2C6D413
     Accurately ripped (confidence 16)  [E6E212FF]  (AR v2)
     Copy OK
Track 10
     Filename C:\Users\porcupine\Desktop\EAC\10 - Trevor Pinnock & Wolfgang Amadeus Mozart - Symphony No. 9 in C major, K.73 II. Andante.wav
     Peak level 41.2 %
     Extraction speed 4.4 X
     Track quality 100.0 %
     Test CRC A567D981
     Copy CRC A567D981
     Accurately ripped (confidence 16)  [EA56F7B1]  (AR v2)
     Copy OK
Track 11
     Filename C:\Users\porcupine\Desktop\EAC\11 - Trevor Pinnock & Wolfgang Amadeus Mozart - Symphony No. 9 in C major, K.73 III. Menuetto-Trio.wav
     Peak level 70.5 %
     Extraction speed 4.4 X
     Track quality 100.0 %
     Test CRC 6B9C447B
     Copy CRC 6B9C447B
     Accurately ripped (confidence 16)  [D6C71097]  (AR v2)
     Copy OK
Track 12
     Filename C:\Users\porcupine\Desktop\EAC\12 - Trevor Pinnock & Wolfgang Amadeus Mozart - Symphony No. 9 in C major, K.73 IV. Molto allegro.wav
     Peak level 97.7 %
     Extraction speed 4.0 X
     Track quality 100.0 %
     Test CRC 32331E0D
     Copy CRC 32331E0D
     Accurately ripped (confidence 16)  [E2884058]  (AR v2)
     Copy OK
Track 13
     Filename C:\Users\porcupine\Desktop\EAC\13 - Trevor Pinnock & Wolfgang Amadeus Mozart - Symphony in F major, K.76 I. Allegro maestoso.wav
     Pre-gap length  0:00:04.00
     Peak level 60.2 %
     Extraction speed 4.8 X
     Track quality 100.0 %
     Test CRC 7C89B734
     Copy CRC 7C89B734
     Accurately ripped (confidence 16)  [0E9E12D8]  (AR v2)
     Copy OK
Track 14
     Filename C:\Users\porcupine\Desktop\EAC\14 - Trevor Pinnock & Wolfgang Amadeus Mozart - Symphony in F major, K.76 II. Andante.wav
     Peak level 22.9 %
     Extraction speed 4.9 X
     Track quality 100.0 %
     Test CRC 87CBAAC9
     Copy CRC 87CBAAC9
     Accurately ripped (confidence 16)  [FB6DE463]  (AR v2)
     Copy OK
Track 15
     Filename C:\Users\porcupine\Desktop\EAC\15 - Trevor Pinnock & Wolfgang Amadeus Mozart - Symphony in F major, K.76 III. Menuetto-Trio.wav
     Peak level 67.3 %
     Extraction speed 5.0 X
     Track quality 100.0 %
     Test CRC FF7C0B5A
     Copy CRC FF7C0B5A
     Accurately ripped (confidence 16)  [86FC391D]  (AR v2)
     Copy OK
Track 16
     Filename C:\Users\porcupine\Desktop\EAC\16 - Trevor Pinnock & Wolfgang Amadeus Mozart - Symphony in F major, K.76 IV. Allegro.wav
     Peak level 65.0 %
     Extraction speed 4.8 X
     Track quality 100.0 %
     Test CRC 86337D16
     Copy CRC 86337D16
     Accurately ripped (confidence 16)  [A2BB6BEA]  (AR v2)
     Copy OK
Track 17
     Filename C:\Users\porcupine\Desktop\EAC\17 - Trevor Pinnock & Wolfgang Amadeus Mozart - Symphony in B flat major, K.Anh 214 I. Allegro.wav
     Pre-gap length  0:00:02.00
     Peak level 86.0 %
     Extraction speed 4.8 X
     Track quality 100.0 %
     Test CRC D966FB1D
     Copy CRC D966FB1D
     Accurately ripped (confidence 16)  [194D80F8]  (AR v2)
     Copy OK
Track 18
     Filename C:\Users\porcupine\Desktop\EAC\18 - Trevor Pinnock & Wolfgang Amadeus Mozart - Symphony in B flat major, K.Anh 214 II. Andante.wav
     Peak level 40.5 %
     Extraction speed 5.5 X
     Track quality 100.0 %
     Test CRC D2803B02
     Copy CRC D2803B02
     Accurately ripped (confidence 16)  [BEBFB79B]  (AR v2)
     Copy OK
Track 19
     Filename C:\Users\porcupine\Desktop\EAC\19 - Trevor Pinnock & Wolfgang Amadeus Mozart - Symphony in B flat major, K.Anh 214 III. Menuetto-Trio.wav
     Peak level 82.7 %
     Extraction speed 5.2 X
     Track quality 100.0 %
     Test CRC A8E2A08C
     Copy CRC A8E2A08C
     Accurately ripped (confidence 16)  [4DE37EFF]  (AR v2)
     Copy OK
Track 20
     Filename C:\Users\porcupine\Desktop\EAC\20 - Trevor Pinnock & Wolfgang Amadeus Mozart - Symphony in B flat major, K.Anh 214 IV. Allegro.wav
     Peak level 94.9 %
     Extraction speed 5.5 X
     Track quality 100.0 %
     Test CRC 53D2F7AE
     Copy CRC 53D2F7AE
     Accurately ripped (confidence 16)  [14C4D43B]  (AR v2)
     Copy OK
Track 21
     Filename C:\Users\porcupine\Desktop\EAC\21 - Trevor Pinnock & Wolfgang Amadeus Mozart - Symphony in D major, K.81 I. Allegro.wav
     Pre-gap length  0:00:01.00
     Peak level 70.5 %
     Extraction speed 4.3 X
     Track quality 99.9 %
     Test CRC 1EC66E9A
     Copy CRC 1EC66E9A
     Accurately ripped (confidence 17)  [CDD77ABB]  (AR v2)
     Copy OK
Track 22
     Filename C:\Users\porcupine\Desktop\EAC\22 - Trevor Pinnock & Wolfgang Amadeus Mozart - Symphony in D major, K.81 II. Andante.wav
     Peak level 42.2 %
     Extraction speed 5.9 X
     Track quality 100.0 %
     Test CRC 52B726E2
     Copy CRC 52B726E2
     Accurately ripped (confidence 17)  [F0DF5146]  (AR v2)
     Copy OK
Track 23
     Filename C:\Users\porcupine\Desktop\EAC\23 - Trevor Pinnock & Wolfgang Amadeus Mozart - Symphony in D major, K.81 III. Allegro molto.wav
     Peak level 72.8 %
     Extraction speed 5.4 X
     Track quality 100.0 %
     Test CRC 3381B00B
     Copy CRC 3381B00B
     Accurately ripped (confidence 15)  [2FB9431F]  (AR v2)
     Copy OK
All tracks accurately ripped
No errors occurred
End of status report
==== Log checksum BA4D2FC96B0F055695F17CDB1342748EDB46BC55D4AD0131762C638DFF161281 ====


CD03

Exact Audio Copy V1.0 beta 3 from 29. August 2011
EAC extraction logfile from 1. April 2014, 18:14
Wolfgang Amadeus Mozart / The Complete Mozart Symphonies Disc 3
Used drive  : PLDS    DVD+-RW DS-8A5SH   Adapter: 0  ID: 0
Read mode               : Secure
Utilize accurate stream : Yes
Defeat audio cache      : Yes
Make use of C2 pointers : No
Read offset correction                      : 6
Overread into Lead-In and Lead-Out          : No
Fill up missing offset samples with silence : Yes
Delete leading and trailing silent blocks   : No
Null samples used in CRC calculations       : Yes
Used interface                              : Native Win32 interface for Win NT & 2000
Gap handling                                : Appended to previous track
Used output format              : User Defined Encoder
Selected bitrate                : 128 kBit/s
Quality                         : High
Add ID3 tag                     : No
Command line compressor         : C:\Program Files (x86)\Exact Audio Copy\FLAC\FLAC.EXE
Additional command line options : -8 -V -T "ARTIST=%artist%" -T "TITLE=%title%" -T "ALBUM=%albumtitle%" -T "DATE=%year%" -T "TRACKNUMBER=%tracknr%" -T "TOTALTRACKS=%numtracks%" -T "GENRE=%genre%" -T "ALBUMARTIST=%albumartist%" -T "ALBUM ARTIST=%albumartist%" -T "COMMENT=EAC Secure Mode, Test & Copy, AccurateRip, FLAC -8" %source%
TOC of the extracted CD
     Track |   Start  |  Length  | Start sector | End sector
    ---------------------------------------------------------
        1  |  0:00.32 |  2:36.00 |        32    |    11731
        2  |  2:36.32 |  3:28.00 |     11732    |    27331
        3  |  6:04.32 |  3:05.00 |     27332    |    41206
        4  |  9:09.32 |  1:38.00 |     41207    |    48556
        5  | 10:47.32 |  2:15.00 |     48557    |    58681
        6  | 13:02.32 |  3:13.00 |     58682    |    73156
        7  | 16:15.32 |  3:16.00 |     73157    |    87856
        8  | 19:31.32 |  3:06.00 |     87857    |   101806
        9  | 22:37.32 |  3:40.00 |    101807    |   118306
       10  | 26:17.32 |  2:30.00 |    118307    |   129556
       11  | 28:47.32 |  3:21.00 |    129557    |   144631
       12  | 32:08.32 |  3:27.00 |    144632    |   160156
       13  | 35:35.32 |  4:10.00 |    160157    |   178906
       14  | 39:45.32 |  2:40.00 |    178907    |   190906
       15  | 42:25.32 |  3:38.00 |    190907    |   207256
       16  | 46:03.32 |  3:11.00 |    207257    |   221581
       17  | 49:14.32 |  5:16.00 |    221582    |   245281
       18  | 54:30.32 |  3:32.00 |    245282    |   261181
       19  | 58:02.32 |  2:20.00 |    261182    |   271681
       20  | 60:22.32 |  1:58.00 |    271682    |   280531
       21  | 62:20.32 |  5:28.00 |    280532    |   305131
       22  | 67:48.32 |  3:42.00 |    305132    |   321781
       23  | 71:30.32 |  2:56.00 |    321782    |   334981
Track  1
     Filename C:\Users\porcupine\Desktop\EAC\01 - Trevor Pinnock & Wolfgang Amadeus Mozart - Symphony in D major, K.97 I. Allegro.wav
     Pre-gap length  0:00:02.32
     Peak level 82.1 %
     Extraction speed 0.9 X
     Track quality 99.9 %
     Test CRC 01A354C8
     Copy CRC 01A354C8
     Accurately ripped (confidence 18)  [36B1E785]  (AR v2)
     Copy OK
Track  2
     Filename C:\Users\porcupine\Desktop\EAC\02 - Trevor Pinnock & Wolfgang Amadeus Mozart - Symphony in D major, K.97 II. Andante.wav
     Peak level 22.9 %
     Extraction speed 1.2 X
     Track quality 100.0 %
     Test CRC 6947F641
     Copy CRC 6947F641
     Accurately ripped (confidence 18)  [EA859B7A]  (AR v2)
     Copy OK
Track  3
     Filename C:\Users\porcupine\Desktop\EAC\03 - Trevor Pinnock & Wolfgang Amadeus Mozart - Symphony in D major, K.97 III. Menuetto-Trio.wav
     Peak level 81.6 %
     Extraction speed 1.3 X
     Track quality 100.0 %
     Test CRC 70A7EA59
     Copy CRC 70A7EA59
     Accurately ripped (confidence 18)  [6C10EDC0]  (AR v2)
     Copy OK
Track  4
     Filename C:\Users\porcupine\Desktop\EAC\04 - Trevor Pinnock & Wolfgang Amadeus Mozart - Symphony in D major, K.97 IV. Presto.wav
     Peak level 93.3 %
     Extraction speed 1.2 X
     Track quality 100.0 %
     Test CRC 1E21FD53
     Copy CRC 1E21FD53
     Accurately ripped (confidence 18)  [CF92465D]  (AR v2)
     Copy OK
Track  5
     Filename C:\Users\porcupine\Desktop\EAC\05 - Trevor Pinnock & Wolfgang Amadeus Mozart - Symphony in D major, K.95 I. Allegro.wav
     Pre-gap length  0:00:05.00
     Peak level 68.3 %
     Extraction speed 1.3 X
     Track quality 100.0 %
     Test CRC 419BB65A
     Copy CRC 419BB65A
     Accurately ripped (confidence 18)  [9BB16CF8]  (AR v2)
     Copy OK
Track  6
     Filename C:\Users\porcupine\Desktop\EAC\06 - Trevor Pinnock & Wolfgang Amadeus Mozart - Symphony in D major, K.95 II. Andante.wav
     Peak level 27.4 %
     Extraction speed 1.5 X
     Track quality 100.0 %
     Test CRC 5776F649
     Copy CRC 5776F649
     Accurately ripped (confidence 18)  [E76B4B9C]  (AR v2)
     Copy OK
Track  7
     Filename C:\Users\porcupine\Desktop\EAC\07 - Trevor Pinnock & Wolfgang Amadeus Mozart - Symphony in D major, K.95 III. Menuetto-Trio.wav
     Peak level 73.3 %
     Extraction speed 1.5 X
     Track quality 100.0 %
     Test CRC 40DD6262
     Copy CRC 40DD6262
     Accurately ripped (confidence 18)  [FB81E0B4]  (AR v2)
     Copy OK
Track  8
     Filename C:\Users\porcupine\Desktop\EAC\08 - Trevor Pinnock & Wolfgang Amadeus Mozart - Symphony in D major, K.95 IV. Allegro.wav
     Peak level 84.9 %
     Extraction speed 1.6 X
     Track quality 100.0 %
     Test CRC 9B384E7E
     Copy CRC 9B384E7E
     Accurately ripped (confidence 18)  [20798149]  (AR v2)
     Copy OK
Track  9
     Filename C:\Users\porcupine\Desktop\EAC\09 - Trevor Pinnock & Wolfgang Amadeus Mozart - Symphony No. 11 in D major, K.84 I. Allegro.wav
     Pre-gap length  0:00:04.00
     Peak level 75.0 %
     Extraction speed 1.7 X
     Track quality 100.0 %
     Test CRC 046FA04F
     Copy CRC 046FA04F
     Accurately ripped (confidence 15)  [3192B6F8]  (AR v2)
     Copy OK
Track 10
     Filename C:\Users\porcupine\Desktop\EAC\10 - Trevor Pinnock & Wolfgang Amadeus Mozart - Symphony No. 11 in D major, K.84 II. Andante.wav
     Peak level 34.3 %
     Extraction speed 1.6 X
     Track quality 100.0 %
     Test CRC 2F3E71D1
     Copy CRC 2F3E71D1
     Accurately ripped (confidence 18)  [D7EE2B33]  (AR v2)
     Copy OK
Track 11
     Filename C:\Users\porcupine\Desktop\EAC\11 - Trevor Pinnock & Wolfgang Amadeus Mozart - Symphony No. 11 in D major, K.84 III. Allegro.wav
     Peak level 67.7 %
     Extraction speed 1.8 X
     Track quality 100.0 %
     Test CRC 0918123E
     Copy CRC 0918123E
     Accurately ripped (confidence 18)  [AAA923DF]  (AR v2)
     Copy OK
Track 12
     Filename C:\Users\porcupine\Desktop\EAC\12 - Trevor Pinnock & Wolfgang Amadeus Mozart - Symphony in B flat major, K.Anh 216 I. Allegro.wav
     Pre-gap length  0:00:04.00
     Peak level 68.1 %
     Extraction speed 1.9 X
     Track quality 100.0 %
     Test CRC 6D22654A
     Copy CRC 6D22654A
     Accurately ripped (confidence 18)  [E2CA8253]  (AR v2)
     Copy OK
Track 13
     Filename C:\Users\porcupine\Desktop\EAC\13 - Trevor Pinnock & Wolfgang Amadeus Mozart - Symphony in B flat major, K.Anh 216 II. Andante.wav
     Peak level 28.8 %
     Extraction speed 1.8 X
     Track quality 99.9 %
     Test CRC BC1C7AB7
     Copy CRC BC1C7AB7
     Accurately ripped (confidence 18)  [472C0F26]  (AR v2)
     Copy OK
Track 14
     Filename C:\Users\porcupine\Desktop\EAC\14 - Trevor Pinnock & Wolfgang Amadeus Mozart - Symphony in B flat major, K.Anh 216 III. Menuet-Trio.wav
     Peak level 66.0 %
     Extraction speed 1.6 X
     Track quality 99.9 %
     Test CRC 43335E58
     Copy CRC 43335E58
     Accurately ripped (confidence 18)  [77365A78]  (AR v2)
     Copy OK
Track 15
     Filename C:\Users\porcupine\Desktop\EAC\15 - Trevor Pinnock & Wolfgang Amadeus Mozart - Symphony in B flat major, K.Anh 216 IV. Allegro molto.wav
     Peak level 56.9 %
     Extraction speed 2.1 X
     Track quality 100.0 %
     Test CRC 40D28DDB
     Copy CRC 40D28DDB
     Accurately ripped (confidence 18)  [5A4C0E08]  (AR v2)
     Copy OK
Track 16
     Filename C:\Users\porcupine\Desktop\EAC\16 - Trevor Pinnock & Wolfgang Amadeus Mozart - Symphony in F major, K.75 I. Allegro.wav
     Pre-gap length  0:00:02.00
     Peak level 65.8 %
     Extraction speed 2.1 X
     Track quality 100.0 %
     Test CRC C0308F5E
     Copy CRC C0308F5E
     Accurately ripped (confidence 18)  [E625323B]  (AR v2)
     Copy OK
Track 17
     Filename C:\Users\porcupine\Desktop\EAC\17 - Trevor Pinnock & Wolfgang Amadeus Mozart - Symphony in F major, K.75 II. Andantino.wav
     Peak level 31.6 %
     Extraction speed 2.3 X
     Track quality 100.0 %
     Test CRC 8DC0C6BF
     Copy CRC 8DC0C6BF
     Accurately ripped (confidence 18)  [04F1FAA0]  (AR v2)
     Copy OK
Track 18
     Filename C:\Users\porcupine\Desktop\EAC\18 - Trevor Pinnock & Wolfgang Amadeus Mozart - Symphony in F major, K.75 III. Menuetto-Trio.wav
     Peak level 57.7 %
     Extraction speed 2.3 X
     Track quality 100.0 %
     Test CRC FA732409
     Copy CRC FA732409
     Accurately ripped (confidence 18)  [80C07BCE]  (AR v2)
     Copy OK
Track 19
     Filename C:\Users\porcupine\Desktop\EAC\19 - Trevor Pinnock & Wolfgang Amadeus Mozart - Symphony in F major, K.75 IV. Allegro.wav
     Peak level 69.3 %
     Extraction speed 2.1 X
     Track quality 100.0 %
     Test CRC 4C446B06
     Copy CRC 4C446B06
     Accurately ripped (confidence 18)  [D5F58356]  (AR v2)
     Copy OK
Track 20
     Filename C:\Users\porcupine\Desktop\EAC\20 - Trevor Pinnock & Wolfgang Amadeus Mozart - Symphony in C major, K.96 I. Allegro.wav
     Pre-gap length  0:00:03.00
     Peak level 76.4 %
     Extraction speed 2.1 X
     Track quality 100.0 %
     Test CRC C05212A3
     Copy CRC C05212A3
     Accurately ripped (confidence 18)  [C5C6E220]  (AR v2)
     Copy OK
Track 21
     Filename C:\Users\porcupine\Desktop\EAC\21 - Trevor Pinnock & Wolfgang Amadeus Mozart - Symphony in C major, K.96 II. Andante.wav
     Peak level 33.5 %
     Extraction speed 2.3 X
     Track quality 99.9 %
     Test CRC B65DD6DC
     Copy CRC B65DD6DC
     Accurately ripped (confidence 18)  [49F013EC]  (AR v2)
     Copy OK
Track 22
     Filename C:\Users\porcupine\Desktop\EAC\22 - Trevor Pinnock & Wolfgang Amadeus Mozart - Symphony in C major, K.96 III. Menuetto-Trio.wav
     Peak level 82.6 %
     Extraction speed 2.4 X
     Track quality 100.0 %
     Test CRC BF8F6BC9
     Copy CRC BF8F6BC9
     Accurately ripped (confidence 18)  [A09DE433]  (AR v2)
     Copy OK
Track 23
     Filename C:\Users\porcupine\Desktop\EAC\23 - Trevor Pinnock & Wolfgang Amadeus Mozart - Symphony in C major, K.96 IV. Molto allegro.wav
     Peak level 89.9 %
     Extraction speed 2.4 X
     Track quality 100.0 %
     Test CRC 1283307F
     Copy CRC 1283307F
     Accurately ripped (confidence 18)  [287CCFEF]  (AR v2)
     Copy OK
All tracks accurately ripped
No errors occurred
End of status report
==== Log checksum 1A39C5DD7FE004DDCF5C18E24BA15773090B4142B2505D386FE89842553F6E7F ====


CD04

Exact Audio Copy V1.0 beta 3 from 29. August 2011
EAC extraction logfile from 1. April 2014, 19:43
Wolfgang Amadeus Mozart / The Complete Mozart Symphonies Disc 4
Used drive  : PLDS    DVD+-RW DS-8A5SH   Adapter: 0  ID: 0
Read mode               : Secure
Utilize accurate stream : Yes
Defeat audio cache      : Yes
Make use of C2 pointers : No
Read offset correction                      : 6
Overread into Lead-In and Lead-Out          : No
Fill up missing offset samples with silence : Yes
Delete leading and trailing silent blocks   : No
Null samples used in CRC calculations       : Yes
Used interface                              : Native Win32 interface for Win NT & 2000
Gap handling                                : Appended to previous track
Used output format              : User Defined Encoder
Selected bitrate                : 128 kBit/s
Quality                         : High
Add ID3 tag                     : No
Command line compressor         : C:\Program Files (x86)\Exact Audio Copy\FLAC\FLAC.EXE
Additional command line options : -8 -V -T "ARTIST=%artist%" -T "TITLE=%title%" -T "ALBUM=%albumtitle%" -T "DATE=%year%" -T "TRACKNUMBER=%tracknr%" -T "TOTALTRACKS=%numtracks%" -T "GENRE=%genre%" -T "ALBUMARTIST=%albumartist%" -T "ALBUM ARTIST=%albumartist%" -T "COMMENT=EAC Secure Mode, Test & Copy, AccurateRip, FLAC -8" %source%
TOC of the extracted CD
     Track |   Start  |  Length  | Start sector | End sector
    ---------------------------------------------------------
        1  |  0:00.32 |  3:10.65 |        32    |    14346
        2  |  3:11.22 |  2:40.10 |     14347    |    26356
        3  |  5:51.32 |  1:51.00 |     26357    |    34681
        4  |  7:42.32 |  6:41.00 |     34682    |    64756
        5  | 14:23.32 |  4:29.00 |     64757    |    84931
        6  | 18:52.32 |  3:48.00 |     84932    |   102031
        7  | 22:40.32 |  2:11.00 |    102032    |   111856
        8  | 24:51.32 |  5:20.00 |    111857    |   135856
        9  | 30:11.32 |  5:24.00 |    135857    |   160156
       10  | 35:35.32 |  2:18.00 |    160157    |   170506
       11  | 37:53.32 |  2:24.00 |    170507    |   181306
       12  | 40:17.32 |  7:41.00 |    181307    |   215881
       13  | 47:58.32 |  4:55.00 |    215882    |   238006
       14  | 52:53.32 |  3:49.00 |    238007    |   255181
       15  | 56:42.32 |  4:23.00 |    255182    |   274906
       16  | 61:05.32 |  5:09.00 |    274907    |   298081
       17  | 66:14.32 |  4:58.00 |    298082    |   320431
       18  | 71:12.32 |  3:22.00 |    320432    |   335581
       19  | 74:34.32 |  2:11.00 |    335582    |   345406
Track  1
     Filename C:\Users\porcupine\Desktop\EAC\01 - Trevor Pinnock & Wolfgang Amadeus Mozart - Symphony No. 10 in G major, K.74 I. Allegro.wav
     Pre-gap length  0:00:02.32
     Peak level 88.6 %
     Extraction speed 1.0 X
     Track quality 99.9 %
     Test CRC 8B014C01
     Copy CRC 8B014C01
     Accurately ripped (confidence 18)  [31386505]  (AR v2)
     Copy OK
Track  2
     Filename C:\Users\porcupine\Desktop\EAC\02 - Trevor Pinnock & Wolfgang Amadeus Mozart - Symphony No. 10 in G major, K.74 II. Andante.wav
     Peak level 64.3 %
     Extraction speed 1.2 X
     Track quality 100.0 %
     Test CRC 12EE6689
     Copy CRC 12EE6689
     Accurately ripped (confidence 18)  [D120EBA4]  (AR v2)
     Copy OK
Track  3
     Filename C:\Users\porcupine\Desktop\EAC\03 - Trevor Pinnock & Wolfgang Amadeus Mozart - Symphony No. 10 in G major, K.74 III. Allegro.wav
     Peak level 91.5 %
     Extraction speed 1.1 X
     Track quality 100.0 %
     Test CRC D3747063
     Copy CRC D3747063
     Accurately ripped (confidence 18)  [F3D12B01]  (AR v2)
     Copy OK
Track  4
     Filename C:\Users\porcupine\Desktop\EAC\04 - Trevor Pinnock & Wolfgang Amadeus Mozart - Symphony No. 12 in G major, K.110 I. Allegro.wav
     Pre-gap length  0:00:03.00
     Peak level 75.1 %
     Extraction speed 1.5 X
     Track quality 100.0 %
     Test CRC 92F82E06
     Copy CRC 92F82E06
     Accurately ripped (confidence 18)  [1849DE74]  (AR v2)
     Copy OK
Track  5
     Filename C:\Users\porcupine\Desktop\EAC\05 - Trevor Pinnock & Wolfgang Amadeus Mozart - Symphony No. 12 in G major, K.110 II. Andante.wav
     Peak level 50.3 %
     Extraction speed 1.6 X
     Track quality 100.0 %
     Test CRC C6D7471C
     Copy CRC C6D7471C
     Accurately ripped (confidence 18)  [4A83C951]  (AR v2)
     Copy OK
Track  6
     Filename C:\Users\porcupine\Desktop\EAC\06 - Trevor Pinnock & Wolfgang Amadeus Mozart - Symphony No. 12 in G major, K.110 III. Menuetto-Trio.wav
     Peak level 82.8 %
     Extraction speed 1.6 X
     Track quality 100.0 %
     Test CRC 184EAB19
     Copy CRC 184EAB19
     Accurately ripped (confidence 18)  [3E07F589]  (AR v2)
     Copy OK
Track  7
     Filename C:\Users\porcupine\Desktop\EAC\07 - Trevor Pinnock & Wolfgang Amadeus Mozart - Symphony No. 12 in G major, K.110 IV. Molto allegro.wav
     Peak level 86.6 %
     Extraction speed 1.5 X
     Track quality 100.0 %
     Test CRC E67B6769
     Copy CRC E67B6769
     Accurately ripped (confidence 18)  [8477FB7B]  (AR v2)
     Copy OK
Track  8
     Filename C:\Users\porcupine\Desktop\EAC\08 - Trevor Pinnock & Wolfgang Amadeus Mozart - Symphony No. 13 in F major, K.112 I. Allegro.wav
     Pre-gap length  0:00:03.00
     Peak level 86.1 %
     Extraction speed 1.7 X
     Track quality 99.9 %
     Test CRC E84D0C59
     Copy CRC E84D0C59
     Accurately ripped (confidence 18)  [B290DBCB]  (AR v2)
     Copy OK
Track  9
     Filename C:\Users\porcupine\Desktop\EAC\09 - Trevor Pinnock & Wolfgang Amadeus Mozart - Symphony No. 13 in F major, K.112 II. Andante.wav
     Peak level 32.7 %
     Extraction speed 1.8 X
     Track quality 99.9 %
     Test CRC B0A84DCD
     Copy CRC B0A84DCD
     Accurately ripped (confidence 18)  [A70F6181]  (AR v2)
     Copy OK
Track 10
     Filename C:\Users\porcupine\Desktop\EAC\10 - Trevor Pinnock & Wolfgang Amadeus Mozart - Symphony No. 13 in F major, K.112 III. Menuetto-Trio.wav
     Peak level 75.5 %
     Extraction speed 1.8 X
     Track quality 100.0 %
     Test CRC 31E00097
     Copy CRC 31E00097
     Accurately ripped (confidence 18)  [0E41B4C8]  (AR v2)
     Copy OK
Track 11
     Filename C:\Users\porcupine\Desktop\EAC\11 - Trevor Pinnock & Wolfgang Amadeus Mozart - Symphony No. 13 in F major, K.112 IV. Molto allegro.wav
     Peak level 84.2 %
     Extraction speed 1.8 X
     Track quality 100.0 %
     Test CRC 46851A4A
     Copy CRC 46851A4A
     Accurately ripped (confidence 18)  [E9753D52]  (AR v2)
     Copy OK
Track 12
     Filename C:\Users\porcupine\Desktop\EAC\12 - Trevor Pinnock & Wolfgang Amadeus Mozart - Symphony No. 14 in A major, K.114 I. Allegro moderato.wav
     Pre-gap length  0:00:05.00
     Peak level 81.9 %
     Extraction speed 2.2 X
     Track quality 100.0 %
     Test CRC FD8EA705
     Copy CRC FD8EA705
     Accurately ripped (confidence 18)  [9D52FA36]  (AR v2)
     Copy OK
Track 13
     Filename C:\Users\porcupine\Desktop\EAC\13 - Trevor Pinnock & Wolfgang Amadeus Mozart - Symphony No. 14 in A major, K.114 II. Andante.wav
     Peak level 51.8 %
     Extraction speed 2.3 X
     Track quality 100.0 %
     Test CRC C1A7F71B
     Copy CRC C1A7F71B
     Accurately ripped (confidence 18)  [A8AF8EAD]  (AR v2)
     Copy OK
Track 14
     Filename C:\Users\porcupine\Desktop\EAC\14 - Trevor Pinnock & Wolfgang Amadeus Mozart - Symphony No. 14 in A major, K.114 III. Menuetto-Trio.wav
     Peak level 68.3 %
     Extraction speed 2.2 X
     Track quality 100.0 %
     Test CRC CBFC1104
     Copy CRC CBFC1104
     Accurately ripped (confidence 18)  [931E9F6B]  (AR v2)
     Copy OK
Track 15
     Filename C:\Users\porcupine\Desktop\EAC\15 - Trevor Pinnock & Wolfgang Amadeus Mozart - Symphony No. 14 in A major, K.114 IV. Molto allegro.wav
     Peak level 92.7 %
     Extraction speed 2.4 X
     Track quality 100.0 %
     Test CRC 6003E075
     Copy CRC 6003E075
     Accurately ripped (confidence 18)  [6495C886]  (AR v2)
     Copy OK
Track 16
     Filename C:\Users\porcupine\Desktop\EAC\16 - Trevor Pinnock & Wolfgang Amadeus Mozart - Symphony No. 15 in G major, K.124 I. Allegro.wav
     Pre-gap length  0:00:02.00
     Peak level 90.9 %
     Extraction speed 2.5 X
     Track quality 100.0 %
     Test CRC 14A153E0
     Copy CRC 14A153E0
     Accurately ripped (confidence 18)  [C8467550]  (AR v2)
     Copy OK
Track 17
     Filename C:\Users\porcupine\Desktop\EAC\17 - Trevor Pinnock & Wolfgang Amadeus Mozart - Symphony No. 15 in G major, K.124 II. Andante.wav
     Peak level 46.5 %
     Extraction speed 2.5 X
     Track quality 100.0 %
     Test CRC E9FF03B7
     Copy CRC E9FF03B7
     Accurately ripped (confidence 17)  [372C3A91]  (AR v2)
     Copy OK
Track 18
     Filename C:\Users\porcupine\Desktop\EAC\18 - Trevor Pinnock & Wolfgang Amadeus Mozart - Symphony No. 15 in G major, K.124 III. Menuetto-Trio.wav
     Peak level 94.0 %
     Extraction speed 2.4 X
     Track quality 100.0 %
     Test CRC 20703DB1
     Copy CRC 20703DB1
     Accurately ripped (confidence 17)  [5C4BE828]  (AR v2)
     Copy OK
Track 19
     Filename C:\Users\porcupine\Desktop\EAC\19 - Trevor Pinnock & Wolfgang Amadeus Mozart - Symphony No. 15 in G major, K.124 IV. Presto.wav
     Peak level 83.3 %
     Extraction speed 2.3 X
     Track quality 100.0 %
     Test CRC 2CB23056
     Copy CRC 2CB23056
     Accurately ripped (confidence 17)  [4E150213]  (AR v2)
     Copy OK
All tracks accurately ripped
No errors occurred
End of status report
==== Log checksum F36D8457B1F55DA59D1C19248F89AD00CCED42C05F5FBF29474DA47113F14F2C ====


CD05

Exact Audio Copy V1.0 beta 3 from 29. August 2011
EAC extraction logfile from 2. April 2014, 6:35
Wolfgang Amadeus Mozart / The Complete Mozart Symphonies Disc 5
Used drive  : PLDS    DVD+-RW DS-8A5SH   Adapter: 0  ID: 0
Read mode               : Secure
Utilize accurate stream : Yes
Defeat audio cache      : Yes
Make use of C2 pointers : No
Read offset correction                      : 6
Overread into Lead-In and Lead-Out          : No
Fill up missing offset samples with silence : Yes
Delete leading and trailing silent blocks   : No
Null samples used in CRC calculations       : Yes
Used interface                              : Native Win32 interface for Win NT & 2000
Gap handling                                : Appended to previous track
Used output format              : User Defined Encoder
Selected bitrate                : 128 kBit/s
Quality                         : High
Add ID3 tag                     : No
Command line compressor         : C:\Program Files (x86)\Exact Audio Copy\FLAC\FLAC.EXE
Additional command line options : -8 -V -T "ARTIST=%artist%" -T "TITLE=%title%" -T "ALBUM=%albumtitle%" -T "DATE=%year%" -T "TRACKNUMBER=%tracknr%" -T "TOTALTRACKS=%numtracks%" -T "GENRE=%genre%" -T "ALBUMARTIST=%albumartist%" -T "ALBUM ARTIST=%albumartist%" -T "COMMENT=EAC Secure Mode, Test & Copy, AccurateRip, FLAC -8" %source%
TOC of the extracted CD
     Track |   Start  |  Length  | Start sector | End sector
    ---------------------------------------------------------
        1  |  0:00.00 |  4:24.00 |         0    |    19799
        2  |  4:24.00 |  4:06.43 |     19800    |    38292
        3  |  8:30.43 |  3:20.32 |     38293    |    53324
        4  | 11:51.00 |  6:27.00 |     53325    |    82349
        5  | 18:18.00 |  5:46.38 |     82350    |   108337
        6  | 24:04.38 |  3:48.37 |    108338    |   125474
        7  | 27:53.00 |  5:16.00 |    125475    |   149174
        8  | 33:09.00 |  5:08.00 |    149175    |   172274
        9  | 38:17.00 |  2:15.33 |    172275    |   182432
       10  | 40:32.33 |  7:02.42 |    182433    |   214124
       11  | 47:35.00 |  4:04.00 |    214125    |   232424
       12  | 51:39.00 |  6:09.00 |    232425    |   260099
       13  | 57:48.00 |  4:19.00 |    260100    |   279524
       14  | 62:07.00 |  3:54.00 |    279525    |   297074
       15  | 66:01.00 |  2:50.00 |    297075    |   309824
       16  | 68:51.00 |  3:09.64 |    309825    |   324063
       17  | 72:00.64 |  2:12.31 |    324064    |   333994
Track  1
     Filename C:\Users\porcupine\Desktop\EAC\01 - Trevor Pinnock & Wolfgang Amadeus Mozart - Symphony No. 16 in C major, K.128 I. Allegro maestoso.wav
     Pre-gap length  0:00:02.00
     Peak level 76.5 %
     Extraction speed 3.0 X
     Track quality 100.0 %
     Test CRC DF58DDDF
     Copy CRC DF58DDDF
     Accurately ripped (confidence 2)  [ED7800CB]  (AR v2)
     Copy OK
Track  2
     Filename C:\Users\porcupine\Desktop\EAC\02 - Trevor Pinnock & Wolfgang Amadeus Mozart - Symphony No. 16 in C major, K.128 II. Andante grazioso.wav
     Peak level 53.9 %
     Extraction speed 3.2 X
     Track quality 100.0 %
     Test CRC 1DDD1DA0
     Copy CRC 1DDD1DA0
     Accurately ripped (confidence 2)  [18B0325D]  (AR v2)
     Copy OK
Track  3
     Filename C:\Users\porcupine\Desktop\EAC\03 - Trevor Pinnock & Wolfgang Amadeus Mozart - Symphony No. 16 in C major, K.128 III. Allegro.wav
     Peak level 67.2 %
     Extraction speed 3.3 X
     Track quality 100.0 %
     Test CRC 66895448
     Copy CRC 66895448
     Accurately ripped (confidence 2)  [21AC4FDD]  (AR v2)
     Copy OK
Track  4
     Filename C:\Users\porcupine\Desktop\EAC\04 - Trevor Pinnock & Wolfgang Amadeus Mozart - Symphony No. 17 in G major, K.129  I. Allegro.wav
     Pre-gap length  0:00:05.74
     Peak level 95.3 %
     Extraction speed 3.9 X
     Track quality 100.0 %
     Test CRC CAA79691
     Copy CRC CAA79691
     Accurately ripped (confidence 2)  [FBD1722C]  (AR v2)
     Copy OK
Track  5
     Filename C:\Users\porcupine\Desktop\EAC\05 - Trevor Pinnock & Wolfgang Amadeus Mozart - Symphony No. 17 in G major, K.129 II. Andante.wav
     Peak level 79.1 %
     Extraction speed 4.2 X
     Track quality 100.0 %
     Test CRC EA689234
     Copy CRC EA689234
     Accurately ripped (confidence 2)  [4CC17A1B]  (AR v2)
     Copy OK
Track  6
     Filename C:\Users\porcupine\Desktop\EAC\06 - Trevor Pinnock & Wolfgang Amadeus Mozart - Symphony No. 17 in G major, K.129 III. Allegro.wav
     Peak level 82.7 %
     Extraction speed 4.2 X
     Track quality 100.0 %
     Test CRC 519064CA
     Copy CRC 519064CA
     Accurately ripped (confidence 2)  [E8CDEE97]  (AR v2)
     Copy OK
Track  7
     Filename C:\Users\porcupine\Desktop\EAC\07 - Trevor Pinnock & Wolfgang Amadeus Mozart - Symphony No. 18 in F major, K.130 I. Allegro.wav
     Pre-gap length  0:00:04.74
     Peak level 88.6 %
     Extraction speed 4.5 X
     Track quality 100.0 %
     Test CRC C676A158
     Copy CRC C676A158
     Accurately ripped (confidence 2)  [0D727FC8]  (AR v2)
     Copy OK
Track  8
     Filename C:\Users\porcupine\Desktop\EAC\08 - Trevor Pinnock & Wolfgang Amadeus Mozart - Symphony No. 18 in F major, K.130 II. Andantino grazioso.wav
     Peak level 71.4 %
     Extraction speed 4.8 X
     Track quality 100.0 %
     Test CRC 0371DA6D
     Copy CRC 0371DA6D
     Accurately ripped (confidence 2)  [F36C285C]  (AR v2)
     Copy OK
Track  9
     Filename C:\Users\porcupine\Desktop\EAC\09 - Trevor Pinnock & Wolfgang Amadeus Mozart - Symphony No. 18 in F major, K.130 III. Menuetto - Trio.wav
     Peak level 84.6 %
     Extraction speed 3.3 X
     Track quality 99.9 %
     Test CRC 6EBB9431
     Copy CRC 6EBB9431
     Accurately ripped (confidence 2)  [6C106655]  (AR v2)
     Copy OK
Track 10
     Filename C:\Users\porcupine\Desktop\EAC\10 - Trevor Pinnock & Wolfgang Amadeus Mozart - Symphony No. 18 in F major, K.130 IV. Molto allegro.wav
     Peak level 95.3 %
     Extraction speed 5.2 X
     Track quality 100.0 %
     Test CRC 5C6DABAD
     Copy CRC 5C6DABAD
     Accurately ripped (confidence 2)  [3B0905B0]  (AR v2)
     Copy OK
Track 11
     Filename C:\Users\porcupine\Desktop\EAC\11 - Trevor Pinnock & Wolfgang Amadeus Mozart - Symphony No. 19 in E flat major, K.132 I. Allegro.wav
     Pre-gap length  0:00:05.73
     Peak level 81.0 %
     Extraction speed 4.4 X
     Track quality 99.9 %
     Test CRC CBF02958
     Copy CRC CBF02958
     Accurately ripped (confidence 2)  [9B3D14C7]  (AR v2)
     Copy OK
Track 12
     Filename C:\Users\porcupine\Desktop\EAC\12 - Trevor Pinnock & Wolfgang Amadeus Mozart - Symphony No. 19 in E flat major, K.132 II. Andante.wav
     Peak level 65.5 %
     Extraction speed 5.6 X
     Track quality 100.0 %
     Test CRC AE1A2928
     Copy CRC AE1A2928
     Accurately ripped (confidence 2)  [89A446B5]  (AR v2)
     Copy OK
Track 13
     Filename C:\Users\porcupine\Desktop\EAC\13 - Trevor Pinnock & Wolfgang Amadeus Mozart - Symphony No. 19 in E flat major, K.132 III. Menuetto - Trio.wav
     Peak level 91.5 %
     Extraction speed 5.6 X
     Track quality 100.0 %
     Test CRC 9DE292AE
     Copy CRC 9DE292AE
     Accurately ripped (confidence 2)  [7E78BC59]  (AR v2)
     Copy OK
Track 14
     Filename C:\Users\porcupine\Desktop\EAC\14 - Trevor Pinnock & Wolfgang Amadeus Mozart - Symphony No. 19 in E flat major, K.132 IV. Allegro.wav
     Peak level 99.3 %
     Extraction speed 5.6 X
     Track quality 100.0 %
     Test CRC 4DA5FC95
     Copy CRC 4DA5FC95
     Accurately ripped (confidence 2)  [48B97A7D]  (AR v2)
     Copy OK
Track 15
     Filename C:\Users\porcupine\Desktop\EAC\15 - Trevor Pinnock & Wolfgang Amadeus Mozart - Symphony No. 26 in E flat major, K.184 161a I. Molto presto.wav
     Pre-gap length  0:00:04.74
     Peak level 90.5 %
     Extraction speed 4.3 X
     Track quality 99.9 %
     Test CRC 0D13A5E6
     Copy CRC 0D13A5E6
     Accurately ripped (confidence 2)  [09BE9A77]  (AR v2)
     Copy OK
Track 16
     Filename C:\Users\porcupine\Desktop\EAC\16 - Trevor Pinnock & Wolfgang Amadeus Mozart - Symphony No. 26 in E flat major, K.184 161a II. Andante.wav
     Peak level 58.0 %
     Extraction speed 5.6 X
     Track quality 100.0 %
     Test CRC 113F2403
     Copy CRC 113F2403
     Accurately ripped (confidence 2)  [E89AE66F]  (AR v2)
     Copy OK
Track 17
     Filename C:\Users\porcupine\Desktop\EAC\17 - Trevor Pinnock & Wolfgang Amadeus Mozart - Symphony No. 26 in E flat major, K.184 161a III. Allegro.wav
     Peak level 99.9 %
     Extraction speed 5.4 X
     Track quality 100.0 %
     Test CRC D63FC6EE
     Copy CRC D63FC6EE
     Accurately ripped (confidence 2)  [8C18A54E]  (AR v2)
     Copy OK
All tracks accurately ripped
No errors occurred
End of status report
==== Log checksum 640C2310FF2181E5B569313EF026C3184182A993D10DAB8F1C61938DE5AFED25 ====


CD06

Exact Audio Copy V1.0 beta 3 from 29. August 2011
EAC extraction logfile from 2. April 2014, 19:57
Wolfgang Amadeus Mozart / The Complete Mozart Symphonies Disc 6
Used drive  : PLDS    DVD+-RW DS-8A5SH   Adapter: 0  ID: 0
Read mode               : Secure
Utilize accurate stream : Yes
Defeat audio cache      : Yes
Make use of C2 pointers : No
Read offset correction                      : 6
Overread into Lead-In and Lead-Out          : No
Fill up missing offset samples with silence : Yes
Delete leading and trailing silent blocks   : No
Null samples used in CRC calculations       : Yes
Used interface                              : Native Win32 interface for Win NT & 2000
Gap handling                                : Appended to previous track
Used output format              : User Defined Encoder
Selected bitrate                : 128 kBit/s
Quality                         : High
Add ID3 tag                     : No
Command line compressor         : C:\Program Files (x86)\Exact Audio Copy\FLAC\FLAC.EXE
Additional command line options : -8 -V -T "ARTIST=%artist%" -T "TITLE=%title%" -T "ALBUM=%albumtitle%" -T "DATE=%year%" -T "TRACKNUMBER=%tracknr%" -T "TOTALTRACKS=%numtracks%" -T "GENRE=%genre%" -T "ALBUMARTIST=%albumartist%" -T "ALBUM ARTIST=%albumartist%" -T "COMMENT=EAC Secure Mode, Test & Copy, AccurateRip, FLAC -8" %source%
TOC of the extracted CD
     Track |   Start  |  Length  | Start sector | End sector
    ---------------------------------------------------------
        1  |  0:00.00 |  7:20.00 |         0    |    32999
        2  |  7:20.00 |  5:57.00 |     33000    |    59774
        3  | 13:17.00 |  3:55.33 |     59775    |    77432
        4  | 17:12.33 |  5:29.42 |     77433    |   102149
        5  | 22:42.00 |  5:20.00 |    102150    |   126149
        6  | 28:02.00 |  4:36.00 |    126150    |   146849
        7  | 32:38.00 |  4:10.00 |    146850    |   165599
        8  | 36:48.00 |  3:34.00 |    165600    |   181649
        9  | 40:22.00 |  3:33.50 |    181650    |   197674
       10  | 43:55.50 |  3:00.59 |    197675    |   211233
       11  | 46:56.34 |  2:05.08 |    211234    |   220616
       12  | 49:01.42 |  4:53.49 |    220617    |   242640
       13  | 53:55.16 |  2:05.72 |    242641    |   252087
       14  | 56:01.13 |  2:11.13 |    252088    |   261925
       15  | 58:12.26 |  6:47.34 |    261926    |   292484
       16  | 64:59.60 |  5:33.30 |    292485    |   317489
       17  | 70:33.15 |  5:18.57 |    317490    |   341396
Track  1
     Filename C:\Users\porcupine\Desktop\EAC\01 - Trevor Pinnock & Wolfgang Amadeus Mozart - Symphony No. 20, K.133 I. Allegro.wav
     Pre-gap length  0:00:02.00
     Peak level 94.8 %
     Extraction speed 3.2 X
     Track quality 100.0 %
     Test CRC 39235A72
     Copy CRC 39235A72
     Accurately ripped (confidence 18)  [4565A927]  (AR v2)
     Copy OK
Track  2
     Filename C:\Users\porcupine\Desktop\EAC\02 - Trevor Pinnock & Wolfgang Amadeus Mozart - Symphony No. 20, K.133 II. Andante.wav
     Peak level 58.6 %
     Extraction speed 3.6 X
     Track quality 100.0 %
     Test CRC 2025C206
     Copy CRC 2025C206
     Accurately ripped (confidence 18)  [EDFE8275]  (AR v2)
     Copy OK
Track  3
     Filename C:\Users\porcupine\Desktop\EAC\03 - Trevor Pinnock & Wolfgang Amadeus Mozart - Symphony No. 20, K.133 III. Menuetto-Trio.wav
     Peak level 97.4 %
     Extraction speed 3.7 X
     Track quality 100.0 %
     Test CRC 9B567957
     Copy CRC 9B567957
     Accurately ripped (confidence 18)  [5B69D3E7]  (AR v2)
     Copy OK
Track  4
     Filename C:\Users\porcupine\Desktop\EAC\04 - Trevor Pinnock & Wolfgang Amadeus Mozart - Symphony No. 20, K.133 IV. Allegro.wav
     Peak level 99.9 %
     Extraction speed 4.1 X
     Track quality 100.0 %
     Test CRC 3167F048
     Copy CRC 3167F048
     Accurately ripped (confidence 18)  [A49AA6E7]  (AR v2)
     Copy OK
Track  5
     Filename C:\Users\porcupine\Desktop\EAC\05 - Trevor Pinnock & Wolfgang Amadeus Mozart - Symphony No. 21, K.134 I. Allegro.wav
     Pre-gap length  0:00:06.00
     Peak level 90.8 %
     Extraction speed 3.7 X
     Track quality 99.9 %
     Test CRC D2333CD2
     Copy CRC D2333CD2
     Accurately ripped (confidence 17)  [8905F8AD]  (AR v2)
     Copy OK
Track  6
     Filename C:\Users\porcupine\Desktop\EAC\06 - Trevor Pinnock & Wolfgang Amadeus Mozart - Symphony No. 21, K.134 II. Andante.wav
     Peak level 82.0 %
     Extraction speed 4.5 X
     Track quality 100.0 %
     Test CRC 02987137
     Copy CRC 02987137
     Accurately ripped (confidence 18)  [75B94615]  (AR v2)
     Copy OK
Track  7
     Filename C:\Users\porcupine\Desktop\EAC\07 - Trevor Pinnock & Wolfgang Amadeus Mozart - Symphony No. 21, K.134 III. Menuetto-Trio.wav
     Peak level 81.1 %
     Extraction speed 3.9 X
     Track quality 99.9 %
     Test CRC D1EC8A5E
     Copy CRC D1EC8A5E
     Accurately ripped (confidence 18)  [8E797284]  (AR v2)
     Copy OK
Track  8
     Filename C:\Users\porcupine\Desktop\EAC\08 - Trevor Pinnock & Wolfgang Amadeus Mozart - Symphony No. 21, K.134 IV. Allegro.wav
     Peak level 93.9 %
     Extraction speed 4.7 X
     Track quality 100.0 %
     Test CRC 504A31C1
     Copy CRC 504A31C1
     Accurately ripped (confidence 18)  [BD2E4A02]  (AR v2)
     Copy OK
Track  9
     Filename C:\Users\porcupine\Desktop\EAC\09 - Trevor Pinnock & Wolfgang Amadeus Mozart - Symphony No. 22, K.162 I. Allegro assai.wav
     Pre-gap length  0:00:06.00
     Peak level 82.3 %
     Extraction speed 4.8 X
     Track quality 100.0 %
     Test CRC 8449B01E
     Copy CRC 8449B01E
     Accurately ripped (confidence 18)  [1B0EA739]  (AR v2)
     Copy OK
Track 10
     Filename C:\Users\porcupine\Desktop\EAC\10 - Trevor Pinnock & Wolfgang Amadeus Mozart - Symphony No. 22, K.162 II. Andantino grazioso.wav
     Peak level 34.4 %
     Extraction speed 4.8 X
     Track quality 100.0 %
     Test CRC 558A212B
     Copy CRC 558A212B
     Accurately ripped (confidence 18)  [E248F0DC]  (AR v2)
     Copy OK
Track 11
     Filename C:\Users\porcupine\Desktop\EAC\11 - Trevor Pinnock & Wolfgang Amadeus Mozart - Symphony No. 22, K.162 III. Presto assai.wav
     Peak level 71.5 %
     Extraction speed 4.6 X
     Track quality 100.0 %
     Test CRC DE100EFA
     Copy CRC DE100EFA
     Accurately ripped (confidence 18)  [5B73ACEF]  (AR v2)
     Copy OK
Track 12
     Filename C:\Users\porcupine\Desktop\EAC\12 - Trevor Pinnock & Wolfgang Amadeus Mozart - Symphony No. 23, K.181 I. Allegro spiritoso.wav
     Pre-gap length  0:00:06.42
     Peak level 91.7 %
     Extraction speed 5.3 X
     Track quality 100.0 %
     Test CRC 68820E66
     Copy CRC 68820E66
     Accurately ripped (confidence 18)  [01589DE9]  (AR v2)
     Copy OK
Track 13
     Filename C:\Users\porcupine\Desktop\EAC\13 - Trevor Pinnock & Wolfgang Amadeus Mozart - Symphony No. 23, K.181 II. Andantino grazioso.wav
     Peak level 41.2 %
     Extraction speed 4.8 X
     Track quality 100.0 %
     Test CRC 8BE1D151
     Copy CRC 8BE1D151
     Accurately ripped (confidence 18)  [B1323980]  (AR v2)
     Copy OK
Track 14
     Filename C:\Users\porcupine\Desktop\EAC\14 - Trevor Pinnock & Wolfgang Amadeus Mozart - Symphony No. 23, K.181 III. Presto assai.wav
     Peak level 83.5 %
     Extraction speed 4.8 X
     Track quality 100.0 %
     Test CRC D20FCA75
     Copy CRC D20FCA75
     Accurately ripped (confidence 18)  [D66C1C12]  (AR v2)
     Copy OK
Track 15
     Filename C:\Users\porcupine\Desktop\EAC\15 - Trevor Pinnock & Wolfgang Amadeus Mozart - Symphony No. 24, K.199 I. Allegro.wav
     Pre-gap length  0:00:05.11
     Peak level 97.2 %
     Extraction speed 5.9 X
     Track quality 100.0 %
     Test CRC 85C21401
     Copy CRC 85C21401
     Accurately ripped (confidence 18)  [26E8D265]  (AR v2)
     Copy OK
Track 16
     Filename C:\Users\porcupine\Desktop\EAC\16 - Trevor Pinnock & Wolfgang Amadeus Mozart - Symphony No. 24, K.199 II. Andantino grazioso.wav
     Peak level 42.1 %
     Extraction speed 6.0 X
     Track quality 100.0 %
     Test CRC 1E8775C9
     Copy CRC 1E8775C9
     Accurately ripped (confidence 18)  [73112625]  (AR v2)
     Copy OK
Track 17
     Filename C:\Users\porcupine\Desktop\EAC\17 - Trevor Pinnock & Wolfgang Amadeus Mozart - Symphony No. 24, K.199 III. Presto.wav
     Peak level 78.4 %
     Extraction speed 6.2 X
     Track quality 100.0 %
     Test CRC 72FE716D
     Copy CRC 72FE716D
     Accurately ripped (confidence 17)  [8B45E6B8]  (AR v2)
     Copy OK
All tracks accurately ripped
No errors occurred
End of status report
==== Log checksum 902E95B3CCB4E63B82734A5E2C96C2019C2486B515DB2F3CA196BC4E74AE83E5 ====


CD07

Exact Audio Copy V1.0 beta 3 from 29. August 2011
EAC extraction logfile from 2. April 2014, 21:19
Wolfgang Amadeus Mozart / The Complete Mozart Symphonies Disc 7
Used drive  : PLDS    DVD+-RW DS-8A5SH   Adapter: 0  ID: 0
Read mode               : Secure
Utilize accurate stream : Yes
Defeat audio cache      : Yes
Make use of C2 pointers : No
Read offset correction                      : 6
Overread into Lead-In and Lead-Out          : No
Fill up missing offset samples with silence : Yes
Delete leading and trailing silent blocks   : No
Null samples used in CRC calculations       : Yes
Used interface                              : Native Win32 interface for Win NT & 2000
Gap handling                                : Appended to previous track
Used output format              : User Defined Encoder
Selected bitrate                : 128 kBit/s
Quality                         : High
Add ID3 tag                     : No
Command line compressor         : C:\Program Files (x86)\Exact Audio Copy\FLAC\FLAC.EXE
Additional command line options : -8 -V -T "ARTIST=%artist%" -T "TITLE=%title%" -T "ALBUM=%albumtitle%" -T "DATE=%year%" -T "TRACKNUMBER=%tracknr%" -T "TOTALTRACKS=%numtracks%" -T "GENRE=%genre%" -T "ALBUMARTIST=%albumartist%" -T "ALBUM ARTIST=%albumartist%" -T "COMMENT=EAC Secure Mode, Test & Copy, AccurateRip, FLAC -8" %source%
TOC of the extracted CD
     Track |   Start  |  Length  | Start sector | End sector
    ---------------------------------------------------------
        1  |  0:00.00 |  4:00.25 |         0    |    18024
        2  |  4:00.25 |  2:35.60 |     18025    |    29709
        3  |  6:36.10 |  1:32.65 |     29710    |    36674
        4  |  8:09.00 | 10:13.00 |     36675    |    82649
        5  | 18:22.00 |  6:50.00 |     82650    |   113399
        6  | 25:12.00 |  4:08.20 |    113400    |   132019
        7  | 29:20.20 |  6:31.55 |    132020    |   161399
        8  | 35:52.00 |  5:53.00 |    161400    |   187874
        9  | 41:45.00 |  5:57.00 |    187875    |   214649
       10  | 47:42.00 |  4:53.00 |    214650    |   236624
       11  | 52:35.00 |  4:48.00 |    236625    |   258224
       12  | 57:23.00 |  7:28.00 |    258225    |   291824
       13  | 64:51.00 |  5:53.25 |    291825    |   318324
       14  | 70:44.25 |  3:35.50 |    318325    |   334499
Track  1
     Filename C:\Users\porcupine\Desktop\EAC\01 - Trevor Pinnock & Wolfgang Amadeus Mozart - Symphony No. 24, K.182 I. Allegro spiritoso.wav
     Pre-gap length  0:00:02.00
     Peak level 79.4 %
     Extraction speed 1.1 X
     Track quality 99.9 %
     Test CRC 4E4A5B7D
     Copy CRC 4E4A5B7D
     Accurately ripped (confidence 2)  [E7E226C6]  (AR v2)
     Copy OK
Track  2
     Filename C:\Users\porcupine\Desktop\EAC\02 - Trevor Pinnock & Wolfgang Amadeus Mozart - Symphony No. 24, K.182 II. Andantino grazioso.wav
     Peak level 25.7 %
     Extraction speed 1.2 X
     Track quality 100.0 %
     Test CRC 174E88C0
     Copy CRC 174E88C0
     Accurately ripped (confidence 2)  [3D18CD68]  (AR v2)
     Copy OK
Track  3
     Filename C:\Users\porcupine\Desktop\EAC\03 - Trevor Pinnock & Wolfgang Amadeus Mozart - Symphony No. 24, K.182 III. Allegro.wav
     Peak level 99.9 %
     Extraction speed 1.1 X
     Track quality 100.0 %
     Test CRC 4209ACD7
     Copy CRC 4209ACD7
     Accurately ripped (confidence 2)  [5C38F588]  (AR v2)
     Copy OK
Track  4
     Filename C:\Users\porcupine\Desktop\EAC\04 - Trevor Pinnock & Wolfgang Amadeus Mozart - Symphony No. 25, K.183 I. Allegro con brio.wav
     Pre-gap length  0:00:05.00
     Peak level 92.0 %
     Extraction speed 1.6 X
     Track quality 100.0 %
     Test CRC FC5D9421
     Copy CRC FC5D9421
     Accurately ripped (confidence 2)  [C5A667AB]  (AR v2)
     Copy OK
Track  5
     Filename C:\Users\porcupine\Desktop\EAC\05 - Trevor Pinnock & Wolfgang Amadeus Mozart - Symphony No. 25, K.183 II. Andante.wav
     Peak level 35.4 %
     Extraction speed 1.7 X
     Track quality 99.9 %
     Test CRC 23F77C75
     Copy CRC 23F77C75
     Accurately ripped (confidence 2)  [985957AB]  (AR v2)
     Copy OK
Track  6
     Filename C:\Users\porcupine\Desktop\EAC\06 - Trevor Pinnock & Wolfgang Amadeus Mozart - Symphony No. 25, K.183 III. Menuetto-Trio.wav
     Peak level 61.8 %
     Extraction speed 1.8 X
     Track quality 100.0 %
     Test CRC 6EF60638
     Copy CRC 6EF60638
     Accurately ripped (confidence 2)  [39238639]  (AR v2)
     Copy OK
Track  7
     Filename C:\Users\porcupine\Desktop\EAC\07 - Trevor Pinnock & Wolfgang Amadeus Mozart - Symphony No. 25, K.183 IV. Allegro.wav
     Peak level 88.5 %
     Extraction speed 1.8 X
     Track quality 99.9 %
     Test CRC 83A1C104
     Copy CRC 83A1C104
     Accurately ripped (confidence 2)  [07A38E31]  (AR v2)
     Copy OK
Track  8
     Filename C:\Users\porcupine\Desktop\EAC\08 - Trevor Pinnock & Wolfgang Amadeus Mozart - Symphony No. 30, K.202 I. Molto allegro.wav
     Pre-gap length  0:00:07.00
     Peak level 93.7 %
     Extraction speed 2.1 X
     Track quality 100.0 %
     Test CRC E461C459
     Copy CRC E461C459
     Accurately ripped (confidence 2)  [4BF9C191]  (AR v2)
     Copy OK
Track  9
     Filename C:\Users\porcupine\Desktop\EAC\09 - Trevor Pinnock & Wolfgang Amadeus Mozart - Symphony No. 30, K.202 II. Andantino con moto.wav
     Peak level 54.9 %
     Extraction speed 2.2 X
     Track quality 100.0 %
     Test CRC 0F2197A2
     Copy CRC 0F2197A2
     Accurately ripped (confidence 2)  [582300A6]  (AR v2)
     Copy OK
Track 10
     Filename C:\Users\porcupine\Desktop\EAC\10 - Trevor Pinnock & Wolfgang Amadeus Mozart - Symphony No. 30, K.202 III. Menuetto-Trio.wav
     Peak level 90.8 %
     Extraction speed 2.2 X
     Track quality 100.0 %
     Test CRC 98F4E4D6
     Copy CRC 98F4E4D6
     Accurately ripped (confidence 2)  [755254DB]  (AR v2)
     Copy OK
Track 11
     Filename C:\Users\porcupine\Desktop\EAC\11 - Trevor Pinnock & Wolfgang Amadeus Mozart - Symphony No. 30, K.202 IV. Presto.wav
     Peak level 93.7 %
     Extraction speed 2.3 X
     Track quality 100.0 %
     Test CRC 15FDC904
     Copy CRC 15FDC904
     Accurately ripped (confidence 2)  [D5E739FB]  (AR v2)
     Copy OK
Track 12
     Filename C:\Users\porcupine\Desktop\EAC\12 - Trevor Pinnock & Wolfgang Amadeus Mozart - Symphony No. 31, K.297 I. Allegro assai.wav
     Pre-gap length  0:00:05.00
     Peak level 95.2 %
     Extraction speed 2.5 X
     Track quality 100.0 %
     Test CRC 9E46AFD1
     Copy CRC 9E46AFD1
     Accurately ripped (confidence 2)  [E7B53883]  (AR v2)
     Copy OK
Track 13
     Filename C:\Users\porcupine\Desktop\EAC\13 - Trevor Pinnock & Wolfgang Amadeus Mozart - Symphony No. 31, K.297 II. Andante.wav
     Peak level 51.5 %
     Extraction speed 2.5 X
     Track quality 100.0 %
     Test CRC 76B0B397
     Copy CRC 76B0B397
     Accurately ripped (confidence 2)  [ED4EEADA]  (AR v2)
     Copy OK
Track 14
     Filename C:\Users\porcupine\Desktop\EAC\14 - Trevor Pinnock & Wolfgang Amadeus Mozart - Symphony No. 31, K.297 III. Allegro.wav
     Peak level 99.8 %
     Extraction speed 2.5 X
     Track quality 100.0 %
     Test CRC BCA3E8D0
     Copy CRC BCA3E8D0
     Accurately ripped (confidence 2)  [E22FC5BE]  (AR v2)
     Copy OK
All tracks accurately ripped
No errors occurred
End of status report
==== Log checksum F78A770AC44D43F4243914502F868A3615B573C108B6B957147B9D8BDC008AC5 ====


CD08

Exact Audio Copy V1.0 beta 3 from 29. August 2011
EAC extraction logfile from 3. April 2014, 5:23
Wolfgang Amadeus Mozart / The Complete Mozart Symphonies Disc 8
Used drive  : PLDS    DVD+-RW DS-8A5SH   Adapter: 0  ID: 0
Read mode               : Secure
Utilize accurate stream : Yes
Defeat audio cache      : Yes
Make use of C2 pointers : No
Read offset correction                      : 6
Overread into Lead-In and Lead-Out          : No
Fill up missing offset samples with silence : Yes
Delete leading and trailing silent blocks   : No
Null samples used in CRC calculations       : Yes
Used interface                              : Native Win32 interface for Win NT & 2000
Gap handling                                : Appended to previous track
Used output format              : User Defined Encoder
Selected bitrate                : 128 kBit/s
Quality                         : High
Add ID3 tag                     : No
Command line compressor         : C:\Program Files (x86)\Exact Audio Copy\FLAC\FLAC.EXE
Additional command line options : -8 -V -T "ARTIST=%artist%" -T "TITLE=%title%" -T "ALBUM=%albumtitle%" -T "DATE=%year%" -T "TRACKNUMBER=%tracknr%" -T "TOTALTRACKS=%numtracks%" -T "GENRE=%genre%" -T "ALBUMARTIST=%albumartist%" -T "ALBUM ARTIST=%albumartist%" -T "COMMENT=EAC Secure Mode, Test & Copy, AccurateRip, FLAC -8" %source%
TOC of the extracted CD
     Track |   Start  |  Length  | Start sector | End sector
    ---------------------------------------------------------
        1  |  0:00.32 |  9:59.00 |        32    |    44956
        2  |  9:59.32 | 11:22.00 |     44957    |    96106
        3  | 21:21.32 |  3:47.25 |     96107    |   113156
        4  | 25:08.57 |  6:39.50 |    113157    |   143131
        5  | 31:48.32 |  7:27.00 |    143132    |   176656
        6  | 39:15.32 |  8:30.00 |    176657    |   214906
        7  | 47:45.32 |  4:24.25 |    214907    |   234731
        8  | 52:09.57 |  5:28.50 |    234732    |   259381
        9  | 57:38.32 |  6:52.00 |    259382    |   290281
       10  | 64:30.32 |  4:26.00 |    290282    |   310231
       11  | 68:56.32 |  3:12.25 |    310232    |   324656
       12  | 72:08.57 |  8:11.50 |    324657    |   361531
Track  1
     Filename C:\Users\porcupine\Desktop\EAC\01 - Trevor Pinnock & Wolfgang Amadeus Mozart - Symphony No. 29, K.201 I. Allegro moderato.wav
     Pre-gap length  0:00:02.32
     Peak level 96.7 %
     Extraction speed 1.4 X
     Track quality 100.0 %
     Test CRC 6A0DA78E
     Copy CRC 6A0DA78E
     Accurately ripped (confidence 19)  [AB09585E]  (AR v2)
     Copy OK
Track  2
     Filename C:\Users\porcupine\Desktop\EAC\02 - Trevor Pinnock & Wolfgang Amadeus Mozart - Symphony No. 29, K.201 II. Andante.wav
     Peak level 53.7 %
     Extraction speed 1.7 X
     Track quality 100.0 %
     Test CRC 7D3DEB3E
     Copy CRC 7D3DEB3E
     Accurately ripped (confidence 18)  [C0D5EA36]  (AR v2)
     Copy OK
Track  3
     Filename C:\Users\porcupine\Desktop\EAC\03 - Trevor Pinnock & Wolfgang Amadeus Mozart - Symphony No. 29, K.201 III. Menuetto-Trio.wav
     Peak level 74.6 %
     Extraction speed 1.7 X
     Track quality 100.0 %
     Test CRC 67DCDD1F
     Copy CRC 67DCDD1F
     Accurately ripped (confidence 19)  [33D11CD2]  (AR v2)
     Copy OK
Track  4
     Filename C:\Users\porcupine\Desktop\EAC\04 - Trevor Pinnock & Wolfgang Amadeus Mozart - Symphony No. 29, K.201 IV. Allegro con spirito.wav
     Peak level 92.5 %
     Extraction speed 1.9 X
     Track quality 100.0 %
     Test CRC 8A2AF4C0
     Copy CRC 8A2AF4C0
     Accurately ripped (confidence 19)  [19B91EB1]  (AR v2)
     Copy OK
Track  5
     Filename C:\Users\porcupine\Desktop\EAC\05 - Trevor Pinnock & Wolfgang Amadeus Mozart - Symphony No. 28, K.200 I. Allegro spiritoso.wav
     Pre-gap length  0:00:09.00
     Peak level 99.9 %
     Extraction speed 2.1 X
     Track quality 100.0 %
     Test CRC 2182EDFC
     Copy CRC 2182EDFC
     Accurately ripped (confidence 19)  [9DC7D0DB]  (AR v2)
     Copy OK
Track  6
     Filename C:\Users\porcupine\Desktop\EAC\06 - Trevor Pinnock & Wolfgang Amadeus Mozart - Symphony No. 28, K.200 II. Andante.wav
     Peak level 47.5 %
     Extraction speed 2.3 X
     Track quality 100.0 %
     Test CRC E5CD127B
     Copy CRC E5CD127B
     Accurately ripped (confidence 18)  [4798F2EB]  (AR v2)
     Copy OK
Track  7
     Filename C:\Users\porcupine\Desktop\EAC\07 - Trevor Pinnock & Wolfgang Amadeus Mozart - Symphony No. 28, K.200 III. Menuetto- Allegro-Trio.wav
     Peak level 77.7 %
     Extraction speed 2.2 X
     Track quality 100.0 %
     Test CRC 59679681
     Copy CRC 59679681
     Accurately ripped (confidence 18)  [1695484E]  (AR v2)
     Copy OK
Track  8
     Filename C:\Users\porcupine\Desktop\EAC\08 - Trevor Pinnock & Wolfgang Amadeus Mozart - Symphony No. 28, K.200 IV. Presto.wav
     Peak level 92.2 %
     Extraction speed 2.1 X
     Track quality 99.9 %
     Test CRC 01C8A47A
     Copy CRC 01C8A47A
     Accurately ripped (confidence 18)  [135DAF33]  (AR v2)
     Copy OK
Track  9
     Filename C:\Users\porcupine\Desktop\EAC\09 - Trevor Pinnock & Wolfgang Amadeus Mozart - Symphony No. 33, K.319 I. Allegro assai.wav
     Pre-gap length  0:00:05.00
     Peak level 86.9 %
     Extraction speed 2.3 X
     Track quality 99.9 %
     Test CRC FE300C6D
     Copy CRC FE300C6D
     Accurately ripped (confidence 19)  [C3750577]  (AR v2)
     Copy OK
Track 10
     Filename C:\Users\porcupine\Desktop\EAC\10 - Trevor Pinnock & Wolfgang Amadeus Mozart - Symphony No. 33, K.319 II. Andante moderato.wav
     Peak level 68.5 %
     Extraction speed 2.5 X
     Track quality 100.0 %
     Test CRC A149C423
     Copy CRC A149C423
     Accurately ripped (confidence 19)  [51EE5EE9]  (AR v2)
     Copy OK
Track 11
     Filename C:\Users\porcupine\Desktop\EAC\11 - Trevor Pinnock & Wolfgang Amadeus Mozart - Symphony No. 33, K.319 III. Menuetto-Trio.wav
     Peak level 75.3 %
     Extraction speed 2.4 X
     Track quality 100.0 %
     Test CRC C82AA899
     Copy CRC C82AA899
     Accurately ripped (confidence 19)  [992FA789]  (AR v2)
     Copy OK
Track 12
     Filename C:\Users\porcupine\Desktop\EAC\12 - Trevor Pinnock & Wolfgang Amadeus Mozart - Symphony No. 33, K.319 IV. Allegro assai.wav
     Peak level 80.5 %
     Extraction speed 2.8 X
     Track quality 100.0 %
     Test CRC 211BF8C7
     Copy CRC 211BF8C7
     Accurately ripped (confidence 19)  [E6BD9F51]  (AR v2)
     Copy OK
All tracks accurately ripped
No errors occurred
End of status report
==== Log checksum 378DE8C2EB78E37553B4D4FB76DE032F8077170B7602E8DC296CEF7C4F30A7BA ====


CD09

Exact Audio Copy V1.0 beta 3 from 29. August 2011
EAC extraction logfile from 3. April 2014, 6:37
Wolfgang Amadeus Mozart / The Complete Mozart Symphonies Disc 9
Used drive  : PLDS    DVD+-RW DS-8A5SH   Adapter: 0  ID: 0
Read mode               : Secure
Utilize accurate stream : Yes
Defeat audio cache      : Yes
Make use of C2 pointers : No
Read offset correction                      : 6
Overread into Lead-In and Lead-Out          : No
Fill up missing offset samples with silence : Yes
Delete leading and trailing silent blocks   : No
Null samples used in CRC calculations       : Yes
Used interface                              : Native Win32 interface for Win NT & 2000
Gap handling                                : Appended to previous track
Used output format              : User Defined Encoder
Selected bitrate                : 128 kBit/s
Quality                         : High
Add ID3 tag                     : No
Command line compressor         : C:\Program Files (x86)\Exact Audio Copy\FLAC\FLAC.EXE
Additional command line options : -8 -V -T "ARTIST=%artist%" -T "TITLE=%title%" -T "ALBUM=%albumtitle%" -T "DATE=%year%" -T "TRACKNUMBER=%tracknr%" -T "TOTALTRACKS=%numtracks%" -T "GENRE=%genre%" -T "ALBUMARTIST=%albumartist%" -T "ALBUM ARTIST=%albumartist%" -T "COMMENT=EAC Secure Mode, Test & Copy, AccurateRip, FLAC -8" %source%
TOC of the extracted CD
     Track |   Start  |  Length  | Start sector | End sector
    ---------------------------------------------------------
        1  |  0:00.00 |  2:54.30 |         0    |    13079
        2  |  2:54.30 |  2:50.30 |     13080    |    25859
        3  |  5:44.60 |  1:55.15 |     25860    |    34499
        4  |  7:40.00 |  6:57.01 |     34500    |    65775
        5  | 14:37.01 |  7:08.00 |     65776    |    97875
        6  | 21:45.01 |  7:37.74 |     97876    |   132224
        7  | 29:23.00 |  5:46.01 |    132225    |   158175
        8  | 35:09.01 |  6:45.00 |    158176    |   188550
        9  | 41:54.01 |  3:28.25 |    188551    |   204175
       10  | 45:22.26 |  3:53.50 |    204176    |   221700
       11  | 49:16.01 | 11:04.00 |    221701    |   271500
       12  | 60:20.01 |  9:21.00 |    271501    |   313575
       13  | 69:41.01 |  3:56.00 |    313576    |   331275
       14  | 73:37.01 |  7:32.33 |    331276    |   365208
Track  1
     Filename C:\Users\porcupine\Desktop\EAC\01 - Trevor Pinnock & Wolfgang Amadeus Mozart - Symphony No. 32 in G major, K.318 I. Allegro spiritoso.wav
     Pre-gap length  0:00:02.00
     Peak level 80.9 %
     Extraction speed 2.8 X
     Track quality 100.0 %
     Test CRC AFB64B9D
     Copy CRC AFB64B9D
     Accurately ripped (confidence 2)  [5C0CDF46]  (AR v2)
     Copy OK
Track  2
     Filename C:\Users\porcupine\Desktop\EAC\02 - Trevor Pinnock & Wolfgang Amadeus Mozart - Symphony No. 32 in G major, K.318 II. Andante.wav
     Peak level 35.6 %
     Extraction speed 2.9 X
     Track quality 100.0 %
     Test CRC E05C49D0
     Copy CRC E05C49D0
     Accurately ripped (confidence 2)  [AF867A24]  (AR v2)
     Copy OK
Track  3
     Filename C:\Users\porcupine\Desktop\EAC\03 - Trevor Pinnock & Wolfgang Amadeus Mozart - Symphony No. 32 in G major, K.318 III. Tempo primo.wav
     Peak level 80.3 %
     Extraction speed 2.1 X
     Track quality 99.9 %
     Test CRC 6D86A64E
     Copy CRC 6D86A64E
     Accurately ripped (confidence 2)  [F4A753AA]  (AR v2)
     Copy OK
Track  4
     Filename C:\Users\porcupine\Desktop\EAC\04 - Trevor Pinnock & Wolfgang Amadeus Mozart - Symphony No. 34 in C major, K.338 I. Allegro vivace.wav
     Pre-gap length  0:00:04.74
     Peak level 93.5 %
     Extraction speed 3.3 X
     Track quality 99.9 %
     Test CRC 945433D2
     Copy CRC 945433D2
     Accurately ripped (confidence 2)  [BF516B58]  (AR v2)
     Copy OK
Track  5
     Filename C:\Users\porcupine\Desktop\EAC\05 - Trevor Pinnock & Wolfgang Amadeus Mozart - Symphony No. 34 in C major, K.338 II. Andante di molto pi tosto allegretto.wav
     Peak level 34.8 %
     Extraction speed 4.1 X
     Track quality 100.0 %
     Test CRC C8B2E897
     Copy CRC C8B2E897
     Accurately ripped (confidence 2)  [253E2A65]  (AR v2)
     Copy OK
Track  6
     Filename C:\Users\porcupine\Desktop\EAC\06 - Trevor Pinnock & Wolfgang Amadeus Mozart - Symphony No. 34 in C major, K.338 III. Allegro vivace.wav
     Peak level 90.2 %
     Extraction speed 4.5 X
     Track quality 100.0 %
     Test CRC 75004324
     Copy CRC 75004324
     Accurately ripped (confidence 2)  [3D349BA1]  (AR v2)
     Copy OK
Track  7
     Filename C:\Users\porcupine\Desktop\EAC\07 - Trevor Pinnock & Wolfgang Amadeus Mozart - Symphony No. 35 in D major, K.385 Haffne- I. Allegro con spirito.wav
     Pre-gap length  0:00:04.74
     Peak level 97.6 %
     Extraction speed 4.7 X
     Track quality 100.0 %
     Test CRC 8E5ECCC1
     Copy CRC 8E5ECCC1
     Accurately ripped (confidence 2)  [2F834A7C]  (AR v2)
     Copy OK
Track  8
     Filename C:\Users\porcupine\Desktop\EAC\08 - Trevor Pinnock & Wolfgang Amadeus Mozart - Symphony No. 35 in D major, K.385 Haffner II. Andante.wav
     Peak level 45.4 %
     Extraction speed 5.0 X
     Track quality 100.0 %
     Test CRC FC6C5BFF
     Copy CRC FC6C5BFF
     Accurately ripped (confidence 2)  [770FC517]  (AR v2)
     Copy OK
Track  9
     Filename C:\Users\porcupine\Desktop\EAC\09 - Trevor Pinnock & Wolfgang Amadeus Mozart - Symphony No. 35 in D major, K.385 Haffner III. Menuetto - Trio.wav
     Peak level 71.5 %
     Extraction speed 4.8 X
     Track quality 100.0 %
     Test CRC 363A6C68
     Copy CRC 363A6C68
     Accurately ripped (confidence 2)  [763AE953]  (AR v2)
     Copy OK
Track 10
     Filename C:\Users\porcupine\Desktop\EAC\10 - Trevor Pinnock & Wolfgang Amadeus Mozart - Symphony No. 35 in D major, K.385 Haffner IV. Presto.wav
     Peak level 96.5 %
     Extraction speed 5.0 X
     Track quality 100.0 %
     Test CRC 105C4204
     Copy CRC 105C4204
     Accurately ripped (confidence 2)  [43D1F6A3]  (AR v2)
     Copy OK
Track 11
     Filename C:\Users\porcupine\Desktop\EAC\11 - Trevor Pinnock & Wolfgang Amadeus Mozart - Symphony No. 36 in C major, K.425 Linz I. Adagio - Allegro spirito.wav
     Pre-gap length  0:00:08.00
     Peak level 99.0 %
     Extraction speed 5.5 X
     Track quality 99.9 %
     Test CRC 486A260F
     Copy CRC 486A260F
     Accurately ripped (confidence 2)  [1F264639]  (AR v2)
     Copy OK
Track 12
     Filename C:\Users\porcupine\Desktop\EAC\12 - Trevor Pinnock & Wolfgang Amadeus Mozart - Symphony No. 36 in C major, K.425 Linz II. Andante.wav
     Peak level 56.7 %
     Extraction speed 6.1 X
     Track quality 100.0 %
     Test CRC 254D705A
     Copy CRC 254D705A
     Accurately ripped (confidence 2)  [A766C28D]  (AR v2)
     Copy OK
Track 13
     Filename C:\Users\porcupine\Desktop\EAC\13 - Trevor Pinnock & Wolfgang Amadeus Mozart - Symphony No. 36 in C major, K.425 Linz III. Menuetto - Trio.wav
     Peak level 72.8 %
     Extraction speed 5.9 X
     Track quality 100.0 %
     Test CRC 1DC71322
     Copy CRC 1DC71322
     Accurately ripped (confidence 2)  [F22D7B9A]  (AR v2)
     Copy OK
Track 14
     Filename C:\Users\porcupine\Desktop\EAC\14 - Trevor Pinnock & Wolfgang Amadeus Mozart - Symphony No. 36 in C major, K.425 Linz IV. Presto.wav
     Peak level 99.1 %
     Extraction speed 6.6 X
     Track quality 100.0 %
     Test CRC 8A0917C7
     Copy CRC 8A0917C7
     Accurately ripped (confidence 2)  [F9CE7218]  (AR v2)
     Copy OK
All tracks accurately ripped
No errors occurred
End of status report
==== Log checksum D773B4E56487257E06C2A74E5A70BFF2F2BB069D409C3E095AC9FC46F79019F7 ====


CD10

Exact Audio Copy V1.0 beta 3 from 29. August 2011
EAC extraction logfile from 3. April 2014, 17:18
Wolfgang Amadeus Mozart / The Complete Mozart Symphonies Disc 10
Used drive  : PLDS    DVD+-RW DS-8A5SH   Adapter: 0  ID: 0
Read mode               : Secure
Utilize accurate stream : Yes
Defeat audio cache      : Yes
Make use of C2 pointers : No
Read offset correction                      : 6
Overread into Lead-In and Lead-Out          : No
Fill up missing offset samples with silence : Yes
Delete leading and trailing silent blocks   : No
Null samples used in CRC calculations       : Yes
Used interface                              : Native Win32 interface for Win NT & 2000
Gap handling                                : Appended to previous track
Used output format              : User Defined Encoder
Selected bitrate                : 128 kBit/s
Quality                         : High
Add ID3 tag                     : No
Command line compressor         : C:\Program Files (x86)\Exact Audio Copy\FLAC\FLAC.EXE
Additional command line options : -8 -V -T "ARTIST=%artist%" -T "TITLE=%title%" -T "ALBUM=%albumtitle%" -T "DATE=%year%" -T "TRACKNUMBER=%tracknr%" -T "TOTALTRACKS=%numtracks%" -T "GENRE=%genre%" -T "ALBUMARTIST=%albumartist%" -T "ALBUM ARTIST=%albumartist%" -T "COMMENT=EAC Secure Mode, Test & Copy, AccurateRip, FLAC -8" %source%
TOC of the extracted CD
     Track |   Start  |  Length  | Start sector | End sector
    ---------------------------------------------------------
        1  |  0:00.00 | 13:07.00 |         0    |    59024
        2  | 13:07.00 | 12:10.00 |     59025    |   113774
        3  | 25:17.00 |  7:36.00 |    113775    |   147974
        4  | 32:53.00 | 10:21.00 |    147975    |   194549
        5  | 43:14.00 |  8:25.38 |    194550    |   232462
        6  | 51:39.38 |  4:23.37 |    232463    |   252224
        7  | 56:03.00 |  7:26.00 |    252225    |   285674
Track  1
     Filename C:\Users\porcupine\Desktop\EAC\01 - Trevor Pinnock & Wolfgang Amadeus Mozart - Symphony No. 38 in D major, K. 504 Prague I. Adagio - Allegro.wav
     Pre-gap length  0:00:02.00
     Peak level 92.9 %
     Extraction speed 3.2 X
     Track quality 100.0 %
     Test CRC 1044904D
     Copy CRC 1044904D
     Accurately ripped (confidence 20)  [2BF29B3D]  (AR v2)
     Copy OK
Track  2
     Filename C:\Users\porcupine\Desktop\EAC\02 - Trevor Pinnock & Wolfgang Amadeus Mozart - Symphony No. 38 in D major, K. 504 Prague II. Andante.wav
     Peak level 69.4 %
     Extraction speed 4.1 X
     Track quality 100.0 %
     Test CRC 7B2AEBDF
     Copy CRC 7B2AEBDF
     Accurately ripped (confidence 20)  [8121F4DD]  (AR v2)
     Copy OK
Track  3
     Filename C:\Users\porcupine\Desktop\EAC\03 - Trevor Pinnock & Wolfgang Amadeus Mozart - Symphony No. 38 in D major, K. 504 Prague III. Presto.wav
     Peak level 97.6 %
     Extraction speed 4.5 X
     Track quality 100.0 %
     Test CRC AED46C8E
     Copy CRC AED46C8E
     Accurately ripped (confidence 20)  [AD35BDD7]  (AR v2)
     Copy OK
Track  4
     Filename C:\Users\porcupine\Desktop\EAC\04 - Trevor Pinnock & Wolfgang Amadeus Mozart - Symphony No. 39 in E flat major, K. 543 I. Adagio - Allegro.wav
     Pre-gap length  0:00:09.00
     Peak level 98.7 %
     Extraction speed 5.0 X
     Track quality 100.0 %
     Test CRC 042B154F
     Copy CRC 042B154F
     Accurately ripped (confidence 20)  [11764033]  (AR v2)
     Copy OK
Track  5
     Filename C:\Users\porcupine\Desktop\EAC\05 - Trevor Pinnock & Wolfgang Amadeus Mozart - Symphony No. 39 in E flat major, K. 543 II. Andante Con Moto.wav
     Peak level 76.2 %
     Extraction speed 5.3 X
     Track quality 100.0 %
     Test CRC 19DCD683
     Copy CRC 19DCD683
     Accurately ripped (confidence 20)  [BE0E1EF7]  (AR v2)
     Copy OK
Track  6
     Filename C:\Users\porcupine\Desktop\EAC\06 - Trevor Pinnock & Wolfgang Amadeus Mozart - Symphony No. 39 in E flat major, K. 543 III. Menuetto- Allegretto - Trio.wav
     Peak level 73.5 %
     Extraction speed 5.2 X
     Track quality 100.0 %
     Test CRC 2AEBFF67
     Copy CRC 2AEBFF67
     Accurately ripped (confidence 20)  [1746D731]  (AR v2)
     Copy OK
Track  7
     Filename C:\Users\porcupine\Desktop\EAC\07 - Trevor Pinnock & Wolfgang Amadeus Mozart - Symphony No. 39 in E flat major, K. 543 IV. Finale- Allegro.wav
     Peak level 99.3 %
     Extraction speed 5.7 X
     Track quality 100.0 %
     Test CRC 003B8DC1
     Copy CRC 003B8DC1
     Accurately ripped (confidence 19)  [3BDB3E23]  (AR v2)
     Copy OK
All tracks accurately ripped
No errors occurred
End of status report
==== Log checksum DEB11A600D524A0AD290F9F057BAF0B3FBAA03A38C8FD523BB53342BF7E547E2 ====


CD11

Exact Audio Copy V1.0 beta 3 from 29. August 2011
EAC extraction logfile from 3. April 2014, 19:08
Wolfgang Amadeus Mozart / Symphonies Nos. 40 & 41 [Pinnock]
Used drive  : PLDS    DVD+-RW DS-8A5SH   Adapter: 0  ID: 0
Read mode               : Secure
Utilize accurate stream : Yes
Defeat audio cache      : Yes
Make use of C2 pointers : No
Read offset correction                      : 6
Overread into Lead-In and Lead-Out          : No
Fill up missing offset samples with silence : Yes
Delete leading and trailing silent blocks   : No
Null samples used in CRC calculations       : Yes
Used interface                              : Native Win32 interface for Win NT & 2000
Gap handling                                : Appended to previous track
Used output format              : User Defined Encoder
Selected bitrate                : 128 kBit/s
Quality                         : High
Add ID3 tag                     : No
Command line compressor         : C:\Program Files (x86)\Exact Audio Copy\FLAC\FLAC.EXE
Additional command line options : -8 -V -T "ARTIST=%artist%" -T "TITLE=%title%" -T "ALBUM=%albumtitle%" -T "DATE=%year%" -T "TRACKNUMBER=%tracknr%" -T "TOTALTRACKS=%numtracks%" -T "GENRE=%genre%" -T "ALBUMARTIST=%albumartist%" -T "ALBUM ARTIST=%albumartist%" -T "COMMENT=EAC Secure Mode, Test & Copy, AccurateRip, FLAC -8" %source%
TOC of the extracted CD
     Track |   Start  |  Length  | Start sector | End sector
    ---------------------------------------------------------
        1  |  0:00.32 |  7:23.25 |        32    |    33281
        2  |  7:23.57 | 11:21.00 |     33282    |    84356
        3  | 18:44.57 |  4:48.00 |     84357    |   105956
        4  | 23:32.57 |  9:28.00 |    105957    |   148556
        5  | 33:00.57 | 11:16.00 |    148557    |   199256
        6  | 44:16.57 | 11:22.00 |    199257    |   250406
        7  | 55:38.57 |  5:27.00 |    250407    |   274931
        8  | 61:05.57 | 11:27.00 |    274932    |   326456
Track  1
     Filename C:\Users\porcupine\Desktop\EAC\01 - Trevor Pinnock & Wolfgang Amadeus Mozart - Symphony No. 40 in G minor, K.550 I. Molto Allegro.wav
     Pre-gap length  0:00:02.32
     Peak level 89.5 %
     Extraction speed 1.3 X
     Track quality 100.0 %
     Test CRC 6ABFD731
     Copy CRC 6ABFD731
     Accurately ripped (confidence 19)  [D31846EE]  (AR v2)
     Copy OK
Track  2
     Filename C:\Users\porcupine\Desktop\EAC\02 - Trevor Pinnock & Wolfgang Amadeus Mozart - Symphony No. 40 in G minor, K.550 II. Andante.wav
     Peak level 64.2 %
     Extraction speed 1.6 X
     Track quality 100.0 %
     Test CRC 6449E7E5
     Copy CRC 6449E7E5
     Accurately ripped (confidence 19)  [E7099C3C]  (AR v2)
     Copy OK
Track  3
     Filename C:\Users\porcupine\Desktop\EAC\03 - Trevor Pinnock & Wolfgang Amadeus Mozart - Symphony No. 40 in G minor, K.550 III. Menuetto Allegretto - Trio.wav
     Peak level 61.9 %
     Extraction speed 1.7 X
     Track quality 100.0 %
     Test CRC DDB0AC59
     Copy CRC DDB0AC59
     Accurately ripped (confidence 19)  [35EA6BC9]  (AR v2)
     Copy OK
Track  4
     Filename C:\Users\porcupine\Desktop\EAC\04 - Trevor Pinnock & Wolfgang Amadeus Mozart - Symphony No. 40 in G minor, K.550 IV. Allegro assai.wav
     Peak level 72.8 %
     Extraction speed 2.0 X
     Track quality 100.0 %
     Test CRC 97FA10BD
     Copy CRC 97FA10BD
     Accurately ripped (confidence 19)  [A0F7A04F]  (AR v2)
     Copy OK
Track  5
     Filename C:\Users\porcupine\Desktop\EAC\05 - Trevor Pinnock & Wolfgang Amadeus Mozart - Symphony No. 41 in C major, K.551 Jupiter I. Allegro vivace.wav
     Pre-gap length  0:00:09.00
     Peak level 99.6 %
     Extraction speed 2.2 X
     Track quality 100.0 %
     Test CRC 5661859F
     Copy CRC 5661859F
     Accurately ripped (confidence 19)  [167132E6]  (AR v2)
     Copy OK
Track  6
     Filename C:\Users\porcupine\Desktop\EAC\06 - Trevor Pinnock & Wolfgang Amadeus Mozart - Symphony No. 41 in C major, K.551 Jupiter II. Andante cantabile.wav
     Peak level 67.7 %
     Extraction speed 2.4 X
     Track quality 100.0 %
     Test CRC DA4AEA4A
     Copy CRC DA4AEA4A
     Accurately ripped (confidence 18)  [8272C774]  (AR v2)
     Copy OK
Track  7
     Filename C:\Users\porcupine\Desktop\EAC\07 - Trevor Pinnock & Wolfgang Amadeus Mozart - Symphony No. 41 in C major, K.551 Jupiter III. Menuetto Allegretto -Trio.wav
     Peak level 83.4 %
     Extraction speed 2.2 X
     Track quality 99.9 %
     Test CRC 1C6B65C9
     Copy CRC 1C6B65C9
     Accurately ripped (confidence 18)  [0072A463]  (AR v2)
     Copy OK
Track  8
     Filename C:\Users\porcupine\Desktop\EAC\08 - Trevor Pinnock & Wolfgang Amadeus Mozart - Symphony No. 41 in C major, K.551 Jupiter IV. Molto Allegro.wav
     Peak level 98.7 %
     Extraction speed 2.7 X
     Track quality 100.0 %
     Test CRC E3DE77DC
     Copy CRC E3DE77DC
     Accurately ripped (confidence 17)  [7788D7EC]  (AR v2)
     Copy OK
All tracks accurately ripped
No errors occurred
End of status report
==== Log checksum B261CE950B8E1C7867076FC84C7228509B0BB63F842F56412CBF262FEB06C9F1 ====


Доп. информация: Предлагаю на замену: https://rutracker.org/forum/https://rutracker.net/forum/viewtopic.php?t=1185163                                                                                       
                       
                       
                       
                       
                       
                                磁力下载(论坛代下载服务)::
                                                               
                                       
付费主题

已有0人支付


                                               
  • 3.88 GB
  • 温馨提示

    记得善用社区搜索功能,那里可能会有你想要的资源;论坛站内搜索

    如果你有什么需要的资源可以去资源求档发帖,求助社区的网友,我们会在第一时间给你回复哦;资源求档

    对于本社区网盘链接失效密码错误各种报错请在反馈板块反馈报错发帖,您的支持,是我们发展的最大动力;投诉建议

    回复

    使用道具 举报

    您需要登录后才可以回帖 登录 | 立即注册 微信登录

    本版积分规则

    关注0

    粉丝0

    帖子31315

    发布主题
    阅读排行更多+
    关闭

    站长推荐上一条 /1 下一条

    活动提示

    赞助永久VIP会员送3T硬盘一块 限时活动

    地址:立刻参加

    我知道了
    收藏帖子 返回列表 这是一个自定义按钮
    音乐分享,音乐下载。
    微信公众号
    微信号:hires_
    意见反馈:admin@maomicd.com

    加入我们的官方QQ群和微信群

    Powered by Discuz! X3.4 Archiver|手机版|小黑屋|捌零音乐论坛 ( 苏ICP备20015413号 )|( 苏公网安备 32030502000272号) 繁體

    GMT+8, 2021-9-24 04:34