[古典] (Classical) Vivaldi - Europa Galante, Fabio Biondi ‎- Le Quattro Stagioni - 1991, FLAC (image+.cue) lossless

[复制链接]
韬199435 发表于 2021-9-10 16:56:49 | 显示全部楼层 |阅读模式 打印 上一主题 下一主题
Vivaldi - Europa Galante, Fabio Biondi ‎- Le Quattro Stagioni
Жанр: Classical
Страна-производитель диска: France
Год издания диска: 1991
Издатель (лейбл): OPUS 111
Номер по каталогу: OPS 912
Дата записи: 1991
Аудиокодек: FLAC
Тип рипа: image+.cue
Битрейт аудио: lossless
Продолжительность: 49:46
Источник: собственный рип
Наличие сканов в содержимом раздачи: да
Треклист:
La Primavera - Concerto In Mi Maggiore - Op. 8 No. 1, RV 26
1 Allegro
2 Largo E Pianissimo
3 Danza Pastorale. Allegro
L'Estate - Concerto In Sol Minore - Op. 8 No. 2, RV 315
4 Allegro
5 Adagio
6 Tempo Impetuoso D'Estate
L'Autumno - Concerto In Fa Maggiore - Op. 8 No. 3, RV 293
7 Allegro
8 Adagio
9 La Caccia
L'Inverno - Concerto In Fa Maggiore - Op. 8 No. 4, RV 297
10 Allegro Non Molto
11 Largo
12 Allegro
Concerto In Do Maggiore, RV 171
13 Allegro
14 Largo
15 Allegro Non Molto
Concerto Per Archi, «Conco», RV 163, In Si Bemolle Maggiore
16 Allegro Molto Marcato
17 Andante
18 Allegro Molto
Исполнители:
Composed By – Antonio Vivaldi
Conductor – Fabio Biondi
Edited By – Christophe Fuchs
Executive Producer, Producer, Engineer – Yolanta Skura
Orchestra – Europa Galante
Лог создания рипа

Exact Audio Copy V1.3 from 2. September 2016
EAC extraction logfile from 30. March 2019, 21:30
Europa Galante, Fabio Biondi / Vivaldi - Le quattro stagioni
Used drive  : HL-DT-STDVDRAM GH24NSB0   Adapter: 1  ID: 0
Read mode               : Secure
Utilize accurate stream : Yes
Defeat audio cache      : Yes
Make use of C2 pointers : No
Read offset correction                      : 6
Overread into Lead-In and Lead-Out          : No
Fill up missing offset samples with silence : Yes
Delete leading and trailing silent blocks   : No
Null samples used in CRC calculations       : Yes
Used interface                              : Native Win32 interface for Win NT & 2000
Used output format              : User Defined Encoder
Selected bitrate                : 128 kBit/s
Quality                         : High
Add ID3 tag                     : No
Command line compressor         : C:\Program Files (x86)\Exact Audio Copy\FLAC\FLAC.EXE
Additional command line options : -6 -V -T "ARTIST=%artist%" -T "TITLE=%title%" -T "ALBUM=%albumtitle%" -T "DATE=%year%" -T "TRACKNUMBER=%tracknr%" -T "GENRE=%genre%" -T "COMMENT=%comment%" -T "BAND=%albuminterpret%" -T "ALBUMARTIST=%albuminterpret%" -T "COMPOSER=%composer%" %haslyrics%--tag-from-file=LYRICS="%lyricsfile%"%haslyrics% -T "DISCNUMBER=%cdnumber%" -T "TOTALDISCS=%totalcds%" -T "TOTALTRACKS=%numtracks%" %hascover%--picture="%coverfile%"%hascover% %source% -o %dest%
TOC of the extracted CD
     Track |   Start  |  Length  | Start sector | End sector
    ---------------------------------------------------------
        1  |  0:00.32 |  3:01.28 |        32    |    13634
        2  |  3:01.60 |  2:46.50 |     13635    |    26134
        3  |  5:48.35 |  3:48.52 |     26135    |    43286
        4  |  9:37.12 |  6:09.70 |     43287    |    71031
        5  | 15:47.07 |  2:25.73 |     71032    |    81979
        6  | 18:13.05 |  2:30.50 |     81980    |    93279
        7  | 20:43.55 |  4:57.15 |     93280    |   115569
        8  | 25:40.70 |  3:11.22 |    115570    |   129916
        9  | 28:52.17 |  3:06.33 |    129917    |   143899
       10  | 31:58.50 |  3:39.15 |    143900    |   160339
       11  | 35:37.65 |  2:19.72 |    160340    |   170836
       12  | 37:57.62 |  2:58.03 |    170837    |   184189
       13  | 40:55.65 |  3:50.52 |    184190    |   201491
       14  | 44:46.42 |  2:32.65 |    201492    |   212956
       15  | 47:19.32 |  3:26.38 |    212957    |   228444
       16  | 50:45.70 |  1:44.25 |    228445    |   236269
       17  | 52:30.20 |  0:48.17 |    236270    |   239886
       18  | 53:18.37 |  0:54.73 |    239887    |   244009
Range status and errors
Selected range
     Filename E:\rip35\Europa Galante, Fabio Biondi - Vivaldi - Le quattro stagioni.wav
     Peak level 100.0 %
     Extraction speed 1.6 X
     Range quality 100.0 %
     Test CRC 677424CF
     Copy CRC 677424CF
     Copy OK
No errors occurred
End of status report
---- CUETools DB Plugin V2.1.6
[CTDB TOCID: AaSAnDBL97XmSpTIb_msCUS9R8I-] found
Submit result: AaSAnDBL97XmSpTIb_msCUS9R8I- has been confirmed
Track | CTDB Status
  1   | (227/228) Accurately ripped
  2   | (227/228) Accurately ripped
  3   | (227/228) Accurately ripped
  4   | (226/228) Accurately ripped
  5   | (226/228) Accurately ripped
  6   | (227/228) Accurately ripped
  7   | (227/228) Accurately ripped
  8   | (226/228) Accurately ripped
  9   | (226/228) Accurately ripped
10   | (225/228) Accurately ripped
11   | (224/228) Accurately ripped
12   | (227/228) Accurately ripped
13   | (226/228) Accurately ripped
14   | (225/228) Accurately ripped
15   | (224/228) Accurately ripped
16   | (226/228) Accurately ripped
17   | (226/228) Accurately ripped
18   | (225/228) Accurately ripped
==== Log checksum C8F350B22F8F45D9F124DCC73AF1391D0A8444E7ABD1B2FBDA862FE8D68D2B5E ====


Содержание индексной карты (.CUE)

REM GENRE Classical
REM DATE 1991
REM DISCID FD0CB512
REM COMMENT "ExactAudioCopy v1.3"
PERFORMER "Europa Galante, Fabio Biondi"
TITLE "Vivaldi - Le quattro stagioni"
REM COMPOSER ""
FILE "Europa Galante, Fabio Biondi - Vivaldi - Le quattro stagioni.flac" WAVE
  TRACK 01 AUDIO
    TITLE "Concerto no. 1 in E major, op. 8, RV 269 'La primavera': I. Allegro"
    PERFORMER "Europa Galante, Fabio Biondi"
    REM COMPOSER "Antonio Vivaldi"
    INDEX 00 00:00:00
    INDEX 01 00:00:32
  TRACK 02 AUDIO
    TITLE "Concerto no. 1 in E major, op. 8, RV 269 'La primavera': II. Largo e pianissimo"
    PERFORMER "Europa Galante, Fabio Biondi"
    REM COMPOSER "Antonio Vivaldi"
    INDEX 01 03:01:60
  TRACK 03 AUDIO
    TITLE "Concerto no. 1 in E major, op. 8, RV 269 'La primavera': III. Danza pastorale..."
    PERFORMER "Europa Galante, Fabio Biondi"
    REM COMPOSER "Antonio Vivaldi"
    INDEX 01 05:48:35
  TRACK 04 AUDIO
    TITLE "Concerto no. 2 in G minor, op. 8, RV 315 'L'estate': I. Allegro"
    PERFORMER "Europa Galante, Fabio Biondi"
    REM COMPOSER "Antonio Vivaldi"
    INDEX 00 09:34:12
    INDEX 01 09:37:12
  TRACK 05 AUDIO
    TITLE "Concerto no. 2 in G minor, op. 8, RV 315 'L'estate': II. Adagio"
    PERFORMER "Europa Galante, Fabio Biondi"
    REM COMPOSER "Antonio Vivaldi"
    INDEX 01 15:47:07
  TRACK 06 AUDIO
    TITLE "Concerto no. 2 in G minor, op. 8, RV 315 'L'estate': III. Tempo impetuoso d'E..."
    PERFORMER "Europa Galante, Fabio Biondi"
    REM COMPOSER "Antonio Vivaldi"
    INDEX 01 18:13:05
  TRACK 07 AUDIO
    TITLE "Concerto no. 3 in F major, op. 8, RV 293 'L'autunno': I. Allegro"
    PERFORMER "Europa Galante, Fabio Biondi"
    REM COMPOSER "Antonio Vivaldi"
    INDEX 00 20:40:32
    INDEX 01 20:43:55
  TRACK 08 AUDIO
    TITLE "Concerto no. 3 in F major, op. 8, RV 293 'L'autunno': II. Largo"
    PERFORMER "Europa Galante, Fabio Biondi"
    REM COMPOSER "Antonio Vivaldi"
    INDEX 00 25:40:69
    INDEX 01 25:40:70
  TRACK 09 AUDIO
    TITLE "Concerto no. 3 in F major, op. 8, RV 293 'L'autunno': III. La caccia"
    PERFORMER "Europa Galante, Fabio Biondi"
    REM COMPOSER "Antonio Vivaldi"
    INDEX 01 28:52:17
  TRACK 10 AUDIO
    TITLE "Concerto no. 4 in F minor, op. 8, RV 297 'L'inverno': I. Allegro non molto"
    PERFORMER "Europa Galante, Fabio Biondi"
    REM COMPOSER "Antonio Vivaldi"
    INDEX 00 31:54:30
    INDEX 01 31:58:50
  TRACK 11 AUDIO
    TITLE "Concerto no. 4 in F minor, op. 8, RV 297 'L'inverno': II. Largo"
    PERFORMER "Europa Galante, Fabio Biondi"
    REM COMPOSER "Antonio Vivaldi"
    INDEX 01 35:37:65
  TRACK 12 AUDIO
    TITLE "Concerto no. 4 in F minor, op. 8, RV 297 'L'inverno': III. Allegro"
    PERFORMER "Europa Galante, Fabio Biondi"
    REM COMPOSER "Antonio Vivaldi"
    INDEX 01 37:57:62
  TRACK 13 AUDIO
    TITLE "Concerto in Do maggiore, RV 171: I. Allegro"
    PERFORMER "Europa Galante, Fabio Biondi"
    REM COMPOSER "Antonio Vivaldi"
    INDEX 00 40:47:10
    INDEX 01 40:55:65
  TRACK 14 AUDIO
    TITLE "Concerto in Do maggiore, RV 171: II. Largo"
    PERFORMER "Europa Galante, Fabio Biondi"
    REM COMPOSER "Antonio Vivaldi"
    INDEX 01 44:46:42
  TRACK 15 AUDIO
    TITLE "Concerto in Do maggiore, RV 171: III. Allegro non molto"
    PERFORMER "Europa Galante, Fabio Biondi"
    REM COMPOSER "Antonio Vivaldi"
    INDEX 01 47:19:32
  TRACK 16 AUDIO
    TITLE "Concerto per archi, RV 163 'Conca': I. Allegro molto marcato"
    PERFORMER "Europa Galante, Fabio Biondi"
    REM COMPOSER "Antonio Vivaldi"
    INDEX 00 50:41:35
    INDEX 01 50:45:70
  TRACK 17 AUDIO
    TITLE "Concerto per archi, RV 163 'Conca': II. Andante"
    PERFORMER "Europa Galante, Fabio Biondi"
    REM COMPOSER "Antonio Vivaldi"
    INDEX 00 52:30:19
    INDEX 01 52:30:20
  TRACK 18 AUDIO
    TITLE "Concerto per archi, RV 163 'Conca': III. Allegro molto"
    PERFORMER "Europa Galante, Fabio Biondi"
    REM COMPOSER "Antonio Vivaldi"
    INDEX 01 53:18:37


Лог проверки качества

Lossless Audio Checker 2.0.7 logfile from Monday 06 May 2019 01:23:48 PM
File:   ...\Vivaldi - Le Quattro Stagioni - Europa Galante, Fabio Biondi OPUS111 (1991)\Europa Galante, Fabio Biondi - Vivaldi - Le quattro stagioni.flac
Result: Clean


Скриншот спектра частот

                                                                                       
                       
                       
                       
                       
                       
                                磁力下载(论坛代下载服务)::
                                                               
                                       
付费主题

已有0人支付


                                               
  • 302.5 MB
  • 温馨提示

    记得善用社区搜索功能,那里可能会有你想要的资源;论坛站内搜索

    如果你有什么需要的资源可以去资源求档发帖,求助社区的网友,我们会在第一时间给你回复哦;资源求档

    对于本社区网盘链接失效密码错误各种报错请在反馈板块反馈报错发帖,您的支持,是我们发展的最大动力;投诉建议

    回复

    使用道具 举报

    您需要登录后才可以回帖 登录 | 立即注册 微信登录

    本版积分规则

    关注0

    粉丝0

    帖子31315

    发布主题
    阅读排行更多+
    关闭

    站长推荐上一条 /1 下一条

    活动提示

    赞助永久VIP会员送3T硬盘一块 限时活动

    地址:立刻参加

    我知道了
    收藏帖子 返回列表 这是一个自定义按钮
    音乐分享,音乐下载。
    微信公众号
    微信号:hires_
    意见反馈:admin@maomicd.com

    加入我们的官方QQ群和微信群

    Powered by Discuz! X3.4 Archiver|手机版|小黑屋|捌零音乐论坛 ( 苏ICP备20015413号 )|( 苏公网安备 32030502000272号) 繁體

    GMT+8, 2021-9-22 21:51