[古典] (Classical) С. Прокофьев - Летний день. Детская сюита для малого оркестра op.65b, Симфония №5 (Макр Эрмлер) - 1996, FLAC (image+.cue) lossless

[复制链接]
kayda 发表于 2021-9-10 16:56:49 | 显示全部楼层 |阅读模式 打印 上一主题 下一主题
С. Прокофьев. Летний день - Детская сюита для малого оркестра op.65b,Симфония №5
Жанр: Classical
Страна-производитель диска: Austria
Год издания диска: 1996
Издатель (лейбл): Russian Compact Disc
Номер по каталогу: RCD 16452
Дата записи: 1981, 1978
Аудиокодек: FLAC
Тип рипа: image+.cue
Битрейт аудио: lossless
Продолжительность: 57:17
Источник: собственный рип
Наличие сканов в содержимом раздачи: да
Треклист:
Летний день - Детская сюита для малого оркестра op.65b
1. Утро C-dur - 2:11
2. Пятнашки F-dur - 1:12
3. Вальс A-dur - 1:36
4. Раскаяние d-moll - 2:17
5. Марш C-dur - 1:10
6. Вечер F-dur - 2:52
7. Ходит месяц над лугами D-dur - 2:42
Симфония № 5 B-dur op.100
8. Andante - 12:55
9. Allegro marcato - 8:22
10. Adagio - 13:23
11. Allegro giocoso - 8:37
Исполнители:
Государственный академический симфонический оркестр СССР
Дирижер - Марк Эрмлер
Лог создания рипа

Exact Audio Copy V1.0 beta 3 from 29. August 2011
Отчёт EAC об извлечении, выполненном 23. октября 2013, 8:48
Государственный академический симфонический оркестр СССР / Сергей Прокофьев
Дисковод: Optiarc DVD RW AD-7280S   Adapter: 3  ID: 0
Режим чтения                 : Достоверность
Использование точного потока : Да
Отключение кэша аудио        : Да
Использование указателей C2  : Нет
Коррекция смещения при чтении                     : 48
Способность читать области Lead-in и Lead-out     : Нет
Заполнение пропущенных сэмплов тишиной            : Да
Удаление блоков с тишиной в начале и конце        : Нет
При вычислениях CRC использовались нулевые сэмплы : Да
Интерфейс                                         : Встроенный Win32-интерфейс для Win NT/2000
Выходной формат          : Пользовательский кодировщик
Выбранный битрейт        : 128 kBit/s
Качество                 : Высокий
Добавление ID3-тега      : Нет
Утилита сжатия           : C:\Program Files\EAC\FLAC\FLAC.EXE
Дополнительные параметры : -V -8 -T "Date=%year%" -T "Genre=%genre%" %source%
TOC извлечённого CD
     Трек |   Старт  | Длительность | Начальный сектор | Конечный сектор
    ---------------------------------------------------------------------
       1  |  0:00.30 |    2:11.32   |          30      |       9886
       2  |  2:11.62 |    1:11.67   |        9887      |      15278
       3  |  3:23.54 |    1:36.19   |       15279      |      22497
       4  |  4:59.73 |    2:16.63   |       22498      |      32760
       5  |  7:16.61 |    1:09.60   |       32761      |      37995
       6  |  8:26.46 |    2:52.09   |       37996      |      50904
       7  | 11:18.55 |    2:41.42   |       50905      |      63021
       8  | 14:00.22 |   12:54.68   |       63022      |     121139
       9  | 26:55.15 |    8:21.64   |      121140      |     158778
      10  | 35:17.04 |   13:23.09   |      158779      |     219012
      11  | 48:40.13 |    8:36.62   |      219013      |     257774
Характеристики диапазона извлечения и сообщения об ошибках
Выбранный диапазон
     Имя файла D:\Torrenz\Prokofiev\Summer Day\Prokofiev Summer Day.wav
     Пиковый уровень 100.0 %
     Скорость извлечения 4.1 X
     Качество диапазона 100.0 %
     CRC теста 937F3CF2
     CRC копии 937F3CF2
     Копирование... OK
Ошибок не произошло
AccurateRip: сводка
Трек  1  отсутствует в базе данных
Трек  2  отсутствует в базе данных
Трек  3  отсутствует в базе данных
Трек  4  отсутствует в базе данных
Трек  5  отсутствует в базе данных
Трек  6  отсутствует в базе данных
Трек  7  отсутствует в базе данных
Трек  8  отсутствует в базе данных
Трек  9  отсутствует в базе данных
Трек 10  отсутствует в базе данных
Трек 11  отсутствует в базе данных
Ни одного трека нет в базе AccurateRip
Конец отчёта
==== Контрольная сумма отчёта BA3084275DEFB32FBA270F434C348CBCE6E246FC2C51063B9F81DADD9DFAC8BA ====


Лог проверки качества




Скриншот спектра частот

                                                                                       
                       
                       
                       
                       
                       
                                磁力下载(论坛代下载服务)::
                                                               
                                       
付费主题

已有0人支付


                                               
  • 256.8 MB
  • 温馨提示

    记得善用社区搜索功能,那里可能会有你想要的资源;论坛站内搜索

    如果你有什么需要的资源可以去资源求档发帖,求助社区的网友,我们会在第一时间给你回复哦;资源求档

    对于本社区网盘链接失效密码错误各种报错请在反馈板块反馈报错发帖,您的支持,是我们发展的最大动力;投诉建议

    回复

    使用道具 举报

    您需要登录后才可以回帖 登录 | 立即注册 微信登录

    本版积分规则

    关注0

    粉丝2

    帖子31142

    发布主题
    阅读排行更多+
    关闭

    站长推荐上一条 /1 下一条

    活动提示

    赞助永久VIP会员送3T硬盘一块 限时活动

    地址:立刻参加

    我知道了
    收藏帖子 返回列表 这是一个自定义按钮
    音乐分享,音乐下载。
    微信公众号
    微信号:hires_
    意见反馈:admin@maomicd.com

    加入我们的官方QQ群和微信群

    Powered by Discuz! X3.4 Archiver|手机版|小黑屋|捌零音乐论坛 ( 苏ICP备20015413号 )|( 苏公网安备 32030502000272号) 繁體

    GMT+8, 2021-9-21 12:19