[古典] (Orchestral) Schnittke - Gogol Suite; Labyrinths/ Шнитке- Гоголь- Сюита ;Лабиринты - 1992, APE (image + .cue), lossless

[复制链接]
全球采集 发表于 2021-9-10 16:56:48 | 显示全部楼层 |阅读模式 打印 上一主题 下一主题
Schnittke - Gogol Suite; Labyrinths/Шнитке- Гоголь- Сюита ; ЛабиринтыСтрана: Австрия
Жанр: Orchestral
Год выпуска: 1992
Формат: APE (image + .cue)
Битрейт аудио: lossless
Продолжительность: 68.55
Трэклист:
Gogol Suite (1976) (Compiled by Gennady Rozhdestvensky) 1. I. Overture 1'18 2. II. Chichikovґs Childhood 2'25
3. III. The Portrait 7'12
4. IV. The Cloak 2'20
5. V. Ferdinand VIII 1'30
6. VI. The Bureaucrats 2'21
7. VII. The Ball 6'20
8. VIII. The Legazy 6'04
Labyrinths (1971) 9. I. Moderato - Allegretto - Meno mosso - Adagio 12'23
10. II. Moderato 3'31
11. III. Allegretto 2'03
12. IV. Agitato 3'56
13. V. Cadenza - Andante - Maestoso 15'56
Lev Markiz, recitativo
Anton Kontra, violin
Chamber Ensemble from Malmö Symphony Orchestra, ensemble
Malmö SymfoniOrkester, orchestra
Lev Markiz, conductor
скрытый текст
Exact Audio Copy V0.99 prebeta 4 from 23. January 2008
EAC Auslese-Logdatei vom 3. Mai 2008, 14:04
Alfred Schnittke / Gogol Suite & Labyrinths
Benutztes Laufwerk : HL-DT-STDVDRRW GCA-4164B Adapter: 2 ID: 0
Lesemodus : Sicher
Benutze Accurate Stream : Ja
Audio Puffer abgeschaltet : Ja
Benutze C2 Fehlerinformationen : Nein
Leseoffset Korrektur : 102
Ьberlesen in das Lead-In und Lead-Out : Ja
Fьlle fehlende Offsetsample mit Stille auf : Ja
Lцsche fьhrende und nachfolgende stille Blцcke : Nein
Null Samples gehen in CRC Berechnungen ein : Nein
Benutzte Schnittstelle : Natьrliche Win32 Schnittstelle fьr Win NT/2000/XP
Benutztes Ausgabeformat : Interne WAV Routinen
Sampleformat : 44.100 Hz; 16 Bit; Stereo
TOC der ausgelesenen CD
Track | Start | Lдnge | Startsektor | Endsektor
-------------------------------------------------------
1 | 0:00.00 | 1:20.55 | 0 | 6054
2 | 1:20.55 | 2:29.20 | 6055 | 17249
3 | 3:50.00 | 7:16.00 | 17250 | 49949
4 | 11:06.00 | 2:21.35 | 49950 | 60559
5 | 13:27.35 | 1:30.22 | 60560 | 67331
6 | 14:57.57 | 2:22.55 | 67332 | 78036
7 | 17:20.37 | 6:28.38 | 78037 | 107174
8 | 23:49.00 | 6:27.00 | 107175 | 136199
9 | 30:16.00 | 12:32.00 | 136200 | 192599
10 | 42:48.00 | 3:37.00 | 192600 | 208874
11 | 46:25.00 | 2:07.00 | 208875 | 218399
12 | 48:32.00 | 4:03.00 | 218400 | 236624
13 | 52:35.00 | 16:20.00 | 236625 | 310124
Bereichsstatus und Fehler
Gewдhlter Bereich
Dateiname C:\Documents and Settings\My Documents\a_f_e_d_es_c_h\Alfred Schnittke - Gogol Suite & Labyrinths.wav
Spitzenpegel 98.8 %
Bereichsqualitдt 100.0 %
Test CRC 1F22D4A7
Kopie CRC 1F22D4A7
Kopie OK
Keine Fehler aufgetreten
Ende des Statusreports
                                                                                       
                       
                       
                       
                       
                       
                                磁力下载(论坛代下载服务)::
                                                               
                                       
付费主题

已有0人支付


                                               
  • 290 MB
  • 温馨提示

    记得善用社区搜索功能,那里可能会有你想要的资源;论坛站内搜索

    如果你有什么需要的资源可以去资源求档发帖,求助社区的网友,我们会在第一时间给你回复哦;资源求档

    对于本社区网盘链接失效密码错误各种报错请在反馈板块反馈报错发帖,您的支持,是我们发展的最大动力;投诉建议

    回复

    使用道具 举报

    您需要登录后才可以回帖 登录 | 立即注册 微信登录

    本版积分规则

    关注0

    粉丝19

    帖子87653

    发布主题
    阅读排行更多+
    关闭

    站长推荐上一条 /1 下一条

    活动提示

    赞助永久VIP会员送3T硬盘一块 限时活动

    地址:立刻参加

    我知道了
    收藏帖子 返回列表 这是一个自定义按钮
    音乐分享,音乐下载。
    微信公众号
    微信号:hires_
    意见反馈:admin@maomicd.com

    加入我们的官方QQ群和微信群

    Powered by Discuz! X3.4 Archiver|手机版|小黑屋|捌零音乐论坛 ( 苏ICP备20015413号 )|( 苏公网安备 32030502000272号) 繁體

    GMT+8, 2021-9-21 12:21