[古典] (Classical ballet) Tchaikovsky - Swan Lake; The Sleeping Beauty; The Nutcracker / Чайковский - Лебединое озеро; Спящая красавица; Щелкунчик [7 CD's] Remastering (London Symphony Or

[复制链接]
韬199435 发表于 2021-9-10 16:56:48 | 显示全部楼层 |阅读模式 打印 上一主题 下一主题
Tchaikovsky - Swan Lake; Sleeping Beauty; Nutcracker
Жанр: Classical ballet
Страна-производитель диска: Manufactured and printed in the EU
Год издания диска: 2016
Издатель (лейбл): Warner Classics / Parlophone Records Limited
Номер по каталогу: 0190295974893
Дата записи: 1976, 1974, 1972
Аудиокодек: FLAC
Тип рипа: image+.cue
Битрейт аудио: lossless
Продолжительность: 81'47 + 74'55 + 67'37 + 44'50 + 48'16 + 44'21 + 41'59
Источник: релизер
сайт-источник/ник/другое: Makdeart
Наличие сканов в содержимом раздачи: да
New remastering 2011 (Swan Lake & The Nutcracker) & 2016 (The Sleeping Beauty)
CD1 + CD2 Лебединое озеро 81'47 + 74'55 (1976)
Swan Lake
London Symphony Orchestra
André Previn, conductor
Лог создания рипа

CD1

Exact Audio Copy V1.3 from 2. September 2016
EAC extraction logfile from 16. July 2017, 16:09
André Previn / Swan Lake - Complete Ballet, Op. 20 - Act I, II
Used drive  : LENOVO  USB_SATA_Burner4   Adapter: 1  ID: 0
Read mode               : Secure
Utilize accurate stream : Yes
Defeat audio cache      : Yes
Make use of C2 pointers : No
Read offset correction                      : 6
Overread into Lead-In and Lead-Out          : No
Fill up missing offset samples with silence : Yes
Delete leading and trailing silent blocks   : No
Null samples used in CRC calculations       : Yes
Used interface                              : Native Win32 interface for Win NT & 2000
Used output format              : User Defined Encoder
Selected bitrate                : 1024 kBit/s
Quality                         : High
Add ID3 tag                     : No
Command line compressor         : C:\Program Files (x86)\Exact Audio Copy\FLAC\FLAC.EXE
Additional command line options : -8 -V -T "TITLE=%title%" -T "ARTIST=%artist%" -T "ALBUMARTIST=%albumartist%" -T "ALBUM=%albumtitle%" -T "DATE=%year%" -T "TRACKNUMBER=%tracknr%" -T "TRACKTOTAL=%numtracks%" -T "GENRE=%genre%" -T "COMMENT=%comment%" -T "PERFORMER=%albuminterpret%" -T "COMPOSER=%composer%" %source% -o %dest%
TOC of the extracted CD
     Track |   Start  |  Length  | Start sector | End sector
    ---------------------------------------------------------
        1  |  0:00.32 |  2:48.59 |        32    |    12690
        2  |  2:49.16 |  2:58.62 |     12691    |    26102
        3  |  5:48.03 |  7:15.68 |     26103    |    58795
        4  | 13:03.71 |  3:43.61 |     58796    |    75581
        5  | 16:47.57 |  2:13.74 |     75582    |    85630
        6  | 19:01.56 |  2:27.40 |     85631    |    96695
        7  | 21:29.21 |  1:16.04 |     96696    |   102399
        8  | 22:45.25 |  1:09.37 |    102400    |   107611
        9  | 23:54.62 |  1:08.46 |    107612    |   112757
       10  | 25:03.33 |  1:45.42 |    112758    |   120674
       11  | 26:49.00 |  2:26.35 |    120675    |   131659
       12  | 29:15.35 |  5:43.07 |    131660    |   157391
       13  | 34:58.42 |  1:37.64 |    157392    |   164730
       14  | 36:36.31 |  1:56.61 |    164731    |   173491
       15  | 38:33.17 |  1:58.61 |    173492    |   182402
       16  | 40:32.03 |  0:44.13 |    182403    |   185715
       17  | 41:16.16 |  5:58.58 |    185716    |   212623
       18  | 47:14.74 |  2:37.42 |    212624    |   224440
       19  | 49:52.41 |  2:46.28 |    224441    |   236918
       20  | 52:38.69 |  4:59.02 |    236919    |   259345
       21  | 57:37.71 |  3:19.28 |    259346    |   274298
       22  | 60:57.24 |  2:25.49 |    274299    |   285222
       23  | 63:22.73 |  1:40.26 |    285223    |   292748
       24  | 65:03.24 |  1:47.55 |    292749    |   300828
       25  | 66:51.04 |  1:26.41 |    300829    |   307319
       26  | 68:17.45 |  7:18.18 |    307320    |   340187
       27  | 75:35.63 |  1:29.47 |    340188    |   346909
       28  | 77:05.35 |  1:42.35 |    346910    |   354594
       29  | 78:47.70 |  2:57.41 |    354595    |   367910
Range status and errors
Selected range
     Filename C:\EACRip\Tchaikovsky - Swan Lake. The Sleeping Beauty. The Nutcracker (LSO, Andre Previn) [7CD]\CD1 - Swan Lake - Act I, II\Swan Lake - Complete Ballet, Op. 20 - Act I, II - LSO, André Previn.wav
     Peak level 97.8 %
     Extraction speed 2.2 X
     Range quality 100.0 %
     Test CRC 21BD0E24
     Copy CRC 21BD0E24
     Copy OK
No errors occurred
AccurateRip summary
Track  1  accurately ripped (confidence 11)  [15E99376]  (AR v2)
Track  2  accurately ripped (confidence 11)  [FDB99E34]  (AR v2)
Track  3  accurately ripped (confidence 11)  [A78C24EB]  (AR v2)
Track  4  accurately ripped (confidence 11)  [8AC7DB6E]  (AR v2)
Track  5  accurately ripped (confidence 11)  [8E087E81]  (AR v2)
Track  6  accurately ripped (confidence 11)  [0798905E]  (AR v2)
Track  7  accurately ripped (confidence 11)  [BA2E7C0C]  (AR v2)
Track  8  accurately ripped (confidence 11)  [04CD70AA]  (AR v2)
Track  9  accurately ripped (confidence 11)  [B122652F]  (AR v2)
Track 10  accurately ripped (confidence 11)  [A2C04F39]  (AR v2)
Track 11  accurately ripped (confidence 11)  [C2358232]  (AR v2)
Track 12  accurately ripped (confidence 11)  [819344F5]  (AR v2)
Track 13  accurately ripped (confidence 11)  [91D92DE3]  (AR v2)
Track 14  accurately ripped (confidence 11)  [3DBB7F53]  (AR v2)
Track 15  accurately ripped (confidence 11)  [C6FC76C7]  (AR v2)
Track 16  accurately ripped (confidence 11)  [17ACA02A]  (AR v2)
Track 17  accurately ripped (confidence 11)  [17FCAEBA]  (AR v2)
Track 18  accurately ripped (confidence 11)  [92A155C3]  (AR v2)
Track 19  accurately ripped (confidence 11)  [20762D36]  (AR v2)
Track 20  accurately ripped (confidence 11)  [E08096B3]  (AR v2)
Track 21  accurately ripped (confidence 11)  [970D76D7]  (AR v2)
Track 22  accurately ripped (confidence 11)  [D270BE4D]  (AR v2)
Track 23  accurately ripped (confidence 11)  [7F23D782]  (AR v2)
Track 24  accurately ripped (confidence 11)  [0B44BFD9]  (AR v2)
Track 25  accurately ripped (confidence 11)  [56CEE8DF]  (AR v2)
Track 26  accurately ripped (confidence 11)  [022C2003]  (AR v2)
Track 27  accurately ripped (confidence 11)  [9220A3E0]  (AR v2)
Track 28  accurately ripped (confidence 11)  [44B5C175]  (AR v2)
Track 29  accurately ripped (confidence 11)  [223B364D]  (AR v2)
All tracks accurately ripped
End of status report
---- CUETools DB Plugin V2.1.6
[CTDB TOCID: jPovVp9td8O50IzSM3DKC3kiAXQ-] found
Submit result: jPovVp9td8O50IzSM3DKC3kiAXQ- has been confirmed
Track | CTDB Status
  1   | (25/25) Accurately ripped
  2   | (25/25) Accurately ripped
  3   | (25/25) Accurately ripped
  4   | (25/25) Accurately ripped
  5   | (25/25) Accurately ripped
  6   | (25/25) Accurately ripped
  7   | (25/25) Accurately ripped
  8   | (25/25) Accurately ripped
  9   | (25/25) Accurately ripped
10   | (25/25) Accurately ripped
11   | (25/25) Accurately ripped
12   | (25/25) Accurately ripped
13   | (25/25) Accurately ripped
14   | (25/25) Accurately ripped
15   | (25/25) Accurately ripped
16   | (25/25) Accurately ripped
17   | (25/25) Accurately ripped
18   | (25/25) Accurately ripped
19   | (25/25) Accurately ripped
20   | (25/25) Accurately ripped
21   | (25/25) Accurately ripped
22   | (25/25) Accurately ripped
23   | (25/25) Accurately ripped
24   | (25/25) Accurately ripped
25   | (25/25) Accurately ripped
26   | (25/25) Accurately ripped
27   | (25/25) Accurately ripped
28   | (25/25) Accurately ripped
29   | (25/25) Accurately ripped
==== Log checksum 8BD2CBDFAEEC59A6398FF62FB29DF6982FED44759E852AE4CA33441477E1C435 ====


CD2

Exact Audio Copy V1.3 from 2. September 2016
EAC extraction logfile from 16. July 2017, 17:27
André Previn / Swan Lake - Complete Ballet, Op. 20 - Act III, IV
Used drive  : LENOVO  USB_SATA_Burner4   Adapter: 1  ID: 0
Read mode               : Secure
Utilize accurate stream : Yes
Defeat audio cache      : Yes
Make use of C2 pointers : No
Read offset correction                      : 6
Overread into Lead-In and Lead-Out          : No
Fill up missing offset samples with silence : Yes
Delete leading and trailing silent blocks   : No
Null samples used in CRC calculations       : Yes
Used interface                              : Native Win32 interface for Win NT & 2000
Used output format              : User Defined Encoder
Selected bitrate                : 1024 kBit/s
Quality                         : High
Add ID3 tag                     : No
Command line compressor         : C:\Program Files (x86)\Exact Audio Copy\FLAC\FLAC.EXE
Additional command line options : -8 -V -T "TITLE=%title%" -T "ARTIST=%artist%" -T "ALBUMARTIST=%albumartist%" -T "ALBUM=%albumtitle%" -T "DATE=%year%" -T "TRACKNUMBER=%tracknr%" -T "TRACKTOTAL=%numtracks%" -T "GENRE=%genre%" -T "COMMENT=%comment%" -T "PERFORMER=%albuminterpret%" -T "COMPOSER=%composer%" %source% -o %dest%
TOC of the extracted CD
     Track |   Start  |  Length  | Start sector | End sector
    ---------------------------------------------------------
        1  |  0:00.00 |  2:32.35 |         0    |    11434
        2  |  2:32.35 |  2:43.06 |     11435    |    23665
        3  |  5:15.41 |  8:08.38 |     23666    |    60303
        4  | 13:24.04 |  1:37.60 |     60304    |    67638
        5  | 15:01.64 |  2:41.14 |     67639    |    79727
        6  | 17:43.03 |  1:37.70 |     79728    |    87072
        7  | 19:20.73 |  3:23.05 |     87073    |   102302
        8  | 22:44.03 |  1:06.48 |    102303    |   107300
        9  | 23:50.51 |  0:58.25 |    107301    |   111675
       10  | 24:49.01 |  1:24.35 |    111676    |   118010
       11  | 26:13.36 |  1:48.12 |    118011    |   126122
       12  | 28:01.48 |  4:03.55 |    126123    |   144402
       13  | 32:05.28 |  0:52.25 |    144403    |   148327
       14  | 32:57.53 |  0:59.71 |    148328    |   152823
       15  | 33:57.49 |  2:28.09 |    152824    |   163932
       16  | 36:25.58 |  2:54.38 |    163933    |   177020
       17  | 39:20.21 |  4:23.03 |    177021    |   196748
       18  | 43:43.24 |  2:29.71 |    196749    |   207994
       19  | 46:13.20 |  2:19.56 |    207995    |   218475
       20  | 48:33.01 |  4:10.03 |    218476    |   237228
       21  | 52:43.04 |  3:41.50 |    237229    |   253853
       22  | 56:24.54 |  1:51.04 |    253854    |   262182
       23  | 58:15.58 |  2:22.61 |    262183    |   272893
       24  | 60:38.44 |  4:23.71 |    272894    |   292689
       25  | 65:02.40 |  3:04.41 |    292690    |   306530
       26  | 68:07.06 |  6:46.62 |    306531    |   337042
Range status and errors
Selected range
     Filename C:\EACRip\Tchaikovsky - Swan Lake. The Sleeping Beauty. The Nutcracker (LSO, Andre Previn) [7CD]\CD2 - Swan Lake - Act III, IV\Swan Lake - Complete Ballet, Op. 20 - Act III, IV - LSO, André Previn.wav
     Peak level 97.9 %
     Extraction speed 2.0 X
     Range quality 100.0 %
     Test CRC 4759498D
     Copy CRC 4759498D
     Copy OK
No errors occurred
AccurateRip summary
Track  1  accurately ripped (confidence 11)  [E4C188B9]  (AR v2)
Track  2  accurately ripped (confidence 11)  [9619974D]  (AR v2)
Track  3  accurately ripped (confidence 11)  [9B4A65CB]  (AR v2)
Track  4  accurately ripped (confidence 11)  [5CC9C6EB]  (AR v2)
Track  5  accurately ripped (confidence 11)  [3D6AA9BE]  (AR v2)
Track  6  accurately ripped (confidence 11)  [B3576EE8]  (AR v2)
Track  7  accurately ripped (confidence 11)  [07B337D1]  (AR v2)
Track  8  accurately ripped (confidence 11)  [3A2C03BD]  (AR v2)
Track  9  accurately ripped (confidence 11)  [B2191DE6]  (AR v2)
Track 10  accurately ripped (confidence 11)  [56BDA0DF]  (AR v2)
Track 11  accurately ripped (confidence 11)  [5DACC8F5]  (AR v2)
Track 12  accurately ripped (confidence 11)  [BEE0D0AC]  (AR v2)
Track 13  accurately ripped (confidence 11)  [F88C4BAB]  (AR v2)
Track 14  accurately ripped (confidence 11)  [E3D451AB]  (AR v2)
Track 15  accurately ripped (confidence 11)  [8396ECFD]  (AR v2)
Track 16  accurately ripped (confidence 11)  [FB153090]  (AR v2)
Track 17  accurately ripped (confidence 11)  [8D22C929]  (AR v2)
Track 18  accurately ripped (confidence 11)  [E25242FA]  (AR v2)
Track 19  accurately ripped (confidence 11)  [1ED4A935]  (AR v2)
Track 20  accurately ripped (confidence 11)  [1F470677]  (AR v2)
Track 21  accurately ripped (confidence 11)  [D645E4E3]  (AR v2)
Track 22  accurately ripped (confidence 11)  [76A9B3DD]  (AR v2)
Track 23  accurately ripped (confidence 11)  [AF15A137]  (AR v2)
Track 24  accurately ripped (confidence 11)  [3E91EF3A]  (AR v2)
Track 25  accurately ripped (confidence 11)  [E74AA2C0]  (AR v2)
Track 26  accurately ripped (confidence 11)  [E4F4EDB9]  (AR v2)
All tracks accurately ripped
End of status report
---- CUETools DB Plugin V2.1.6
[CTDB TOCID: DC4gYJkJPo0qV8zt92wHIYMrTsQ-] found
Submit result: already submitted
Track | CTDB Status
  1   | (24/24) Accurately ripped
  2   | (24/24) Accurately ripped
  3   | (24/24) Accurately ripped
  4   | (24/24) Accurately ripped
  5   | (24/24) Accurately ripped
  6   | (24/24) Accurately ripped
  7   | (24/24) Accurately ripped
  8   | (24/24) Accurately ripped
  9   | (24/24) Accurately ripped
10   | (24/24) Accurately ripped
11   | (24/24) Accurately ripped
12   | (24/24) Accurately ripped
13   | (24/24) Accurately ripped
14   | (24/24) Accurately ripped
15   | (24/24) Accurately ripped
16   | (24/24) Accurately ripped
17   | (24/24) Accurately ripped
18   | (24/24) Accurately ripped
19   | (24/24) Accurately ripped
20   | (24/24) Accurately ripped
21   | (24/24) Accurately ripped
22   | (24/24) Accurately ripped
23   | (24/24) Accurately ripped
24   | (24/24) Accurately ripped
25   | (24/24) Accurately ripped
26   | (24/24) Accurately ripped
==== Log checksum 73BAB24FA8D5C6E5A98512CFF278CE374A90FFFA485BB59F110024A9E8E76C07 ====


Содержание индексной карты (.CUE)

CD1

REM GENRE Classical
REM DATE 1976
REM DISCID AE13291D
REM COMMENT "ExactAudioCopy v1.3"
PERFORMER "London Symphony Orchestra, André Previn"
TITLE "Swan Lake - Complete Ballet, Op. 20 - Act I, II"
REM COMPOSER "Pyotr Ilyich Tchaikovsky"
FILE "Swan Lake - Complete Ballet, Op. 20 - Act I, II - LSO, André Previn.flac" WAVE
  TRACK 01 AUDIO
    TITLE "Swan Lake - Complete Ballet. Op.20 Act 1 Introduction (Moderato assai)"
    PERFORMER "London Symphony Orchestra, André Previn"
    REM COMPOSER "Pyotr Ilyich Tchaikovsky"
    INDEX 00 00:00:00
    INDEX 01 00:00:32
  TRACK 02 AUDIO
    TITLE "Swan Lake - Complete Ballet. Op.20 Act 1 No.1: Scene (Allegro giusto)"
    PERFORMER "London Symphony Orchestra, André Previn"
    REM COMPOSER "Pyotr Ilyich Tchaikovsky"
    INDEX 01 02:49:16
  TRACK 03 AUDIO
    TITLE "Swan Lake - Complete Ballet. Op.20 Act 1 No.2: Waltz (Tempo di valse)"
    PERFORMER "London Symphony Orchestra, André Previn"
    REM COMPOSER "Pyotr Ilyich Tchaikovsky"
    INDEX 01 05:48:03
  TRACK 04 AUDIO
    TITLE "Swan Lake - Complete Ballet. Op.20 Act 1 No.3: Scene (Allegro moderato)"
    PERFORMER "London Symphony Orchestra, André Previn"
    REM COMPOSER "Pyotr Ilyich Tchaikovsky"
    INDEX 01 13:03:71
  TRACK 05 AUDIO
    TITLE "Swan Lake - Complete Ballet. Op.20 Act 1 No.4: Pas de trois I. Intrada (Allegro)"
    PERFORMER "London Symphony Orchestra, André Previn"
    REM COMPOSER "Pyotr Ilyich Tchaikovsky"
    INDEX 01 16:47:57
  TRACK 06 AUDIO
    TITLE "Swan Lake - Complete Ballet. Op.20 Act 1 No.4: Pas de trois II. Adagio (Andante sostenuto)"
    PERFORMER "London Symphony Orchestra, André Previn"
    REM COMPOSER "Pyotr Ilyich Tchaikovsky"
    INDEX 01 19:01:56
  TRACK 07 AUDIO
    TITLE "Swan Lake - Complete Ballet. Op.20 Act 1 No.4: Pas de trois 3. Allegro semplice - Presto"
    PERFORMER "London Symphony Orchestra, André Previn"
    REM COMPOSER "Pyotr Ilyich Tchaikovsky"
    INDEX 01 21:29:21
  TRACK 08 AUDIO
    TITLE "Swan Lake - Complete Ballet. Op.20 Act 1 No.4: Pas de trois 4. Moderato"
    PERFORMER "London Symphony Orchestra, André Previn"
    REM COMPOSER "Pyotr Ilyich Tchaikovsky"
    INDEX 01 22:45:25
  TRACK 09 AUDIO
    TITLE "Swan Lake - Complete Ballet. Op.20 Act 1 No.4: Pas de trois 5. Allegro"
    PERFORMER "London Symphony Orchestra, André Previn"
    REM COMPOSER "Pyotr Ilyich Tchaikovsky"
    INDEX 01 23:54:62
  TRACK 10 AUDIO
    TITLE "Swan Lake - Complete Ballet. Op.20 Act 1 No.4: Pas de trois 6. Coda (Allegro vivace)"
    PERFORMER "London Symphony Orchestra, André Previn"
    REM COMPOSER "Pyotr Ilyich Tchaikovsky"
    INDEX 01 25:03:33
  TRACK 11 AUDIO
    TITLE "Swan Lake - Complete Ballet. Op.20 Act 1 No.5: Pas de deux I. Tempo di valse"
    PERFORMER "London Symphony Orchestra, André Previn"
    REM COMPOSER "Pyotr Ilyich Tchaikovsky"
    INDEX 01 26:49:00
  TRACK 12 AUDIO
    TITLE "Swan Lake - Complete Ballet. Op.20 Act 1 No.5: Pas de deux II. Andante - Allegro - Molto più mosso"
    PERFORMER "London Symphony Orchestra, André Previn"
    REM COMPOSER "Pyotr Ilyich Tchaikovsky"
    INDEX 01 29:15:35
  TRACK 13 AUDIO
    TITLE "Swan Lake - Complete Ballet. Op.20 Act 1 No.5: Pas de deux III. Tempo di valse"
    PERFORMER "London Symphony Orchestra, André Previn"
    REM COMPOSER "Pyotr Ilyich Tchaikovsky"
    INDEX 01 34:58:42
  TRACK 14 AUDIO
    TITLE "Swan Lake - Complete Ballet. Op.20 Act 1 No.5: Pas de deux IV. coda (Allegro molto vivace)"
    PERFORMER "London Symphony Orchestra, André Previn"
    REM COMPOSER "Pyotr Ilyich Tchaikovsky"
    INDEX 01 36:36:31
  TRACK 15 AUDIO
    TITLE "Swan Lake - Complete Ballet. Op.20 Act 1 No.6: Pas d`action (Andantino quasi moderato - Allegro)"
    PERFORMER "London Symphony Orchestra, André Previn"
    REM COMPOSER "Pyotr Ilyich Tchaikovsky"
    INDEX 01 38:33:17
  TRACK 16 AUDIO
    TITLE "Swan Lake - Complete Ballet. Op.20 Act 1 No.7: Subject"
    PERFORMER "London Symphony Orchestra, André Previn"
    REM COMPOSER "Pyotr Ilyich Tchaikovsky"
    INDEX 01 40:32:03
  TRACK 17 AUDIO
    TITLE "Swan Lake - Complete Ballet. Op.20 Act 1 No.8: Dance with Goblets (Tempo di polacca)"
    PERFORMER "London Symphony Orchestra, André Previn"
    REM COMPOSER "Pyotr Ilyich Tchaikovsky"
    INDEX 01 41:16:16
  TRACK 18 AUDIO
    TITLE "Swan Lake - Complete Ballet. Op.20 Act 1 No.9: Finale (Andante)"
    PERFORMER "London Symphony Orchestra, André Previn"
    REM COMPOSER "Pyotr Ilyich Tchaikovsky"
    INDEX 01 47:14:74
  TRACK 19 AUDIO
    TITLE "Swan Lake - Complete Ballet. Op.20 Act 2 No.10: Scene (Moderato)"
    PERFORMER "London Symphony Orchestra, André Previn"
    REM COMPOSER "Pyotr Ilyich Tchaikovsky"
    INDEX 01 49:52:41
  TRACK 20 AUDIO
    TITLE "Swan Lake - Complete Ballet. Op.20 Act 2 No.11: Scene (Allegro Moderato - Allegro vivo"
    PERFORMER "London Symphony Orchestra, André Previn"
    REM COMPOSER "Pyotr Ilyich Tchaikovsky"
    INDEX 01 52:38:69
  TRACK 21 AUDIO
    TITLE "Swan Lake - Complete Ballet. Op.20 Act 2 No.12: Scene (Allegro)"
    PERFORMER "London Symphony Orchestra, André Previn"
    REM COMPOSER "Pyotr Ilyich Tchaikovsky"
    INDEX 01 57:37:71
  TRACK 22 AUDIO
    TITLE "Swan Lake - Complete Ballet. Op.20 Act 2 No.13: Dances of the Swans I.Tempo di valse"
    PERFORMER "London Symphony Orchestra, André Previn"
    REM COMPOSER "Pyotr Ilyich Tchaikovsky"
    INDEX 01 60:57:24
  TRACK 23 AUDIO
    TITLE "Swan Lake - Complete Ballet. Op.20 Act 2 No.13: Dances of the Swans II. Moderato assai - Molto più mosso"
    PERFORMER "London Symphony Orchestra, André Previn"
    REM COMPOSER "Pyotr Ilyich Tchaikovsky"
    INDEX 01 63:22:73
  TRACK 24 AUDIO
    TITLE "Swan Lake - Complete Ballet. Op.20 Act 2 No.13: Dances of the Swans III. Tempo di valse"
    PERFORMER "London Symphony Orchestra, André Previn"
    REM COMPOSER "Pyotr Ilyich Tchaikovsky"
    INDEX 01 65:03:24
  TRACK 25 AUDIO
    TITLE "Swan Lake - Complete Ballet. Op.20 Act 2 No.13: Dances of the Swans IV. Dance of the Little Swans (Allegro moderato)"
    PERFORMER "London Symphony Orchestra, André Previn"
    REM COMPOSER "Pyotr Ilyich Tchaikovsky"
    INDEX 01 66:51:04
  TRACK 26 AUDIO
    TITLE "Swan Lake - Complete Ballet. Op.20 Act 2 No.13: Dances of the Swans V. Antante - Andante non troppo - Allegro"
    PERFORMER "London Symphony Orchestra, André Previn"
    REM COMPOSER "Pyotr Ilyich Tchaikovsky"
    INDEX 01 68:17:45
  TRACK 27 AUDIO
    TITLE "Swan Lake - Complete Ballet. Op.20 Act 2 No.13: Dances of the Swans VI.Tempo di valse"
    PERFORMER "London Symphony Orchestra, André Previn"
    REM COMPOSER "Pyotr Ilyich Tchaikovsky"
    INDEX 01 75:35:63
  TRACK 28 AUDIO
    TITLE "Swan Lake - Complete Ballet. Op.20 Act 2 No.13: Dances of the Swans VII. Coda (Allegro vivace)"
    PERFORMER "London Symphony Orchestra, André Previn"
    REM COMPOSER "Pyotr Ilyich Tchaikovsky"
    INDEX 01 77:05:35
  TRACK 29 AUDIO
    TITLE "Swan Lake - Complete Ballet. Op.20 Act 2 No.14: Scene (Moderato)"
    PERFORMER "London Symphony Orchestra, André Previn"
    REM COMPOSER "Pyotr Ilyich Tchaikovsky"
    INDEX 01 78:47:70


CD2

REM DATE 1976
REM DISCID 90118D1A
REM COMMENT "ExactAudioCopy v1.3"
PERFORMER "London Symphony Orchestra, André Previn"
TITLE "Swan Lake - Complete Ballet, Op. 20 - Act III, IV"
REM COMPOSER "Pyotr Ilyich Tchaikovsky"
FILE "Swan Lake - Complete Ballet, Op. 20 - Act III, IV - LSO, André Previn.flac" WAVE
  TRACK 01 AUDIO
    TITLE "Swan Lake: Act Three. No. 15. Scene (Allegro giusto)"
    PERFORMER "London Symphony Orchestra, André Previn"
    REM COMPOSER "Pyotr Ilyich Tchaikovsky"
    INDEX 01 00:00:00
  TRACK 02 AUDIO
    TITLE "Swan Lake: Act Three. No. 16. Danse of the Guests and the Dwarfs (Moderato assai - Allegro vivo)"
    PERFORMER "London Symphony Orchestra, André Previn"
    REM COMPOSER "Pyotr Ilyich Tchaikovsky"
    INDEX 01 02:32:35
  TRACK 03 AUDIO
    TITLE "Swan Lake: Act Three. No. 17. Scene. Entrance and Waltz of the Special Guests (Allegro - Tempo di valse)"
    PERFORMER "London Symphony Orchestra, André Previn"
    REM COMPOSER "Pyotr Ilyich Tchaikovsky"
    INDEX 00 05:15:39
    INDEX 01 05:15:41
  TRACK 04 AUDIO
    TITLE "Swan Lake: Act Three. No. 18. Scene (Allegro - Allegro giusto)"
    PERFORMER "London Symphony Orchestra, André Previn"
    REM COMPOSER "Pyotr Ilyich Tchaikovsky"
    INDEX 01 13:24:04
  TRACK 05 AUDIO
    TITLE "Swan Lake: Act Three. No. 19. Pas de six: Intrada"
    PERFORMER "London Symphony Orchestra, André Previn"
    REM COMPOSER "Pyotr Ilyich Tchaikovsky"
    INDEX 01 15:01:64
  TRACK 06 AUDIO
    TITLE "Swan Lake: Act Three. No. 19. Pas de six: Variation I (Allegro)"
    PERFORMER "London Symphony Orchestra, André Previn"
    REM COMPOSER "Pyotr Ilyich Tchaikovsky"
    INDEX 01 17:43:03
  TRACK 07 AUDIO
    TITLE "Swan Lake: Act Three. No. 19. Pas de six: Variation II (Andante con moto)"
    PERFORMER "London Symphony Orchestra, André Previn"
    REM COMPOSER "Pyotr Ilyich Tchaikovsky"
    INDEX 01 19:20:73
  TRACK 08 AUDIO
    TITLE "Swan Lake: Act Three. No. 19. Pas de six: Variation III (Moderato)"
    PERFORMER "London Symphony Orchestra, André Previn"
    REM COMPOSER "Pyotr Ilyich Tchaikovsky"
    INDEX 01 22:44:03
  TRACK 09 AUDIO
    TITLE "Swan Lake: Act Three. No. 19. Pas de six: Variation IV (Allegro)"
    PERFORMER "London Symphony Orchestra, André Previn"
    REM COMPOSER "Pyotr Ilyich Tchaikovsky"
    INDEX 01 23:50:51
  TRACK 10 AUDIO
    TITLE "Swan Lake: Act Three. No. 19. Pas de six: Variation V (Moderato - Allegro semplice)"
    PERFORMER "London Symphony Orchestra, André Previn"
    REM COMPOSER "Pyotr Ilyich Tchaikovsky"
    INDEX 01 24:49:01
  TRACK 11 AUDIO
    TITLE "Swan Lake: Act Three. No. 19. Pas de six: Coda (Allegro molto)"
    PERFORMER "London Symphony Orchestra, André Previn"
    REM COMPOSER "Pyotr Ilyich Tchaikovsky"
    INDEX 01 26:13:36
  TRACK 12 AUDIO
    TITLE "Swan Lake: Act Three. Pas de deux (additional number): Introduction (Moderato - Andante)"
    PERFORMER "London Symphony Orchestra, André Previn"
    REM COMPOSER "Pyotr Ilyich Tchaikovsky"
    INDEX 01 28:01:48
  TRACK 13 AUDIO
    TITLE "Swan Lake: Act Three. Pas de deux (additional number): Variation I (Allegro moderato)"
    PERFORMER "London Symphony Orchestra, André Previn"
    REM COMPOSER "Pyotr Ilyich Tchaikovsky"
    INDEX 01 32:05:28
  TRACK 14 AUDIO
    TITLE "Swan Lake: Act Three. Pas de deux (additional number): Variation II (Allegro)"
    PERFORMER "London Symphony Orchestra, André Previn"
    REM COMPOSER "Pyotr Ilyich Tchaikovsky"
    INDEX 01 32:57:53
  TRACK 15 AUDIO
    TITLE "Swan Lake: Act Three. Pas de deux (additional number): Coda (Allegro molto vivace)"
    PERFORMER "London Symphony Orchestra, André Previn"
    REM COMPOSER "Pyotr Ilyich Tchaikovsky"
    INDEX 01 33:57:49
  TRACK 16 AUDIO
    TITLE "Swan Lake: Act Three. No. 20. Hungarian Dance: Czárdás (Moderato assai - Allegro moderate - Vivace)"
    PERFORMER "London Symphony Orchestra, André Previn"
    REM COMPOSER "Pyotr Ilyich Tchaikovsky"
    INDEX 01 36:25:58
  TRACK 17 AUDIO
    TITLE "Swan Lake: Act Three. Russian Dance (Cadenza - Andante semplice - Allegro vivo) (additional number)"
    PERFORMER "London Symphony Orchestra, André Previn"
    REM COMPOSER "Pyotr Ilyich Tchaikovsky"
    INDEX 01 39:20:21
  TRACK 18 AUDIO
    TITLE "Swan Lake: Act Three. No. 21. Spanish Dance (Allegro non troppo: tempo di Bolero)"
    PERFORMER "London Symphony Orchestra, André Previn"
    REM COMPOSER "Pyotr Ilyich Tchaikovsky"
    INDEX 01 43:43:24
  TRACK 19 AUDIO
    TITLE "Swan Lake: Act Three. No. 22. Neopolitan Dance (Allegro moderato - Andantino quasi moderato)"
    PERFORMER "London Symphony Orchestra, André Previn"
    REM COMPOSER "Pyotr Ilyich Tchaikovsky"
    INDEX 01 46:13:20
  TRACK 20 AUDIO
    TITLE "Swan Lake: Act Three. No. 23. Mazurka"
    PERFORMER "London Symphony Orchestra, André Previn"
    REM COMPOSER "Pyotr Ilyich Tchaikovsky"
    INDEX 01 48:33:01
  TRACK 21 AUDIO
    TITLE "Swan Lake: Act Three. No. 24. Scene (Allegro - Valse - Allegro vivo)"
    PERFORMER "London Symphony Orchestra, André Previn"
    REM COMPOSER "Pyotr Ilyich Tchaikovsky"
    INDEX 01 52:43:04
  TRACK 22 AUDIO
    TITLE "Swan Lake: Act Four. No. 25. Entr'acte (Moderato)"
    PERFORMER "London Symphony Orchestra, André Previn"
    REM COMPOSER "Pyotr Ilyich Tchaikovsky"
    INDEX 00 56:18:64
    INDEX 01 56:24:54
  TRACK 23 AUDIO
    TITLE "Swan Lake: Act Four. No. 26. Scene (Allegro non troppo)"
    PERFORMER "London Symphony Orchestra, André Previn"
    REM COMPOSER "Pyotr Ilyich Tchaikovsky"
    INDEX 01 58:15:58
  TRACK 24 AUDIO
    TITLE "Swan Lake: Act Four. No. 27. Dance of the Little Swans (Moderato)"
    PERFORMER "London Symphony Orchestra, André Previn"
    REM COMPOSER "Pyotr Ilyich Tchaikovsky"
    INDEX 01 60:38:44
  TRACK 25 AUDIO
    TITLE "Swan Lake: Act Four. No. 28. Scene (Allegro agitato - Allegro vivace)"
    PERFORMER "London Symphony Orchestra, André Previn"
    REM COMPOSER "Pyotr Ilyich Tchaikovsky"
    INDEX 01 65:02:40
  TRACK 26 AUDIO
    TITLE "Swan Lake: Act Four. No. 29. Finale (Andante - Allegro agitato - Alla breve - Moderato e maestoso)"
    PERFORMER "London Symphony Orchestra, André Previn"
    REM COMPOSER "Pyotr Ilyich Tchaikovsky"
    INDEX 01 68:07:06


Треклист

CD1

01 Act 1 Introduction (Moderato assai)
02 No.1: Scene (Allegro giusto)
03 No.2: Waltz (Tempo di valse)
04 No.3: Scene (Allegro moderato)
05 No.4: Pas de trois I. Intrada (Allegro)
06 No.4: Pas de trois II. Adagio (Andante sostenuto)
07 No.4: Pas de trois 3. Allegro semplice - Presto
08 No.4: Pas de trois 4. Moderato
09 No.4: Pas de trois 5. Allegro
10 No.4: Pas de trois 6. Coda (Allegro vivace)
11 No.5: Pas de deux I. Tempo di valse
12 No.5: Pas de deux II. Andante - Allegro - Molto più mosso
13 No.5: Pas de deux III. Tempo di valse
14 No.5: Pas de deux IV. coda (Allegro molto vivace)
15 No.6: Pas d`action (Andantino quasi moderato - Allegro)
16 No.7: Subject
17 No.8: Dance with Goblets (Tempo di polacca)
18 No.9: Finale (Andante)
19 Act 2 No.10: Scene (Moderato)
20 No.11: Scene (Allegro Moderato - Allegro vivo
21 No.12: Scene (Allegro)
22 No.13: Dances of the Swans I.Tempo di valse
23 No.13: Dances of the Swans II. Moderato assai - Molto più mosso
24 No.13: Dances of the Swans III. Tempo di valse
26 No.13: Dances of the Swans IV. Dance of the Little Swans (Allegro moderato)
27 No.13: Dances of the Swans V. Antante - Andante non troppo - Allegro
28 No.13: Dances of the Swans VI.Tempo di valse
29 No.13: Dances of the Swans VII. Coda (Allegro vivace)
30 No.14: Scene (Moderato)


CD2

01 Act Three. No. 15. Scene (Allegro giusto)
02 No. 16. Danse of the Guests and the Dwarfs (Moderato assai - Allegro vivo)
03 No. 17. Scene. Entrance and Waltz of the Special Guests (Allegro - Tempo di valse)
04 No. 18. Scene (Allegro - Allegro giusto)
05 No. 19. Pas de six: Intrada
06 No. 19. Pas de six: Variation I (Allegro)
07 No. 19. Pas de six: Variation II (Andante con moto)
08 No. 19. Pas de six: Variation III (Moderato)
09 No. 19. Pas de six: Variation IV (Allegro)
10 No. 19. Pas de six: Variation V (Moderato - Allegro semplice)
11 No. 19. Pas de six: Coda (Allegro molto)
12 Pas de deux (additional number): Introduction (Moderato - Andante)
13 Pas de deux (additional number): Variation I (Allegro moderato)
14 Pas de deux (additional number): Variation II (Allegro)
15 Pas de deux (additional number): Coda (Allegro molto vivace)
16 No. 20. Hungarian Dance: Czárdás (Moderato assai - Allegro moderate - Vivace)
17 Russian Dance (Cadenza - Andante semplice - Allegro vivo) (additional number)
18 No. 21. Spanish Dance (Allegro non troppo: tempo di Bolero)
19 No. 22. Neopolitan Dance (Allegro moderato - Andantino quasi moderato)
20 No. 23. Mazurka
21 No. 24. Scene (Allegro - Valse - Allegro vivo)
22 Act Four. No. 25. Entr'acte (Moderato)
23 No. 26. Scene (Allegro non troppo)
24 No. 27. Dance of the Little Swans (Moderato)
25 No. 28. Scene (Allegro agitato - Allegro vivace)
26 No. 29. Finale (Andante - Allegro agitato - Alla breve - Moderato e maestoso)




CD3 + CD4 + CD5 Спящая красавица 67'37 + 44'50 + 48'16 (1974)
The Sleeping Beauty
London Symphony Orchestra
André Previn, conductor
Лог создания рипа

CD1

Exact Audio Copy V1.3 from 2. September 2016
EAC extraction logfile from 16. July 2017, 19:14
André Previn / The Sleeping Beauty (Complete Ballet, 1974) Prologue & Act 1
Used drive  : LENOVO  USB_SATA_Burner4   Adapter: 1  ID: 0
Read mode               : Secure
Utilize accurate stream : Yes
Defeat audio cache      : Yes
Make use of C2 pointers : No
Read offset correction                      : 6
Overread into Lead-In and Lead-Out          : No
Fill up missing offset samples with silence : Yes
Delete leading and trailing silent blocks   : No
Null samples used in CRC calculations       : Yes
Used interface                              : Native Win32 interface for Win NT & 2000
Used output format              : User Defined Encoder
Selected bitrate                : 1024 kBit/s
Quality                         : High
Add ID3 tag                     : No
Command line compressor         : C:\Program Files (x86)\Exact Audio Copy\FLAC\FLAC.EXE
Additional command line options : -8 -V -T "TITLE=%title%" -T "ARTIST=%artist%" -T "ALBUMARTIST=%albumartist%" -T "ALBUM=%albumtitle%" -T "DATE=%year%" -T "TRACKNUMBER=%tracknr%" -T "TRACKTOTAL=%numtracks%" -T "GENRE=%genre%" -T "COMMENT=%comment%" -T "PERFORMER=%albuminterpret%" -T "COMPOSER=%composer%" %source% -o %dest%
TOC of the extracted CD
     Track |   Start  |  Length  | Start sector | End sector
    ---------------------------------------------------------
        1  |  0:00.00 |  2:59.12 |         0    |    13436
        2  |  2:59.12 |  5:04.27 |     13437    |    36263
        3  |  8:03.39 |  4:27.44 |     36264    |    56332
        4  | 12:31.08 |  0:36.70 |     56333    |    59102
        5  | 13:08.03 |  3:50.67 |     59103    |    76419
        6  | 16:58.70 |  0:54.13 |     76420    |    80482
        7  | 17:53.08 |  0:34.00 |     80483    |    83032
        8  | 18:27.08 |  0:59.27 |     83033    |    87484
        9  | 19:26.35 |  0:29.64 |     87485    |    89723
       10  | 19:56.24 |  1:01.21 |     89724    |    94319
       11  | 20:57.45 |  1:00.18 |     94320    |    98837
       12  | 21:57.63 |  1:31.06 |     98838    |   105668
       13  | 23:28.69 |  8:32.58 |    105669    |   144126
       14  | 32:01.52 |  6:51.27 |    144127    |   174978
       15  | 38:53.04 |  4:58.58 |    174979    |   197386
       16  | 43:51.62 |  1:47.28 |    197387    |   205439
       17  | 45:39.15 |  6:14.37 |    205440    |   233526
       18  | 51:53.52 |  2:00.57 |    233527    |   242583
       19  | 53:54.34 |  3:31.49 |    242584    |   258457
       20  | 57:26.08 |  2:30.48 |    258458    |   269755
       21  | 59:56.56 |  7:38.69 |    269756    |   304174
Range status and errors
Selected range
     Filename C:\EACRip\Tchaikovsky - Swan Lake. The Sleeping Beauty. The Nutcracker (LSO, Andre Previn) [7CD]\CD3 - Sleeping Beauty - Prologue, Act I\Tchaikovsky - The Sleeping Beauty - Prologue & Act 1 - LSO, André Previn.wav
     Peak level 94.7 %
     Extraction speed 1.9 X
     Range quality 100.0 %
     Test CRC 309736D6
     Copy CRC 309736D6
     Copy OK
No errors occurred
AccurateRip summary
Track  1  accurately ripped (confidence 13)  [F24638D8]  (AR v2)
Track  2  accurately ripped (confidence 13)  [4AEAE18E]  (AR v2)
Track  3  accurately ripped (confidence 13)  [26B6E8E9]  (AR v2)
Track  4  accurately ripped (confidence 13)  [2FC4BC0A]  (AR v2)
Track  5  accurately ripped (confidence 13)  [E6CA5383]  (AR v2)
Track  6  accurately ripped (confidence 13)  [05E98088]  (AR v2)
Track  7  accurately ripped (confidence 13)  [6D365BE3]  (AR v2)
Track  8  accurately ripped (confidence 13)  [69268CA1]  (AR v2)
Track  9  accurately ripped (confidence 13)  [BED42266]  (AR v2)
Track 10  accurately ripped (confidence 13)  [4B79C0B3]  (AR v2)
Track 11  accurately ripped (confidence 13)  [FE18C1EA]  (AR v2)
Track 12  accurately ripped (confidence 13)  [BAF44F85]  (AR v2)
Track 13  accurately ripped (confidence 13)  [F02CEAD0]  (AR v2)
Track 14  accurately ripped (confidence 13)  [333B8835]  (AR v2)
Track 15  accurately ripped (confidence 13)  [16135611]  (AR v2)
Track 16  accurately ripped (confidence 13)  [0D257089]  (AR v2)
Track 17  accurately ripped (confidence 13)  [1E3B20EE]  (AR v2)
Track 18  accurately ripped (confidence 13)  [1A9E684B]  (AR v2)
Track 19  accurately ripped (confidence 13)  [0373F01A]  (AR v2)
Track 20  accurately ripped (confidence 13)  [ECBAB1EA]  (AR v2)
Track 21  accurately ripped (confidence 13)  [2CCA8CA9]  (AR v2)
All tracks accurately ripped
End of status report
---- CUETools DB Plugin V2.1.6
[CTDB TOCID: Jx1P1QGeInH7OmjfGvStBFx3nrA-] found
Submit result: already submitted
Track | CTDB Status
  1   | (31/31) Accurately ripped
  2   | (31/31) Accurately ripped
  3   | (31/31) Accurately ripped
  4   | (31/31) Accurately ripped
  5   | (31/31) Accurately ripped
  6   | (31/31) Accurately ripped
  7   | (31/31) Accurately ripped
  8   | (31/31) Accurately ripped
  9   | (31/31) Accurately ripped
10   | (31/31) Accurately ripped
11   | (31/31) Accurately ripped
12   | (31/31) Accurately ripped
13   | (31/31) Accurately ripped
14   | (31/31) Accurately ripped
15   | (31/31) Accurately ripped
16   | (31/31) Accurately ripped
17   | (31/31) Accurately ripped
18   | (31/31) Accurately ripped
19   | (31/31) Accurately ripped
20   | (31/31) Accurately ripped
21   | (31/31) Accurately ripped
==== Log checksum F299C87728687DFF2EC870822F597CCD590A3FAF10A5A3498449E347A99B7A15 ====


CD2

Exact Audio Copy V1.3 from 2. September 2016
EAC extraction logfile from 16. July 2017, 20:33
André Previn / Sleeping Beauty (Complete Ballet, 1974) Act 2
Used drive  : LENOVO  USB_SATA_Burner4   Adapter: 1  ID: 0
Read mode               : Secure
Utilize accurate stream : Yes
Defeat audio cache      : Yes
Make use of C2 pointers : No
Read offset correction                      : 6
Overread into Lead-In and Lead-Out          : No
Fill up missing offset samples with silence : Yes
Delete leading and trailing silent blocks   : No
Null samples used in CRC calculations       : Yes
Used interface                              : Native Win32 interface for Win NT & 2000
Used output format              : User Defined Encoder
Selected bitrate                : 1024 kBit/s
Quality                         : High
Add ID3 tag                     : No
Command line compressor         : C:\Program Files (x86)\Exact Audio Copy\FLAC\FLAC.EXE
Additional command line options : -8 -V -T "TITLE=%title%" -T "ARTIST=%artist%" -T "ALBUMARTIST=%albumartist%" -T "ALBUM=%albumtitle%" -T "DATE=%year%" -T "TRACKNUMBER=%tracknr%" -T "TRACKTOTAL=%numtracks%" -T "GENRE=%genre%" -T "COMMENT=%comment%" -T "PERFORMER=%albuminterpret%" -T "COMPOSER=%composer%" %source% -o %dest%
TOC of the extracted CD
     Track |   Start  |  Length  | Start sector | End sector
    ---------------------------------------------------------
        1  |  0:00.00 |  2:46.21 |         0    |    12470
        2  |  2:46.21 |  1:37.31 |     12471    |    19776
        3  |  4:23.52 |  0:52.00 |     19777    |    23676
        4  |  5:15.52 |  0:55.01 |     23677    |    27802
        5  |  6:10.53 |  0:53.17 |     27803    |    31794
        6  |  7:03.70 |  0:39.48 |     31795    |    34767
        7  |  7:43.43 |  0:46.03 |     34768    |    38220
        8  |  8:29.46 |  0:16.24 |     38221    |    39444
        9  |  8:45.70 |  1:35.66 |     39445    |    46635
       10  | 10:21.61 |  5:20.72 |     46636    |    70707
       11  | 15:42.58 |  5:27.69 |     70708    |    95301
       12  | 21:10.52 |  1:22.57 |     95302    |   101508
       13  | 22:33.34 |  1:29.02 |    101509    |   108185
       14  | 24:02.36 |  0:43.44 |    108186    |   111454
       15  | 24:46.05 |  4:00.73 |    111455    |   129527
       16  | 28:47.03 |  5:57.28 |    129528    |   156330
       17  | 34:44.31 |  7:41.62 |    156331    |   190967
       18  | 42:26.18 |  2:22.26 |    190968    |   201643
Range status and errors
Selected range
     Filename C:\EACRip\Tchaikovsky - Swan Lake. The Sleeping Beauty. The Nutcracker (LSO, Andre Previn) [7CD]\CD4 - Sleeping Beauty - Act II\Tchaikovsky - Sleeping Beauty - Act 2 - LSO, André Previn.wav
     Peak level 92.3 %
     Extraction speed 1.7 X
     Range quality 100.0 %
     Test CRC 663444DF
     Copy CRC 663444DF
     Copy OK
No errors occurred
AccurateRip summary
Track  1  accurately ripped (confidence 13)  [FB380389]  (AR v2)
Track  2  accurately ripped (confidence 13)  [4AFC3994]  (AR v2)
Track  3  accurately ripped (confidence 13)  [781AFE84]  (AR v2)
Track  4  accurately ripped (confidence 13)  [144FA474]  (AR v2)
Track  5  accurately ripped (confidence 13)  [F141E369]  (AR v2)
Track  6  accurately ripped (confidence 13)  [927DAA7E]  (AR v2)
Track  7  accurately ripped (confidence 13)  [60E31BCD]  (AR v2)
Track  8  accurately ripped (confidence 13)  [71E1267C]  (AR v2)
Track  9  accurately ripped (confidence 13)  [7940675E]  (AR v2)
Track 10  accurately ripped (confidence 13)  [73E7EF14]  (AR v2)
Track 11  accurately ripped (confidence 11)  [CBC4AE4C]  (AR v2)
Track 12  accurately ripped (confidence 13)  [72090132]  (AR v2)
Track 13  accurately ripped (confidence 11)  [2A86B821]  (AR v2)
Track 14  accurately ripped (confidence 13)  [ADFA0312]  (AR v2)
Track 15  accurately ripped (confidence 13)  [23795A8E]  (AR v2)
Track 16  accurately ripped (confidence 13)  [D291D565]  (AR v2)
Track 17  accurately ripped (confidence 13)  [76F0F2FB]  (AR v2)
Track 18  accurately ripped (confidence 13)  [624D29EA]  (AR v2)
All tracks accurately ripped
End of status report
---- CUETools DB Plugin V2.1.6
[CTDB TOCID: 049ZERlwgK3QzPF_hjcqnDBDLFM-] found
Submit result: already submitted
Track | CTDB Status
  1   | (30/30) Accurately ripped
  2   | (30/30) Accurately ripped
  3   | (30/30) Accurately ripped
  4   | (30/30) Accurately ripped
  5   | (30/30) Accurately ripped
  6   | (30/30) Accurately ripped
  7   | (30/30) Accurately ripped
  8   | (30/30) Accurately ripped
  9   | (30/30) Accurately ripped
10   | (30/30) Accurately ripped
11   | (24/30) Accurately ripped, or (6/30) differs in 3498 samples @04:11:61-04:11:64
12   | (30/30) Accurately ripped
13   | (24/30) Accurately ripped, or (6/30) differs in 11442 samples @00:22:55-00:22:63,00:23:05-00:23:15
14   | (30/30) Accurately ripped
15   | (30/30) Accurately ripped
16   | (30/30) Accurately ripped
17   | (30/30) Accurately ripped
18   | (30/30) Accurately ripped
==== Log checksum 890FC4D75B82F8A28638D987C700EF410B209C923131C3973E11D633A7C02B22 ====


CD3

Exact Audio Copy V1.3 from 2. September 2016
EAC extraction logfile from 16. July 2017, 21:33
André Previn / Sleeping Beauty (Complete Ballet, 1974) Act 3
Used drive  : LENOVO  USB_SATA_Burner4   Adapter: 1  ID: 0
Read mode               : Secure
Utilize accurate stream : Yes
Defeat audio cache      : Yes
Make use of C2 pointers : No
Read offset correction                      : 6
Overread into Lead-In and Lead-Out          : No
Fill up missing offset samples with silence : Yes
Delete leading and trailing silent blocks   : No
Null samples used in CRC calculations       : Yes
Used interface                              : Native Win32 interface for Win NT & 2000
Used output format              : User Defined Encoder
Selected bitrate                : 1024 kBit/s
Quality                         : High
Add ID3 tag                     : No
Command line compressor         : C:\Program Files (x86)\Exact Audio Copy\FLAC\FLAC.EXE
Additional command line options : -8 -V -T "TITLE=%title%" -T "ARTIST=%artist%" -T "ALBUMARTIST=%albumartist%" -T "ALBUM=%albumtitle%" -T "DATE=%year%" -T "TRACKNUMBER=%tracknr%" -T "TRACKTOTAL=%numtracks%" -T "GENRE=%genre%" -T "COMMENT=%comment%" -T "PERFORMER=%albuminterpret%" -T "COMPOSER=%composer%" %source% -o %dest%
TOC of the extracted CD
     Track |   Start  |  Length  | Start sector | End sector
    ---------------------------------------------------------
        1  |  0:00.00 |  3:28.13 |         0    |    15612
        2  |  3:28.13 |  4:35.09 |     15613    |    36246
        3  |  8:03.22 |  2:07.14 |     36247    |    45785
        4  | 10:10.36 |  1:05.67 |     45786    |    50727
        5  | 11:16.28 |  0:48.60 |     50728    |    54387
        6  | 12:05.13 |  0:44.41 |     54388    |    57728
        7  | 12:49.54 |  0:44.10 |     57729    |    61038
        8  | 13:33.64 |  0:45.22 |     61039    |    64435
        9  | 14:19.11 |  1:54.13 |     64436    |    72998
       10  | 16:13.24 |  2:00.58 |     72999    |    82056
       11  | 18:14.07 |  0:57.26 |     82057    |    86357
       12  | 19:11.33 |  0:48.15 |     86358    |    89972
       13  | 19:59.48 |  1:23.73 |     89973    |    96270
       14  | 21:23.46 |  1:21.69 |     96271    |   102414
       15  | 22:45.40 |  2:36.32 |    102415    |   114146
       16  | 25:21.72 |  1:20.72 |    114147    |   120218
       17  | 26:42.69 |  1:42.07 |    120219    |   127875
       18  | 28:25.01 |  4:40.15 |    127876    |   148890
       19  | 33:05.16 |  1:02.58 |    148891    |   153598
       20  | 34:07.74 |  1:55.64 |    153599    |   162287
       21  | 36:03.63 |  1:21.07 |    162288    |   168369
       22  | 37:24.70 |  2:38.15 |    168370    |   180234
       23  | 40:03.10 |  5:44.19 |    180235    |   206053
       24  | 45:47.29 |  2:27.34 |    206054    |   217112
Range status and errors
Selected range
     Filename C:\EACRip\Tchaikovsky - Swan Lake. The Sleeping Beauty. The Nutcracker (LSO, Andre Previn) [7CD]\CD5 - Sleeping Beauty - Act III\Tchaikovsky - Sleeping Beauty - Act 3 - LSO, André Previn.wav
     Peak level 95.8 %
     Extraction speed 1.7 X
     Range quality 100.0 %
     Test CRC 47B128CF
     Copy CRC 47B128CF
     Copy OK
No errors occurred
AccurateRip summary
Track  1  accurately ripped (confidence 13)  [58FC2D6B]  (AR v2)
Track  2  accurately ripped (confidence 13)  [157DA530]  (AR v2)
Track  3  accurately ripped (confidence 13)  [BACA4F8B]  (AR v2)
Track  4  accurately ripped (confidence 13)  [DB80EE76]  (AR v2)
Track  5  accurately ripped (confidence 13)  [75847C42]  (AR v2)
Track  6  accurately ripped (confidence 13)  [09C880F1]  (AR v2)
Track  7  accurately ripped (confidence 11)  [0A26C40B]  (AR v2)
Track  8  accurately ripped (confidence 13)  [83FAAF9F]  (AR v2)
Track  9  accurately ripped (confidence 13)  [FC352C07]  (AR v2)
Track 10  accurately ripped (confidence 13)  [868748A6]  (AR v2)
Track 11  accurately ripped (confidence 13)  [433C611B]  (AR v2)
Track 12  accurately ripped (confidence 13)  [BAC01467]  (AR v2)
Track 13  accurately ripped (confidence 13)  [1A2B236A]  (AR v2)
Track 14  accurately ripped (confidence 13)  [E33A8516]  (AR v2)
Track 15  accurately ripped (confidence 13)  [AF4F1A9D]  (AR v2)
Track 16  accurately ripped (confidence 13)  [8196BF37]  (AR v2)
Track 17  accurately ripped (confidence 13)  [49B2FA27]  (AR v2)
Track 18  accurately ripped (confidence 13)  [D558F99D]  (AR v2)
Track 19  accurately ripped (confidence 13)  [ED23D6D1]  (AR v2)
Track 20  accurately ripped (confidence 13)  [664DFA3F]  (AR v2)
Track 21  accurately ripped (confidence 13)  [C6390C4E]  (AR v2)
Track 22  accurately ripped (confidence 13)  [A2E158E0]  (AR v2)
Track 23  accurately ripped (confidence 13)  [CFA17B0F]  (AR v2)
Track 24  accurately ripped (confidence 13)  [5A7015EA]  (AR v2)
All tracks accurately ripped
End of status report
---- CUETools DB Plugin V2.1.6
[CTDB TOCID: M4h68R_mtpZMnP7sYHpWXOgwy1U-] found
Submit result: already submitted
Track | CTDB Status
  1   | (29/29) Accurately ripped
  2   | (29/29) Accurately ripped
  3   | (29/29) Accurately ripped
  4   | (29/29) Accurately ripped
  5   | (29/29) Accurately ripped
  6   | (29/29) Accurately ripped
  7   | (22/29) Accurately ripped, or (7/29) differs in 3511 samples @00:11:70-00:11:73
  8   | (29/29) Accurately ripped
  9   | (29/29) Accurately ripped
10   | (29/29) Accurately ripped
11   | (29/29) Accurately ripped
12   | (29/29) Accurately ripped
13   | (29/29) Accurately ripped
14   | (29/29) Accurately ripped
15   | (29/29) Accurately ripped
16   | (29/29) Accurately ripped
17   | (29/29) Accurately ripped
18   | (29/29) Accurately ripped
19   | (29/29) Accurately ripped
20   | (29/29) Accurately ripped
21   | (29/29) Accurately ripped
22   | (29/29) Accurately ripped
23   | (29/29) Accurately ripped
24   | (29/29) Accurately ripped
==== Log checksum 9516139B7E97DA27EEC45BD66AF37A441F43403D6B9EA4681DECF4D9D00AA2E1 ====


Содержание индексной карты (.CUE)

CD1

REM DATE 1974
REM DISCID 1C0FD715
REM COMMENT "ExactAudioCopy v1.3"
PERFORMER "London Symphony Orchestra, André Previn"
TITLE "The Sleeping Beauty (Complete Ballet, 1974) Prologue & Act 1"
REM COMPOSER "Pyotr Ilyich Tchaikovsky"
FILE "Tchaikovsky - The Sleeping Beauty - Prologue & Act 1 - LSO, André Previn.flac" WAVE
  TRACK 01 AUDIO
    TITLE "Sleeping Beauty: Introduction (Allegro vivo - Andantino)"
    PERFORMER "London Symphony Orchestra, André Previn"
    REM COMPOSER "Pyotr Ilyich Tchaikovsky"
    INDEX 01 00:00:00
  TRACK 02 AUDIO
    TITLE "Sleeping Beauty: Prologue 'The Christening': No. 1. March (Moderato)"
    PERFORMER "London Symphony Orchestra, André Previn"
    REM COMPOSER "Pyotr Ilyich Tchaikovsky"
    INDEX 01 02:59:12
  TRACK 03 AUDIO
    TITLE "Sleeping Beauty: Prologue 'The Christening': No. 2. Dance Scene (Moderato con moto)"
    PERFORMER "London Symphony Orchestra, André Previn"
    REM COMPOSER "Pyotr Ilyich Tchaikovsky"
    INDEX 01 08:03:39
  TRACK 04 AUDIO
    TITLE "Sleeping Beauty: Prologue 'The Christening': No. 3. Pas de six: Introduction"
    PERFORMER "London Symphony Orchestra, André Previn"
    REM COMPOSER "Pyotr Ilyich Tchaikovsky"
    INDEX 01 12:31:08
  TRACK 05 AUDIO
    TITLE "Sleeping Beauty: Prologue 'The Christening': No. 3. Pas de six: Adagio"
    PERFORMER "London Symphony Orchestra, André Previn"
    REM COMPOSER "Pyotr Ilyich Tchaikovsky"
    INDEX 01 13:08:03
  TRACK 06 AUDIO
    TITLE "Sleeping Beauty: Prologue 'The Christening': No. 3. Pas de six: Variation I. Crystal Fountain (Allegro moderato)"
    PERFORMER "London Symphony Orchestra, André Previn"
    REM COMPOSER "Pyotr Ilyich Tchaikovsky"
    INDEX 01 16:58:70
  TRACK 07 AUDIO
    TITLE "Sleeping Beauty: Prologue 'The Christening': No. 3. Pas de six: Variation II. The Fairy of the Enchanted Garden (Allegro)"
    PERFORMER "London Symphony Orchestra, André Previn"
    REM COMPOSER "Pyotr Ilyich Tchaikovsky"
    INDEX 01 17:53:08
  TRACK 08 AUDIO
    TITLE "Sleeping Beauty: Prologue 'The Christening': No. 3. Pas de six: Variation III. The Fairy of the Woodland Gladis (Allegro moderato)"
    PERFORMER "London Symphony Orchestra, André Previn"
    REM COMPOSER "Pyotr Ilyich Tchaikovsky"
    INDEX 01 18:27:08
  TRACK 09 AUDIO
    TITLE "Sleeping Beauty: Prologue 'The Christening': No. 3. Pas de six: Variation IV. The Fairy of the Songbirds (Moderato)"
    PERFORMER "London Symphony Orchestra, André Previn"
    REM COMPOSER "Pyotr Ilyich Tchaikovsky"
    INDEX 01 19:26:35
  TRACK 10 AUDIO
    TITLE "Sleeping Beauty: Prologue 'The Christening': No. 3. Pas de six: Variation V. The Fairy of the Golden Vine (Allegro molto vivace)"
    PERFORMER "London Symphony Orchestra, André Previn"
    REM COMPOSER "Pyotr Ilyich Tchaikovsky"
    INDEX 01 19:56:24
  TRACK 11 AUDIO
    TITLE "Sleeping Beauty: Prologue 'The Christening': No. 3. Pas de six: Variation VI. The Lilac Fairy (Tempo di valse)"
    PERFORMER "London Symphony Orchestra, André Previn"
    REM COMPOSER "Pyotr Ilyich Tchaikovsky"
    INDEX 01 20:57:45
  TRACK 12 AUDIO
    TITLE "Sleeping Beauty: Prologue 'The Christening': No. 3. Pas de six: Coda (Allegro guisto)"
    PERFORMER "London Symphony Orchestra, André Previn"
    REM COMPOSER "Pyotr Ilyich Tchaikovsky"
    INDEX 01 21:57:63
  TRACK 13 AUDIO
    TITLE "Sleeping Beauty: Prologue 'The Christening': No. 4. Finale"
    PERFORMER "London Symphony Orchestra, André Previn"
    REM COMPOSER "Pyotr Ilyich Tchaikovsky"
    INDEX 01 23:28:69
  TRACK 14 AUDIO
    TITLE "Sleeping Beauty: Act One 'The Spell': No. 5. Scene (Allegro vivo - Moderato)"
    PERFORMER "London Symphony Orchestra, André Previn"
    REM COMPOSER "Pyotr Ilyich Tchaikovsky"
    INDEX 01 32:01:52
  TRACK 15 AUDIO
    TITLE "Sleeping Beauty: Act One 'The Spell': No. 6. Waltz (Allegro: Tempo di valse)"
    PERFORMER "London Symphony Orchestra, André Previn"
    REM COMPOSER "Pyotr Ilyich Tchaikovsky"
    INDEX 01 38:53:04
  TRACK 16 AUDIO
    TITLE "Sleeping Beauty: Act One 'The Spell': No. 7. Scene (Andante)"
    PERFORMER "London Symphony Orchestra, André Previn"
    REM COMPOSER "Pyotr Ilyich Tchaikovsky"
    INDEX 01 43:51:62
  TRACK 17 AUDIO
    TITLE "Sleeping Beauty: Act One 'The Spell': No. 8. Pas d'action: Rose Adagio (Andante - Adagio maestoso)"
    PERFORMER "London Symphony Orchestra, André Previn"
    REM COMPOSER "Pyotr Ilyich Tchaikovsky"
    INDEX 01 45:39:15
  TRACK 18 AUDIO
    TITLE "Sleeping Beauty: Act One 'The Spell': No. 8. Pas d'action: Dance of the Maids of Honour and the Pages"
    PERFORMER "London Symphony Orchestra, André Previn"
    REM COMPOSER "Pyotr Ilyich Tchaikovsky"
    INDEX 01 51:53:52
  TRACK 19 AUDIO
    TITLE "Sleeping Beauty: Act One 'The Spell': No. 8. Pas d'action: Aurora's Variation"
    PERFORMER "London Symphony Orchestra, André Previn"
    REM COMPOSER "Pyotr Ilyich Tchaikovsky"
    INDEX 01 53:54:34
  TRACK 20 AUDIO
    TITLE "Sleeping Beauty: Act One 'The Spell': No. 8. Pas d'action: Coda (Allegro giusto)"
    PERFORMER "London Symphony Orchestra, André Previn"
    REM COMPOSER "Pyotr Ilyich Tchaikovsky"
    INDEX 01 57:26:08
  TRACK 21 AUDIO
    TITLE "Sleeping Beauty: Act One 'The Spell': No. 9. Finale"
    PERFORMER "London Symphony Orchestra, André Previn"
    REM COMPOSER "Pyotr Ilyich Tchaikovsky"
    INDEX 01 59:56:56


CD2

REM DATE 1974
REM DISCID F20A8012
REM COMMENT "ExactAudioCopy v1.3"
PERFORMER "London Symphony Orchestra, André Previn"
TITLE "The Sleeping Beauty (Complete Ballet, 1974) Act 2"
REM COMPOSER "Pyotr Ilyich Tchaikovsky"
FILE "Tchaikovsky - The Sleeping Beauty - Act 2 - LSO, André Previn.flac" WAVE
  TRACK 01 AUDIO
    TITLE "Sleeping Beauty: Act Two 'The Vision': No. 10. Entr'acte and Scene (Allegro con spirito - Un poco più tranquillo)"
    PERFORMER "London Symphony Orchestra, André Previn"
    REM COMPOSER "Pyotr Ilyich Tchaikovsky"
    INDEX 01 00:00:00
  TRACK 02 AUDIO
    TITLE "Sleeping Beauty: Act Two 'The Vision': No. 11. Blind Man's Buff (Allegro vivo)"
    PERFORMER "London Symphony Orchestra, André Previn"
    REM COMPOSER "Pyotr Ilyich Tchaikovsky"
    INDEX 01 02:46:21
  TRACK 03 AUDIO
    TITLE "Sleeping Beauty: Act Two 'The Vision': No. 12. Scene: Dances of the Courtiers: Scene"
    PERFORMER "London Symphony Orchestra, André Previn"
    REM COMPOSER "Pyotr Ilyich Tchaikovsky"
    INDEX 01 04:23:52
  TRACK 04 AUDIO
    TITLE "Sleeping Beauty: Act Two 'The Vision': No. 12. Scene: Dances of the Courtiers: Dances of the Duchesses (Minuet: Moderato con moto)"
    PERFORMER "London Symphony Orchestra, André Previn"
    REM COMPOSER "Pyotr Ilyich Tchaikovsky"
    INDEX 01 05:15:52
  TRACK 05 AUDIO
    TITLE "Sleeping Beauty: Act Two 'The Vision': No. 12. Scene: Dances of the Courtiers: Dance of the Baronesses (Gavotte)"
    PERFORMER "London Symphony Orchestra, André Previn"
    REM COMPOSER "Pyotr Ilyich Tchaikovsky"
    INDEX 01 06:10:53
  TRACK 06 AUDIO
    TITLE "Sleeping Beauty: Act Two 'The Vision': No. 12. Scene: Dances of the Courtiers: Dances of the Countesses (Allegro non troppo)"
    PERFORMER "London Symphony Orchestra, André Previn"
    REM COMPOSER "Pyotr Ilyich Tchaikovsky"
    INDEX 01 07:03:70
  TRACK 07 AUDIO
    TITLE "Sleeping Beauty: Act Two 'The Vision': No. 12. Scene: Dances of the Courtiers: Dances of the Marchionesses (Allegro non troppo)"
    PERFORMER "London Symphony Orchestra, André Previn"
    REM COMPOSER "Pyotr Ilyich Tchaikovsky"
    INDEX 01 07:43:43
  TRACK 08 AUDIO
    TITLE "Sleeping Beauty: Act Two 'The Vision': No. 13. Farandole: Scene (Poco più vivo)"
    PERFORMER "London Symphony Orchestra, André Previn"
    REM COMPOSER "Pyotr Ilyich Tchaikovsky"
    INDEX 01 08:29:46
  TRACK 09 AUDIO
    TITLE "Sleeping Beauty: Act Two 'The Vision': No. 13. Farandole: Dance (Allegro non troppo)"
    PERFORMER "London Symphony Orchestra, André Previn"
    REM COMPOSER "Pyotr Ilyich Tchaikovsky"
    INDEX 01 08:45:70
  TRACK 10 AUDIO
    TITLE "Sleeping Beauty: Act Two 'The Vision': No. 14. Scene: Prince Florimund and the Lilac Fairy"
    PERFORMER "London Symphony Orchestra, André Previn"
    REM COMPOSER "Pyotr Ilyich Tchaikovsky"
    INDEX 01 10:21:61
  TRACK 11 AUDIO
    TITLE "Sleeping Beauty: Act Two 'The Vision': No. 15. Pas d'action: Aurora and Florimund (Andante cantabile)"
    PERFORMER "London Symphony Orchestra, André Previn"
    REM COMPOSER "Pyotr Ilyich Tchaikovsky"
    INDEX 01 15:42:58
  TRACK 12 AUDIO
    TITLE "Sleeping Beauty: Act Two 'The Vision': No. 15. Pas d'action: Aurora's Variation (Allegro con moto)"
    PERFORMER "London Symphony Orchestra, André Previn"
    REM COMPOSER "Pyotr Ilyich Tchaikovsky"
    INDEX 01 21:10:52
  TRACK 13 AUDIO
    TITLE "Sleeping Beauty: Act Two 'The Vision': No. 15. Pas d'action: Coda (Presto)"
    PERFORMER "London Symphony Orchestra, André Previn"
    REM COMPOSER "Pyotr Ilyich Tchaikovsky"
    INDEX 01 22:33:34
  TRACK 14 AUDIO
    TITLE "Sleeping Beauty: Act Two 'The Vision': No. 16. Scene (Allegro agitato)"
    PERFORMER "London Symphony Orchestra, André Previn"
    REM COMPOSER "Pyotr Ilyich Tchaikovsky"
    INDEX 01 24:02:36
  TRACK 15 AUDIO
    TITLE "Sleeping Beauty: Act Two 'The Vision': No. 17. Panorama (Andantino)"
    PERFORMER "London Symphony Orchestra, André Previn"
    REM COMPOSER "Pyotr Ilyich Tchaikovsky"
    INDEX 01 24:46:05
  TRACK 16 AUDIO
    TITLE "Sleeping Beauty: Act Two 'The Vision': No. 18. Entr'acte"
    PERFORMER "London Symphony Orchestra, André Previn"
    REM COMPOSER "Pyotr Ilyich Tchaikovsky"
    INDEX 01 28:47:03
  TRACK 17 AUDIO
    TITLE "Sleeping Beauty: Act Two 'The Vision': No. 19. Symphonic Entr'acte (The Sleep) and Scene (Andante misterioso)"
    PERFORMER "London Symphony Orchestra, André Previn"
    REM COMPOSER "Pyotr Ilyich Tchaikovsky"
    INDEX 01 34:44:31
  TRACK 18 AUDIO
    TITLE "Sleeping Beauty: Act Two 'The Vision': No. 20. Finale: The Awakening (Allegro agitato)"
    PERFORMER "London Symphony Orchestra, André Previn"
    REM COMPOSER "Pyotr Ilyich Tchaikovsky"
    INDEX 01 42:26:18


CD3

REM DATE 1974
REM DISCID 4F0B4E18
REM COMMENT "ExactAudioCopy v1.3"
PERFORMER "London Symphony Orchestra, André Previn"
TITLE "The Sleeping Beauty (Complete Ballet, 1974) Act 3"
REM COMPOSER "Pyotr Ilyich Tchaikovsky"
FILE "Tchaikovsky - The Sleeping Beauty - Act 3 - LSO, André Previn.flac" WAVE
  TRACK 01 AUDIO
    TITLE "Sleeping Beauty: Act Three 'The Wedding': No. 21. March (Allegro non troppo)"
    PERFORMER "London Symphony Orchestra, André Previn"
    REM COMPOSER "Pyotr Ilyich Tchaikovsky"
    INDEX 01 00:00:00
  TRACK 02 AUDIO
    TITLE "Sleeping Beauty: Act Three 'The Wedding': No. 22. Polonaise: Procession of Fairy-Tale Characters (Allegro moderato e brillante)
    PERFORMER "London Symphony Orchestra, André Previn"
    REM COMPOSER "Pyotr Ilyich Tchaikovsky"
    INDEX 01 03:28:13
  TRACK 03 AUDIO
    TITLE "Sleeping Beauty: Act Three 'The Wedding': No. 23. Pas de quatre: Introduction (Allegro non tanto)"
    PERFORMER "London Symphony Orchestra, André Previn"
    REM COMPOSER "Pyotr Ilyich Tchaikovsky"
    INDEX 01 08:03:22
  TRACK 04 AUDIO
    TITLE "Sleeping Beauty: Act Three 'The Wedding': No. 23. Pas de quatre: Variation I. The Golden Fairy (Allegro tempo di valse)"
    PERFORMER "London Symphony Orchestra, André Previn"
    REM COMPOSER "Pyotr Ilyich Tchaikovsky"
    INDEX 01 10:10:36
  TRACK 05 AUDIO
    TITLE "Sleeping Beauty: Act Three 'The Wedding': No. 23. Pas de quatre: Variation II. The Silver Fairy (Allegro guisto)"
    PERFORMER "London Symphony Orchestra, André Previn"
    REM COMPOSER "Pyotr Ilyich Tchaikovsky"
    INDEX 01 11:16:28
  TRACK 06 AUDIO
    TITLE "Sleeping Beauty: Act Three 'The Wedding': No. 23. Pas de quatre: Variation III. The Sapphire Fairy (Vivacissimo)"
    PERFORMER "London Symphony Orchestra, André Previn"
    REM COMPOSER "Pyotr Ilyich Tchaikovsky"
    INDEX 01 12:05:13
  TRACK 07 AUDIO
    TITLE "Sleeping Beauty: Act Three 'The Wedding': No. 23. Pas de quatre: Variation IV. The Diamond Fairy (Vivace)"
    PERFORMER "London Symphony Orchestra, André Previn"
    REM COMPOSER "Pyotr Ilyich Tchaikovsky"
    INDEX 01 12:49:54
  TRACK 08 AUDIO
    TITLE "Sleeping Beauty: Act Three 'The Wedding': No. 23. Pas de quatre: Code (L'istesso tempo)"
    PERFORMER "London Symphony Orchestra, André Previn"
    REM COMPOSER "Pyotr Ilyich Tchaikovsky"
    INDEX 01 13:33:64
  TRACK 09 AUDIO
    TITLE "Sleeping Beauty: Act Three 'The Wedding': No. 24. Pas de caractere: Puss-in-Boots and the White Cat (Allegro moderato)"
    PERFORMER "London Symphony Orchestra, André Previn"
    REM COMPOSER "Pyotr Ilyich Tchaikovsky"
    INDEX 01 14:19:11
  TRACK 10 AUDIO
    TITLE "Sleeping Beauty: Act Three 'The Wedding': No. 25. Pas de quatre: Introduction (Adagio)"
    PERFORMER "London Symphony Orchestra, André Previn"
    REM COMPOSER "Pyotr Ilyich Tchaikovsky"
    INDEX 01 16:13:24
  TRACK 11 AUDIO
    TITLE "Sleeping Beauty: Act Three 'The Wedding': No. 25. Pas de quatre: Variation I. Cinderella and Prince Charming (Allegro: Tempo di valse)"
    PERFORMER "London Symphony Orchestra, André Previn"
    REM COMPOSER "Pyotr Ilyich Tchaikovsky"
    INDEX 01 18:14:07
  TRACK 12 AUDIO
    TITLE "Sleeping Beauty: Act Three 'The Wedding': No. 25. Pas de quatre: Variation II. The Blue Bird and Princess Florine (Andantino)"
    PERFORMER "London Symphony Orchestra, André Previn"
    REM COMPOSER "Pyotr Ilyich Tchaikovsky"
    INDEX 01 19:11:33
  TRACK 13 AUDIO
    TITLE "Sleeping Beauty: Act Three 'The Wedding': No. 25. Pas de quatre: Coda (Presto)"
    PERFORMER "London Symphony Orchestra, André Previn"
    REM COMPOSER "Pyotr Ilyich Tchaikovsky"
    INDEX 01 19:59:48
  TRACK 14 AUDIO
    TITLE "Sleeping Beauty: Act Three 'The Wedding': No. 26. Pas de caractere: Red Riding Hoot and a Wolf (Allegro moderato)"
    PERFORMER "London Symphony Orchestra, André Previn"
    REM COMPOSER "Pyotr Ilyich Tchaikovsky"
    INDEX 01 21:23:46
  TRACK 15 AUDIO
    TITLE "Sleeping Beauty: Act Three 'The Wedding': No. 26. Pas de caractere: Cinderella and Prince Charming (Allegro agitato - Tempo di valse - Vivace assai)"
    PERFORMER "London Symphony Orchestra, André Previn"
    REM COMPOSER "Pyotr Ilyich Tchaikovsky"
    INDEX 01 22:45:40
  TRACK 16 AUDIO
    TITLE "Sleeping Beauty: Act Three 'The Wedding': No. 27. Pas Berrichon"
    PERFORMER "London Symphony Orchestra, André Previn"
    REM COMPOSER "Pyotr Ilyich Tchaikovsky"
    INDEX 01 25:21:72
  TRACK 17 AUDIO
    TITLE "Sleeping Beauty: Act Three 'The Wedding': No. 28. Pas de deux (Aurora and Florimund) Entrée (Allegretto - Allegro moderato)"
    PERFORMER "London Symphony Orchestra, André Previn"
    REM COMPOSER "Pyotr Ilyich Tchaikovsky"
    INDEX 01 26:42:69
  TRACK 18 AUDIO
    TITLE "Sleeping Beauty: Act Three 'The Wedding': No. 28. Pas de deux (Aurora and Florimund) Adagio (Andante non troppo)"
    PERFORMER "London Symphony Orchestra, André Previn"
    REM COMPOSER "Pyotr Ilyich Tchaikovsky"
    INDEX 01 28:25:01
  TRACK 19 AUDIO
    TITLE "Sleeping Beauty: Act Three 'The Wedding': No. 28. Pas de deux (Aurora and Florimund) Variation I. Florimund (Vivace - Prestissimo)"
    PERFORMER "London Symphony Orchestra, André Previn"
    REM COMPOSER "Pyotr Ilyich Tchaikovsky"
    INDEX 01 33:05:16
  TRACK 20 AUDIO
    TITLE "Sleeping Beauty: Act Three 'The Wedding': No. 28. Pas de deux (Aurora and Florimund) Variation II. Aurora (Andantino)"
    PERFORMER "London Symphony Orchestra, André Previn"
    REM COMPOSER "Pyotr Ilyich Tchaikovsky"
    INDEX 01 34:07:74
  TRACK 21 AUDIO
    TITLE "Sleeping Beauty: Act Three 'The Wedding': No. 28. Pas de deux (Aurora and Florimund) Coda (Allegro vivace)"
    PERFORMER "London Symphony Orchestra, André Previn"
    REM COMPOSER "Pyotr Ilyich Tchaikovsky"
    INDEX 01 36:03:63
  TRACK 22 AUDIO
    TITLE "Sleeping Beauty: Act Three 'The Wedding': No. 29. Sarabande"
    PERFORMER "London Symphony Orchestra, André Previn"
    REM COMPOSER "Pyotr Ilyich Tchaikovsky"
    INDEX 01 37:24:70
  TRACK 23 AUDIO
    TITLE "Sleeping Beauty: Act Three 'The Wedding': No. 30. Finale and Apotheosis: Finale (Allegro brillante: Tempo di mazurka)"
    PERFORMER "London Symphony Orchestra, André Previn"
    REM COMPOSER "Pyotr Ilyich Tchaikovsky"
    INDEX 01 40:03:10
  TRACK 24 AUDIO
    TITLE "Sleeping Beauty: Act Three 'The Wedding': No. 30. Finale and Apotheosis: Apotheosis (Andante molto maestoso)"
    PERFORMER "London Symphony Orchestra, André Previn"
    REM COMPOSER "Pyotr Ilyich Tchaikovsky"
    INDEX 01 45:47:29


Треклист

CD1

1. Introduction (Allegro vivo - Andantino)
2. The Christening: 1. March (Moderato)
3. The Christening: 2. Scène dansante (Moderato con moto)
4. "The Christening", 3. Pas de six:
5. "The Christening", 3. Pas de six:: ii. Adagio
6. "The Christening", 3. Pas de six:: iii. Variation I: The Fairy of
7. "The Christening", 3. Pas de six:: iv. Variation II: The Fairy of
8. Tchaikovsky: "The Christening", 3. Pas de six:: v. Variation III:
9. "The Christening", 3. Pas de six:: vi. Variation IV: The Fairy of
10. "The Christening", 3. Pas de six:: vii. Variation V: The Fairy of
11. "The Christening", 3. Pas de six:: viii. Variation VI: The Lilac
12. "The Christening", 3. Pas de six:: ix. Coda (Allegro giusto)
13. Sleeping Beauty, Op.66, The Christening: 4. Finale
14. Sleeping Beauty, Op. 66 , Act 1: The Spell: 5. Scène (Allegro vivo - Moderato)
15. Act 1: The Spell: 6. Valse (Allegro: Tempo di valse) [2016]
16. The Spell: 7. Scène (Andante)
17. The Spell, 8. Pas d'action:: i. Adagio à la rose (Andante - Adagio m
18. "The Spell", 8. Pas d'action:: ii. Dance of the Maids of Honour and
19. "The Spell", 8. Pas d'action:: iii. Variation d'Aurore
20. "The Spell", 8. Pas d'action:: iv. Coda (Allegro giusto)
21. The Spell: 9. Finale


CD2

1. Act 2: The Vision: 10. Entr'acte et Scène (Allegro con spirito - Un poco pi
  2. The Vision: 11. Colin-maillard (Allegro vivo)
  3. "The Vision", 12. Scene (Moderato): i. Scène
  4. Scene 1: "The Vision", 12. Scene (M
  5. Scene 1: "The Vision", 12. Scene (Moderato): iii. Danse des Baronnes
  6. Scene 1: "The Vision", 12. Scene (Moderato): iv. Danse des Comtesses
  7. Scene 1: "The Vision", 12. Scene (Moderato): v. Danse des marquises
  8. Scene 1: "The Vision", 13. Farandole: i. Scène (Poco più vivo)
  9. Scene 1: "The Vision", 13. Farandole: ii. Danse (Allegro non troppo)
  10. The Vision: 14. Scène (Prince Florimund and the Lilac Fairy
  11. Scene 1: The Vision, 15. Pas d'action:: Pas d'action (Aurore et Flor
  12. Scene 1: The Vision, 15. Pas d'action:: Variation d'Aurore (Allegro
  13. Scene 1: The Vision, 15. Pas d'action:: Coda (Presto)
  14. Scene 1: The Vision: 16. Scène (Allegro agitato)
  15. Scene 1: The Vision - 17. Panorama (Andantino - The Awakening)
  16. Scene 1: The Vision: 18. Entr'acte
  17. Scene 1: The Vision: 19. Entr'acte symphonique et Scène
  18. Scene 1: The Vision: 20. Finale (The Awakening)


CD3

1. Act 3: The Wedding: 21. Marche (Allegro non troppo)
2. The Wedding: 22. Polacca (Procession of Fairy-Tale Characters) [Alle
3. "The Wedding", 23. Pas de quatre:: i. Pas de quatre (Allegro non tan
4. "The Wedding", 23. Pas de quatre:: ii. Variation I: The Golden Fairy
5. "The Wedding", 23. Pas de quatre:: iii. Variation II: The Silver Fai
6. "The Wedding", 23. Pas de quatre:: iv. Variation III: The Sapphire F
7. "The Wedding", 23. Pas de quatre:: v. Variation IV: The Diamond Fair
8. "The Wedding", 23. Pas de quatre:: vi. Coda (L'istesso tempo)
9. The Wedding: 24. Pas de caractère (Puss-in-Boots and the White Cat)
10. The Wedding, 25. Pas de quatre (Adagio): i. Pas de quatre
11. The Wedding, 25. Pas de quatre (Adagio): ii. Variation I: Cinderella
12. The Wedding, 25. Pas de quatre (Adagio): iii. Variation II: The Blue
13. The Wedding, 25. Pas de quatre (Adagio): iv. Coda [Presto]
14. "The Wedding", 26. Pas de caractère: i. Chaperon Rouge et le loup (A
15. "The Wedding", 26. Pas de caractère: ii. Cendrillon et le Prince For
16. 27. Pas Berrichon
17. The Wedding, 28. Pas de deux (Aurora and Florimund):: i. Entrée [All
18. The Wedding, 28. Pas de deux (Aurora and Florimund):: ii. Adagio [An
19. The Wedding, 28. Pas de deux (Aurora and Florimund):: iii. Variation
20. The Wedding, 28. Pas de deux (Aurora and Florimund):: iv. Variation
21. The Wedding, 28. Pas de deux (Aurora and Florimund):: v
22. 29. Sarabande
23. Finale
24. Apothéose




CD6 + CD7 Щелкунчик 44'21 + 41'59 (1972)
The Nutcracker
London Symphony Orchestra
André Previn, conductor
Лог создания рипа

CD1

Exact Audio Copy V1.3 from 2. September 2016
EAC extraction logfile from 16. July 2017, 22:45
André Previn / The Nutcracker (Complete Ballet, 1972) (Disc 1)
Used drive  : LENOVO  USB_SATA_Burner4   Adapter: 1  ID: 0
Read mode               : Secure
Utilize accurate stream : Yes
Defeat audio cache      : Yes
Make use of C2 pointers : No
Read offset correction                      : 6
Overread into Lead-In and Lead-Out          : No
Fill up missing offset samples with silence : Yes
Delete leading and trailing silent blocks   : No
Null samples used in CRC calculations       : Yes
Used interface                              : Native Win32 interface for Win NT & 2000
Used output format              : User Defined Encoder
Selected bitrate                : 1024 kBit/s
Quality                         : High
Add ID3 tag                     : No
Command line compressor         : C:\Program Files (x86)\Exact Audio Copy\FLAC\FLAC.EXE
Additional command line options : -8 -V -T "TITLE=%title%" -T "ARTIST=%artist%" -T "ALBUMARTIST=%albumartist%" -T "ALBUM=%albumtitle%" -T "DATE=%year%" -T "TRACKNUMBER=%tracknr%" -T "TRACKTOTAL=%numtracks%" -T "GENRE=%genre%" -T "COMMENT=%comment%" -T "PERFORMER=%albuminterpret%" -T "COMPOSER=%composer%" %source% -o %dest%
TOC of the extracted CD
     Track |   Start  |  Length  | Start sector | End sector
    ---------------------------------------------------------
        1  |  0:00.00 |  3:29.52 |         0    |    15726
        2  |  3:29.52 |  4:16.58 |     15727    |    34984
        3  |  7:46.35 |  2:23.71 |     34985    |    45780
        4  | 10:10.31 |  2:27.19 |     45781    |    56824
        5  | 12:37.50 |  5:43.18 |     56825    |    82567
        6  | 18:20.68 |  5:43.33 |     82568    |   108325
        7  | 24:04.26 |  6:35.70 |    108326    |   138020
        8  | 30:40.21 |  3:20.50 |    138021    |   153070
        9  | 34:00.71 |  3:57.38 |    153071    |   170883
       10  | 37:58.34 |  6:21.03 |    170884    |   199461
Range status and errors
Selected range
     Filename C:\EACRip\Tchaikovsky - Swan Lake. The Sleeping Beauty. The Nutcracker (LSO, Andre Previn) [7CD]\CD6 - The Nutcracker - Act I\Tchaikovsky - The Nutcracker (Disc 1) - LSO, André Previn.wav
     Peak level 89.7 %
     Extraction speed 1.7 X
     Range quality 100.0 %
     Test CRC BAEEBA6C
     Copy CRC BAEEBA6C
     Copy OK
No errors occurred
AccurateRip summary
Track  1  accurately ripped (confidence 4)  [9A7E8CB0]  (AR v2)
Track  2  accurately ripped (confidence 4)  [E63160BB]  (AR v2)
Track  3  accurately ripped (confidence 4)  [BE41B56D]  (AR v2)
Track  4  accurately ripped (confidence 4)  [E0912F29]  (AR v2)
Track  5  accurately ripped (confidence 4)  [329E4ACD]  (AR v2)
Track  6  accurately ripped (confidence 4)  [0FE73494]  (AR v2)
Track  7  accurately ripped (confidence 4)  [A4F4E1A8]  (AR v2)
Track  8  accurately ripped (confidence 4)  [040D3298]  (AR v2)
Track  9  accurately ripped (confidence 4)  [47607033]  (AR v2)
Track 10  accurately ripped (confidence 4)  [C8C18381]  (AR v2)
All tracks accurately ripped
End of status report
---- CUETools DB Plugin V2.1.6
[CTDB TOCID: 3vDIojajD1n1gCbVP9.mwrGvJ6Q-] found
Submit result: already submitted
Track | CTDB Status
  1   | (31/31) Accurately ripped
  2   | (31/31) Accurately ripped
  3   | (31/31) Accurately ripped
  4   | (31/31) Accurately ripped
  5   | (31/31) Accurately ripped
  6   | (31/31) Accurately ripped
  7   | (31/31) Accurately ripped
  8   | (31/31) Accurately ripped
  9   | (31/31) Accurately ripped
10   | (31/31) Accurately ripped
==== Log checksum F4A9E40B8A82962D8B6F9CBE526DBBF4396C76EB5997301C625C186B8A1EBF72 ====


CD2

Exact Audio Copy V1.3 from 2. September 2016
EAC extraction logfile from 16. July 2017, 23:40
André Previn / Tchaikovsky: The Nutcracker (Complete Ballet, 1972) (Disc 2)
Used drive  : LENOVO  USB_SATA_Burner4   Adapter: 1  ID: 0
Read mode               : Secure
Utilize accurate stream : Yes
Defeat audio cache      : Yes
Make use of C2 pointers : No
Read offset correction                      : 6
Overread into Lead-In and Lead-Out          : No
Fill up missing offset samples with silence : Yes
Delete leading and trailing silent blocks   : No
Null samples used in CRC calculations       : Yes
Used interface                              : Native Win32 interface for Win NT & 2000
Used output format              : User Defined Encoder
Selected bitrate                : 1024 kBit/s
Quality                         : High
Add ID3 tag                     : No
Command line compressor         : C:\Program Files (x86)\Exact Audio Copy\FLAC\FLAC.EXE
Additional command line options : -8 -V -T "TITLE=%title%" -T "ARTIST=%artist%" -T "ALBUMARTIST=%albumartist%" -T "ALBUM=%albumtitle%" -T "DATE=%year%" -T "TRACKNUMBER=%tracknr%" -T "TRACKTOTAL=%numtracks%" -T "GENRE=%genre%" -T "COMMENT=%comment%" -T "PERFORMER=%albuminterpret%" -T "COMPOSER=%composer%" %source% -o %dest%
TOC of the extracted CD
     Track |   Start  |  Length  | Start sector | End sector
    ---------------------------------------------------------
        1  |  0:00.00 |  4:30.54 |         0    |    20303
        2  |  4:30.54 |  4:33.40 |     20304    |    40818
        3  |  9:04.19 |  1:10.55 |     40819    |    46123
        4  | 10:14.74 |  3:11.60 |     46124    |    60508
        5  | 13:26.59 |  1:07.01 |     60509    |    65534
        6  | 14:33.60 |  1:07.14 |     65535    |    70573
        7  | 15:40.74 |  2:17.23 |     70574    |    80871
        8  | 17:58.22 |  2:56.45 |     80872    |    94116
        9  | 20:54.67 |  6:54.37 |     94117    |   125203
       10  | 27:49.29 |  4:56.71 |    125204    |   147474
       11  | 32:46.25 |  0:40.33 |    147475    |   150507
       12  | 33:26.58 |  3:28.68 |    150508    |   166175
       13  | 36:55.51 |  5:02.19 |    166176    |   188844
Range status and errors
Selected range
     Filename C:\EACRip\Tchaikovsky - Swan Lake. The Sleeping Beauty. The Nutcracker (LSO, Andre Previn) [7CD]\CD7 - The Nutcracker - Act II\Tchaikovsky - The Nutcracker (Disc 2) - LSO, André Previn.wav
     Peak level 91.3 %
     Extraction speed 1.7 X
     Range quality 100.0 %
     Test CRC D49A5E58
     Copy CRC D49A5E58
     Copy OK
No errors occurred
AccurateRip summary
Track  1  accurately ripped (confidence 18)  [1825A1F0]  (AR v2)
Track  2  accurately ripped (confidence 18)  [A714C153]  (AR v2)
Track  3  accurately ripped (confidence 18)  [D41A24D1]  (AR v2)
Track  4  accurately ripped (confidence 18)  [77E7550D]  (AR v2)
Track  5  accurately ripped (confidence 18)  [9F0274F2]  (AR v2)
Track  6  accurately ripped (confidence 18)  [FD285EE6]  (AR v2)
Track  7  accurately ripped (confidence 18)  [6C84F20B]  (AR v2)
Track  8  accurately ripped (confidence 18)  [333EAC30]  (AR v2)
Track  9  accurately ripped (confidence 18)  [9B322FA1]  (AR v2)
Track 10  accurately ripped (confidence 18)  [DE67A256]  (AR v2)
Track 11  accurately ripped (confidence 18)  [F92C5F03]  (AR v2)
Track 12  accurately ripped (confidence 18)  [1933479B]  (AR v2)
Track 13  accurately ripped (confidence 18)  [106BFE9D]  (AR v2)
All tracks accurately ripped
End of status report
---- CUETools DB Plugin V2.1.6
[CTDB TOCID: Bh_MgHMxnPLydNkozZrRXVehK2E-] found
Submit result: already submitted
Track | CTDB Status
  1   | (33/33) Accurately ripped
  2   | (33/33) Accurately ripped
  3   | (33/33) Accurately ripped
  4   | (33/33) Accurately ripped
  5   | (33/33) Accurately ripped
  6   | (33/33) Accurately ripped
  7   | (33/33) Accurately ripped
  8   | (33/33) Accurately ripped
  9   | (33/33) Accurately ripped
10   | (33/33) Accurately ripped
11   | (33/33) Accurately ripped
12   | (33/33) Accurately ripped
13   | (33/33) Accurately ripped
==== Log checksum A547BA0AEB57160C4D23FA18C235D8AE25CE38EF513BE11FE15D59E0673A4D81 ====


Содержание индексной карты (.CUE)

CD1

REM GENRE Ballet
REM DATE 1972
REM DISCID 6C0A630A
REM COMMENT "ExactAudioCopy v1.3"
PERFORMER "London Symphony Orchestra, André Previn"
TITLE "The Nutcracker (Complete Ballet, 1972) (Disc 1)"
REM COMPOSER "Pyotr Ilyich Tchaikovsky"
FILE "Tchaikovsky - The Nutcracker (Disc 1) - LSO, André Previn.flac" WAVE
  TRACK 01 AUDIO
    TITLE "Nutcracker, ballet, Op. 71: Overture"
    PERFORMER "London Symphony Orchestra, André Previn"
    REM COMPOSER "Pyotr Ilyich Tchaikovsky"
    INDEX 01 00:00:00
  TRACK 02 AUDIO
    TITLE "Nutcracker, ballet, Op. 71: Act 1. No. 1 The Decoration of the Christmas Tree"
    PERFORMER "London Symphony Orchestra, André Previn"
    REM COMPOSER "Pyotr Ilyich Tchaikovsky"
    INDEX 01 03:29:52
  TRACK 03 AUDIO
    TITLE "Nutcracker, ballet, Op. 71: Act 1. No. 2 March"
    PERFORMER "London Symphony Orchestra, André Previn"
    REM COMPOSER "Pyotr Ilyich Tchaikovsky"
    INDEX 01 07:46:35
  TRACK 04 AUDIO
    TITLE "Nutcracker, ballet, Op. 71: Act 1. No. 3 Children's Galop and Entry of the Parents"
    PERFORMER "London Symphony Orchestra, André Previn"
    REM COMPOSER "Pyotr Ilyich Tchaikovsky"
    INDEX 01 10:10:31
  TRACK 05 AUDIO
    TITLE "Nutcracker, ballet, Op. 71: Act 1. No. 4 Arrival of Drosselmeyer"
    PERFORMER "London Symphony Orchestra, André Previn"
    REM COMPOSER "Pyotr Ilyich Tchaikovsky"
    INDEX 01 12:37:50
  TRACK 06 AUDIO
    TITLE "Nutcracker, ballet, Op. 71: Act 1. No. 5 Grandfather Dance"
    PERFORMER "London Symphony Orchestra, André Previn"
    REM COMPOSER "Pyotr Ilyich Tchaikovsky"
    INDEX 01 18:20:68
  TRACK 07 AUDIO
    TITLE "Nutcracker, ballet, Op. 71: Act 1. No. 6 Scene (Clara and the Nutcracker)"
    PERFORMER "London Symphony Orchestra, André Previn & London Symphony Orchestra/Ambrosian..."
    REM COMPOSER "Pyotr Ilyich Tchaikovsky"
    INDEX 01 24:04:26
  TRACK 08 AUDIO
    TITLE "Nutcracker, ballet, Op. 71: Act 1. No. 7 Scene (Battle)"
    PERFORMER "London Symphony Orchestra, André Previn"
    REM COMPOSER "Pyotr Ilyich Tchaikovsky"
    INDEX 01 30:40:21
  TRACK 09 AUDIO
    TITLE "Nutcracker, ballet, Op. 71: Act 1. No. 8 Scene (in the pine forest)"
    PERFORMER "London Symphony Orchestra, André Previn"
    REM COMPOSER "Pyotr Ilyich Tchaikovsky"
    INDEX 01 34:00:71
  TRACK 10 AUDIO
    TITLE "Nutcracker, ballet, Op. 71: Act 1. No. 9 Waltz of the Snowflakes"
    PERFORMER "London Symphony Orchestra, André Previn"
    REM COMPOSER "Pyotr Ilyich Tchaikovsky"
    INDEX 01 37:58:34


CD2

REM GENRE Ballet
REM DATE 1972
REM DISCID B009D50D
REM COMMENT "ExactAudioCopy v1.3"
PERFORMER "London Symphony Orchestra, André Previn"
TITLE "Tchaikovsky: The Nutcracker (Complete Ballet, 1972) (Disc 2)"
REM COMPOSER "Pyotr Ilyich Tchaikovsky"
FILE "Tchaikovsky - The Nutcracker (Disc 2) - LSO, André Previn.flac" WAVE
  TRACK 01 AUDIO
    TITLE "Nutcracker, ballet, Op. 71: Act 2. No. 10 Scene: The Kingdom of Sweets"
    PERFORMER "London Symphony Orchestra, André Previn"
    REM COMPOSER "Pyotr Ilyich Tchaikovsky"
    INDEX 01 00:00:00
  TRACK 02 AUDIO
    TITLE "Nutcracker, ballet, Op. 71: Act 2. No. 11 Scene: Clara and the Prince"
    PERFORMER "London Symphony Orchestra, André Previn"
    REM COMPOSER "Pyotr Ilyich Tchaikovsky"
    INDEX 01 04:30:54
  TRACK 03 AUDIO
    TITLE "Nutcracker, ballet, Op. 71: Act 2. No. 12 Divertissement. Chocolate (Spanish Dance)"
    PERFORMER "London Symphony Orchestra, André Previn"
    REM COMPOSER "Pyotr Ilyich Tchaikovsky"
    INDEX 01 09:04:19
  TRACK 04 AUDIO
    TITLE "Nutcracker, ballet, Op. 71: Act 2. No. 12 Divertissement. Coffee (Arab Dance)"
    PERFORMER "London Symphony Orchestra, André Previn"
    REM COMPOSER "Pyotr Ilyich Tchaikovsky"
    INDEX 01 10:14:74
  TRACK 05 AUDIO
    TITLE "Nutcracker, ballet, Op. 71: Act 2. No. 12 Divertissement. Tea (Chinese Dance)"
    PERFORMER "London Symphony Orchestra, André Previn"
    REM COMPOSER "Pyotr Ilyich Tchaikovsky"
    INDEX 01 13:26:59
  TRACK 06 AUDIO
    TITLE "Nutcracker, ballet, Op. 71: Act 2. No. 12 Divertissement. Trepak (Russian Dance)"
    PERFORMER "London Symphony Orchestra, André Previn"
    REM COMPOSER "Pyotr Ilyich Tchaikovsky"
    INDEX 01 14:33:60
  TRACK 07 AUDIO
    TITLE "Nutcracker, ballet, Op. 71: Act 2. No. 12 Divertissement. Flutes (Dance of the Reed Pipes)"
    PERFORMER "London Symphony Orchestra, André Previn"
    REM COMPOSER "Pyotr Ilyich Tchaikovsky"
    INDEX 01 15:40:74
  TRACK 08 AUDIO
    TITLE "Nutcracker, ballet, Op. 71: Act 2. No. 12 Divertissement. Mother Gigogne"
    PERFORMER "London Symphony Orchestra, André Previn"
    REM COMPOSER "Pyotr Ilyich Tchaikovsky"
    INDEX 01 17:58:22
  TRACK 09 AUDIO
    TITLE "Nutcracker, ballet, Op. 71: Act 2. No. 13 Waltz of the Flowers"
    PERFORMER "London Symphony Orchestra, André Previn"
    REM COMPOSER "Pyotr Ilyich Tchaikovsky"
    INDEX 01 20:54:67
  TRACK 10 AUDIO
    TITLE "Nutcracker, ballet, Op. 71: Act 2. No. 14 Pas de deux"
    PERFORMER "London Symphony Orchestra, André Previn"
    REM COMPOSER "Pyotr Ilyich Tchaikovsky"
    INDEX 01 27:49:29
  TRACK 11 AUDIO
    TITLE "Nutcracker, ballet, Op. 71: Act 2. No. 14 Pas de deux. Variation I: Tarantella"
    PERFORMER "London Symphony Orchestra, André Previn"
    REM COMPOSER "Pyotr Ilyich Tchaikovsky"
    INDEX 01 32:46:25
  TRACK 12 AUDIO
    TITLE "Nutcracker, ballet, Op. 71: Act 2. No. 14 Pas de deux. Variation II: Dance of the Sugar Plum Fairy & Coda"
    PERFORMER "London Symphony Orchestra, André Previn"
    REM COMPOSER "Pyotr Ilyich Tchaikovsky"
    INDEX 01 33:26:58
  TRACK 13 AUDIO
    TITLE "Nutcracker, ballet, Op. 71: Act 2. No. 15 Final Waltz and Apotheosis"
    PERFORMER "London Symphony Orchestra, André Previn"
    REM COMPOSER "Pyotr Ilyich Tchaikovsky"
    INDEX 01 36:55:51


Треклист

CD1

1. Miniature Overture
  2. Act 1: Decoration of the Christmas Tree
  3. March
  4. Children's Galop and Entry of the Parents
  5. Arrival of Drosselmayer
  6. The Nutcracker and Grandfather Dance
  7. Departure of the guests (Clara and the Nutcracker)
  8. The Battle and Transformation Scene
  9. The forest of fir trees in Winter (Journey through the snow)
  10. Waltz of the Snowflakes


CD2

1. Act 2: The Enchanted Palace of the Kingdom of Sweets (The magic castle)
  2. Arrival of Clara and the Nutcracker
  3. Divertissement: Chocolate (Spanish Dance)
  4. Divertissement: Coffee (Arab Dance)
  5. Divertissement: Tea (Chinese Dance)
  6. Divertissement - Trepak (Russian Dance)
  7. TDivertissement - Dance of the Mirlitons (Flutes)
  8. Divertissement: Mother Gigogne and the Clowns
  9. Waltz of the Flowers
  10. Pas de deux (The Prince and the Sugar-Plum Fairy): Pas de deux
  11. Pas de deux (The Prince and the Sugar-Plum Fairy): Variation I (Taran
  12. Pas de deux (The Prince and the Sugar-Plum Fairy) - Variation II (Dan
  13. Final Waltz & Apotheose




Доп. информация

Рецензия от издателя
Tchaikovsky’s three sumptuous ballet scores are also three of his supreme masterpieces, as remarkable for their emotional content as for the beauty of their melodies and orchestration. André Previn, who has described himself as “a complete romantic”, became Principal Conductor of the London Symphony Orchestra in 1968. He remained in the role for 11 years – something of a golden era – and in 2016 was named the LSO’s Conductor Emeritus.

                                                                                       
                       
                       
                       
                       
                       
                                磁力下载(论坛代下载服务)::
                                                               
                                       
付费主题

已有0人支付


                                               
  • 1.94 GB
  • 温馨提示

    记得善用社区搜索功能,那里可能会有你想要的资源;论坛站内搜索

    如果你有什么需要的资源可以去资源求档发帖,求助社区的网友,我们会在第一时间给你回复哦;资源求档

    对于本社区网盘链接失效密码错误各种报错请在反馈板块反馈报错发帖,您的支持,是我们发展的最大动力;投诉建议

    回复

    使用道具 举报

    您需要登录后才可以回帖 登录 | 立即注册 微信登录

    本版积分规则

    关注0

    粉丝0

    帖子32440

    发布主题
    阅读排行更多+
    关闭

    站长推荐上一条 /1 下一条

    活动提示

    赞助永久VIP会员送3T硬盘一块 限时活动

    地址:立刻参加

    我知道了
    收藏帖子 返回列表 这是一个自定义按钮
    音乐分享,音乐下载。
    微信公众号
    微信号:hires_
    意见反馈:admin@maomicd.com

    加入我们的官方QQ群和微信群

    Powered by Discuz! X3.4 Archiver|手机版|小黑屋|捌零音乐论坛 ( 苏ICP备20015413号 )|( 苏公网安备 32030502000272号) 繁體

    GMT+8, 2021-9-26 09:59