[古典] (Classical) Танеев - Иоанн Дамаскин / Чайковский - Симфония №4 -- Государственная академическая симфоническая капелла России, Валерий Полянский - 1998, FLAC (image+.cue) lossless

[复制链接]
kayda 发表于 2021-9-10 16:56:48 | 显示全部楼层 |阅读模式 打印 上一主题 下一主题
Танеев - Иоанн Дамаскин / Чайковский - Симфония №4 -- Государственная академическая симфоническая капелла России, Валерий Полянский
Жанр: Classical
Страна-производитель диска: UK
Год издания диска: 1998
Издатель (лейбл): Chandos Records
Номер по каталогу: CHAN 9608
Дата записи: 1996
Аудиокодек: FLAC
Тип рипа: image+.cue
Битрейт аудио: lossless
Продолжительность: 71:01
Источник: собственный рип
Наличие сканов в содержимом раздачи: да
Треклист:
Сергей Танеев
[1]-[3] Кантата Иоанн Дамаскин, Op.1
Петр Чайковский
[4]-[7] Симфония № 4 фа минор, Op.36
Исполнители:
Russian State Symphonic Cappella
Russian State Symphony Orchestra
Valeri Polyansky
Лог создания рипа

Exact Audio Copy V1.3 from 2. September 2016
EAC extraction logfile from 24. July 2018, 21:42
Russian State Symphony Orchestra, Valeri Polyansky / Taneyev - John of Damascus; Tchaikovsky - Symphony No.4
Used drive  : PLDS    DVD-RW DU8A6SH   Adapter: 1  ID: 0
Read mode               : Secure
Utilize accurate stream : Yes
Defeat audio cache      : Yes
Make use of C2 pointers : No
Read offset correction                      : 6
Overread into Lead-In and Lead-Out          : No
Fill up missing offset samples with silence : Yes
Delete leading and trailing silent blocks   : No
Null samples used in CRC calculations       : Yes
Used interface                              : Native Win32 interface for Win NT & 2000
Used output format              : User Defined Encoder
Selected bitrate                : 128 kBit/s
Quality                         : High
Add ID3 tag                     : No
Command line compressor         : C:\Program Files (x86)\Exact Audio Copy\Flac\flac.exe
Additional command line options : -V -8 -T "Date=%year%" -T "Genre=%genre%" %source%
TOC of the extracted CD
     Track |   Start  |  Length  | Start sector | End sector
    ---------------------------------------------------------
        1  |  0:00.00 | 15:54.27 |         0    |    71576
        2  | 15:54.27 |  2:36.28 |     71577    |    83304
        3  | 18:30.55 |  7:52.25 |     83305    |   118729
        4  | 26:23.05 | 19:11.52 |    118730    |   205106
        5  | 45:34.57 | 10:10.38 |    205107    |   250894
        6  | 55:45.20 |  5:29.30 |    250895    |   275599
        7  | 61:14.50 |  9:46.52 |    275600    |   319601
Range status and errors
Selected range
     Filename C:\temp\CHAN_09608 - Taneyev - John of Damascus; Tchaikovsky - Symphony No.4\Taneyev - John of Damascus; Tchaikovsky - Symphony No.4.wav
     Peak level 99.8 %
     Extraction speed 3.9 X
     Range quality 100.0 %
     Test CRC D6E2ED46
     Copy CRC D6E2ED46
     Copy OK
No errors occurred
AccurateRip summary
Track  1  accurately ripped (confidence 2)  [94E0AACA]  (AR v2)
Track  2  accurately ripped (confidence 2)  [CBB7E2FC]  (AR v2)
Track  3  accurately ripped (confidence 2)  [47CC0F60]  (AR v2)
Track  4  accurately ripped (confidence 2)  [60D23929]  (AR v2)
Track  5  accurately ripped (confidence 2)  [88C25C32]  (AR v2)
Track  6  accurately ripped (confidence 2)  [DE49617C]  (AR v2)
Track  7  accurately ripped (confidence 2)  [DCE25496]  (AR v2)
All tracks accurately ripped
End of status report
==== Log checksum 52A65E1010B5D39017D2520899019D45EE6DA278CA7CC3CC39712C2B353244C2 ====

                                                                                       
                       
                       
                       
                       
                       
                                磁力下载(论坛代下载服务)::
                                                               
                                       
付费主题

已有0人支付


                                               
  • 279.6 MB
  • 温馨提示

    记得善用社区搜索功能,那里可能会有你想要的资源;论坛站内搜索

    如果你有什么需要的资源可以去资源求档发帖,求助社区的网友,我们会在第一时间给你回复哦;资源求档

    对于本社区网盘链接失效密码错误各种报错请在反馈板块反馈报错发帖,您的支持,是我们发展的最大动力;投诉建议

    回复

    使用道具 举报

    您需要登录后才可以回帖 登录 | 立即注册 微信登录

    本版积分规则

    关注0

    粉丝2

    帖子31616

    发布主题
    阅读排行更多+
    关闭

    站长推荐上一条 /1 下一条

    活动提示

    赞助永久VIP会员送3T硬盘一块 限时活动

    地址:立刻参加

    我知道了
    收藏帖子 返回列表 这是一个自定义按钮
    音乐分享,音乐下载。
    微信公众号
    微信号:hires_
    意见反馈:admin@maomicd.com

    加入我们的官方QQ群和微信群

    Powered by Discuz! X3.4 Archiver|手机版|小黑屋|捌零音乐论坛 ( 苏ICP备20015413号 )|( 苏公网安备 32030502000272号) 繁體

    GMT+8, 2021-9-25 05:58