[古典] (Симфония) Mahler Symphony No.7, Bruckner Symphony No.9 (BBC Nothern Symphony Orchestra, Halle Orchestra - J.Barbirolli) 2 CD - 2000, APE (image+.cue), lossless

[复制链接]
elmisy 发表于 2021-9-10 16:56:48 | 显示全部楼层 |阅读模式 打印 上一主题 下一主题
BRUCKNER - Symphony No.9
MAHLER - Symphony No.7
BBC Nothern Symphony Orchestra, Halle Orchestra - J.Barbirolli
Жанр: Симфония
Год выпуска диска: 2000
Производитель диска: Англия
Аудио кодек: APE
Тип рипа: image+.cue
Битрейт аудио: lossless
Продолжительность: 65'22'' | 72'14''
Трэклист:
CD1
Mahler Symphony No.7
01. I. Langsam (adagio) - Allegro
02. II. Nachtmusik I
03. III. Scherzo. Schattenhaft
04. IV. Nachtmusik II
CD2
Mahler Symphony No.7
01. V. Finale. Allegro ordinario
BBC Nothern Symphony Orchestra, Halle Orchestra
Bruckner Symphony No.9
01. I. Feierlich. Misterioso
02. II. Scherzo (bewegt, lebhaft)
03. III. Adagio
Halle Orchestra
EAC:
CD1
Exact Audio Copy V0.99 prebeta 4 from 23. January 2008
EAC extraction logfile from 6. March 2009, 10:44
BBC Symphony Orchestra, R.Goodall / Bruckner 9
Used drive : PLEXTOR CD-R PX-W4012A Adapter: 5 ID: 0
Read mode : Secure
Utilize accurate stream : Yes
Defeat audio cache : Yes
Make use of C2 pointers : No
Read offset correction : 98
Overread into Lead-In and Lead-Out : No
Fill up missing offset samples with silence : Yes
Delete leading and trailing silent blocks : No
Null samples used in CRC calculations : Yes
Used interface : Native Win32 interface for Win NT & 2000
Used output format : Internal WAV Routines
Sample format : 44.100 Hz; 16 Bit; Stereo
TOC of the extracted CD
Track | Start | Length | Start sector | End sector
---------------------------------------------------------
1 | 0:00.00 | 22:42.05 | 0 | 102154
2 | 22:42.05 | 16:35.42 | 102155 | 176821
3 | 39:17.47 | 9:45.58 | 176822 | 220754
4 | 49:03.30 | 16:16.07 | 220755 | 293961
Range status and errors
Selected range
Filename С:\Temp\CD1\Sir John Barbirolli - Mahler Symphony no.7 etc. SJ. Barbirolli BBCNSO live BBCL 4034.wav
Peak level 96.4 %
Range quality 100.0 %
Copy CRC 2566CD02
Copy OK
No errors occurred
End of status report

CD2
Exact Audio Copy V0.99 prebeta 4 from 23. January 2008
EAC extraction logfile from 6. March 2009, 10:55
BBC Symphony Orchestra, R.Goodall / Bruckner 9
Used drive : PLEXTOR CD-R PX-W4012A Adapter: 5 ID: 0
Read mode : Secure
Utilize accurate stream : Yes
Defeat audio cache : Yes
Make use of C2 pointers : No
Read offset correction : 98
Overread into Lead-In and Lead-Out : No
Fill up missing offset samples with silence : Yes
Delete leading and trailing silent blocks : No
Null samples used in CRC calculations : Yes
Used interface : Native Win32 interface for Win NT & 2000
Used output format : Internal WAV Routines
Sample format : 44.100 Hz; 16 Bit; Stereo
TOC of the extracted CD
Track | Start | Length | Start sector | End sector
---------------------------------------------------------
1 | 0:00.00 | 19:10.50 | 0 | 86299
2 | 19:10.50 | 22:12.40 | 86300 | 186239
3 | 41:23.15 | 9:52.12 | 186240 | 230651
4 | 51:15.27 | 20:56.33 | 230652 | 324884
Range status and errors
Selected range
Filename С:\Temp\CD2\Sir John Barbirolli - Mahler Symphony no.7 etc. SJ. Barbirolli BBCNSO live BBCL 4034.wav
Peak level 98.0 %
Range quality 100.0 %
Copy CRCC 33ECBDAB
Copy OK
No errors occurred
End of status report
Доп. информация:
Обещанная Девятая Симфония Брукнера в исполнении Барбиролли. Правда, в двухдисковом издании присутствует ещё и запись Седьмой Симфонии Малера. Но, думаю, это никого не смутит. Записано с концертов в 1960 (Малер) и 1966 (Брукнер) годах.
Исполнения исключительные.
                                                                                       
                       
                       
                       
                       
                       
                                磁力下载(论坛代下载服务)::
                                                               
                                       
付费主题

已有0人支付


                                               
  • 453.2 MB
  • 温馨提示

    记得善用社区搜索功能,那里可能会有你想要的资源;论坛站内搜索

    如果你有什么需要的资源可以去资源求档发帖,求助社区的网友,我们会在第一时间给你回复哦;资源求档

    对于本社区网盘链接失效密码错误各种报错请在反馈板块反馈报错发帖,您的支持,是我们发展的最大动力;投诉建议

    回复

    使用道具 举报

    您需要登录后才可以回帖 登录 | 立即注册 微信登录

    本版积分规则

    关注0

    粉丝3

    帖子30621

    发布主题
    阅读排行更多+
    关闭

    站长推荐上一条 /1 下一条

    活动提示

    赞助永久VIP会员送3T硬盘一块 限时活动

    地址:立刻参加

    我知道了
    收藏帖子 返回列表 这是一个自定义按钮
    音乐分享,音乐下载。
    微信公众号
    微信号:hires_
    意见反馈:admin@maomicd.com

    加入我们的官方QQ群和微信群

    Powered by Discuz! X3.4 Archiver|手机版|小黑屋|捌零音乐论坛 ( 苏ICP备20015413号 )|( 苏公网安备 32030502000272号) 繁體

    GMT+8, 2021-9-22 22:58