[古典] (Classical) [CD] Strauss - Burleske; Serenade; Tod und Verklarung - Nelson Goerner, Orchestre Philharmonique de Radio France, Mikko Franck - 2021, FLAC (image+.cue) lossless

[复制链接]
tikus75 发表于 2021-9-10 16:56:48 | 显示全部楼层 |阅读模式 打印 上一主题 下一主题
Strauss - Burleske; Serenade; Tod und Verklärung - Nelson Goerner, Orchestre Philharmonique de Radio France, Mikko Franck
Жанр: Classical
Носитель: CD
Страна-производитель диска: France
Год издания диска: 2021
Издатель (лейбл): Alpha Classics
Номер по каталогу: ALPHA 733
Дата записи: 2019-2021
Аудиокодек: FLAC
Тип рипа: image+.cue
Битрейт аудио: lossless
Продолжительность: 55:18
Источник: собственный рип
Наличие сканов в содержимом раздачи: да
Треклист:
Richard Strauss
[1] Burleske in D minor, TRV 145
[2] Serenade for winds in E flat major, Op.7
[3] Tod und Verklärung, Op.24
Исполнители:
Nelson Goerner piano ([1])
Orchestre Philharmonique de Radio France
Mikko Franck
Лог создания рипа

Exact Audio Copy V1.5 from 20. February 2020
EAC extraction logfile from 3. September 2021, 21:18
Nelson Goerner, Orchestre Philharmonique de Radio France, Mikko Franck / Strauss - Burleske; Serenade; Tod und Verklärung
Used drive  : ASUS    SDRW-08U7M-U   Adapter: 1  ID: 0
Read mode               : Secure
Utilize accurate stream : Yes
Defeat audio cache      : Yes
Make use of C2 pointers : No
Read offset correction                      : 6
Overread into Lead-In and Lead-Out          : No
Fill up missing offset samples with silence : Yes
Delete leading and trailing silent blocks   : No
Null samples used in CRC calculations       : Yes
Used interface                              : Native Win32 interface for Win NT & 2000
Used output format              : User Defined Encoder
Selected bitrate                : 128 kBit/s
Quality                         : High
Add ID3 tag                     : No
Command line compressor         : C:\Program Files (x86)\Exact Audio Copy\Flac\flac.exe
Additional command line options : -V -8 -T "Date=%year%" -T "Genre=%genre%" %source%
TOC of the extracted CD
     Track |   Start  |  Length  | Start sector | End sector
    ---------------------------------------------------------
        1  |  0:00.00 | 20:01.06 |         0    |    90080
        2  | 20:01.06 |  8:32.46 |     90081    |   128526
        3  | 28:33.52 | 26:42.39 |    128527    |   248715
Range status and errors
Selected range
     Filename C:\temp\Alpha 733 - Strauss - Burleske; Serenade; Tod und Verklarung - 2021\Strauss - Burleske; Serenade; Tod und Verklarung.wav
     Peak level 98.6 %
     Extraction speed 4.5 X
     Range quality 100.0 %
     Test CRC B2FE696F
     Copy CRC B2FE696F
     Copy OK
No errors occurred
AccurateRip summary
Track  1  not present in database
Track  2  not present in database
Track  3  not present in database
None of the tracks are present in the AccurateRip database
End of status report
==== Log checksum 2561A80EB7B3DA499E6C4CEC836475878060B08DD2956204C2F5CFEC4646A2B3 ====


Содержание индексной карты (.CUE)

REM GENRE Classical
REM DATE 2021
REM DISCID 160CF403
REM COMMENT "ExactAudioCopy v1.5"
PERFORMER "Nelson Goerner, Orchestre Philharmonique de Radio France, Mikko Franck"
TITLE "Strauss - Burleske; Serenade; Tod und Verklärung"
REM COMPOSER "Richard Strauss"
FILE "Strauss - Burleske; Serenade; Tod und Verklarung.flac" WAVE
  TRACK 01 AUDIO
    TITLE "Burleske in D minor, TRV 145"
    PERFORMER "Nelson Goerner, Orchestre Philharmonique de Radio France, Mikko Franck"
    REM COMPOSER "Richard Strauss"
    INDEX 01 00:00:00
  TRACK 02 AUDIO
    TITLE "Serenade for winds in E flat major, Op.7"
    PERFORMER "Solistes de l'Orchestre Philharmonique de Radio France"
    REM COMPOSER "Richard Strauss"
    INDEX 01 20:01:06
  TRACK 03 AUDIO
    TITLE "Tod und Verklärung, Op.24"
    PERFORMER "Orchestre Philharmonique de Radio France, Mikko Franck"
    REM COMPOSER "Richard Strauss"
    INDEX 01 28:33:52

                                                                                       
                       
                       
                       
                       
                       
                                磁力下载(论坛代下载服务)::
                                                               
                                       
付费主题

已有0人支付


                                               
  • 227.5 MB
  • 温馨提示

    记得善用社区搜索功能,那里可能会有你想要的资源;论坛站内搜索

    如果你有什么需要的资源可以去资源求档发帖,求助社区的网友,我们会在第一时间给你回复哦;资源求档

    对于本社区网盘链接失效密码错误各种报错请在反馈板块反馈报错发帖,您的支持,是我们发展的最大动力;投诉建议

    回复

    使用道具 举报

    您需要登录后才可以回帖 登录 | 立即注册 微信登录

    本版积分规则

    关注0

    粉丝1

    帖子31072

    发布主题
    阅读排行更多+
    关闭

    站长推荐上一条 /1 下一条

    活动提示

    赞助永久VIP会员送3T硬盘一块 限时活动

    地址:立刻参加

    我知道了
    收藏帖子 返回列表 这是一个自定义按钮
    音乐分享,音乐下载。
    微信公众号
    微信号:hires_
    意见反馈:admin@maomicd.com

    加入我们的官方QQ群和微信群

    Powered by Discuz! X3.4 Archiver|手机版|小黑屋|捌零音乐论坛 ( 苏ICP备20015413号 )|( 苏公网安备 32030502000272号) 繁體

    GMT+8, 2021-9-24 05:20