[古典] (Classical) Franz Schubert / Франц Шуберт - Symphonies 5 & 8 (Leonard Bernstein) - 1989, FLAC (image+.cue), lossless

[复制链接]
如果有神 发表于 2021-9-10 16:56:48 | 显示全部楼层 |阅读模式 打印 上一主题 下一主题
Franz Schubert
Symphonies 5 & 8
Жанр: Classical
Год выпуска диска: 1989
Производитель диска: DG
Аудио кодек: FLAC
Тип рипа: image+.cue
Битрейт аудио: lossless
Продолжительность: 56:41
Трэклист:
Symphonie Nr. 8 h-moll D 759 'Unvollendete'
1. Allegro moderato
2.Andante con moto
Symphonie Nr. 5 B-dur D 485
3. Allegro
4. Andante con moto
5. Menuetto. Allegro molto - Trio
6. Allegro vivace
Доп. информация:
Concertgebouworkest Amsterdam
Conductor: Leonard Bernstein
Отчёт EAC

Exact Audio Copy V0.99 prebeta 4 from 23. January 2008
EAC extraction logfile from 27. April 2009, 1:43
Concertgebouw Orchestra, Leonard Bernstein / Franz Schubert - Symphonien Nos. 5 & 8
Used drive  : PLEXTOR CD-R   PREMIUM2   Adapter: 1  ID: 1
Read mode               : Secure
Utilize accurate stream : Yes
Defeat audio cache      : Yes
Make use of C2 pointers : No
Read offset correction                      : 30
Overread into Lead-In and Lead-Out          : Yes
Fill up missing offset samples with silence : Yes
Delete leading and trailing silent blocks   : No
Null samples used in CRC calculations       : Yes
Used interface                              : Installed external ASPI interface
Used output format              : User Defined Encoder
Selected bitrate                : 1024 kBit/s
Quality                         : High
Add ID3 tag                     : No
Command line compressor         : C:\My Programs\Exact Audio Copy\FLAC\FLAC.EXE
Additional command line options : -6 -V -T "ARTIST=%a" -T "TITLE=%t" -T "ALBUM=%g" -T "DATE=%y" -T "TRACKNUMBER=%n" -T "GENRE=%m" -T "COMMENT=EAC v0.99pb4 Secure mode / FLAC 1.2.1" %s
TOC of the extracted CD
     Track |   Start  |  Length  | Start sector | End sector
    ---------------------------------------------------------
        1  |  0:00.33 | 13:51.00 |        33    |    62357
        2  | 13:51.33 | 13:03.00 |     62358    |   121082
        3  | 26:54.33 |  7:17.50 |    121083    |   153907
        4  | 34:12.08 | 11:15.00 |    153908    |   204532
        5  | 45:27.08 |  5:38.25 |    204533    |   229907
        6  | 51:05.33 |  5:36.00 |    229908    |   255107
Range status and errors
Selected range
     Filename G:\Classical\Schubert - Symphonies Nos. 5 & 8 (1989) [FLAC] {Concertgebouw Orchestra, Bernstein}\Image.wav
     Peak level 98.9 %
     Range quality 100.0 %
     Test CRC 38CF977D
     Copy CRC 38CF977D
     Copy OK
No errors occurred
AccurateRip summary
Track  1  accurately ripped (confidence 3)  [2E1331AA]
Track  2  accurately ripped (confidence 3)  [778091F8]
Track  3  accurately ripped (confidence 3)  [E70B1918]
Track  4  accurately ripped (confidence 3)  [01382168]
Track  5  accurately ripped (confidence 3)  [8EE113DE]
Track  6  accurately ripped (confidence 3)  [A8B49E35]
All tracks accurately ripped
End of status report

                                                                                       
                       
                       
                       
                       
                       
                                磁力下载(论坛代下载服务)::
                                                               
                                       
付费主题

已有0人支付


                                               
  • 291.2 MB
  • 温馨提示

    记得善用社区搜索功能,那里可能会有你想要的资源;论坛站内搜索

    如果你有什么需要的资源可以去资源求档发帖,求助社区的网友,我们会在第一时间给你回复哦;资源求档

    对于本社区网盘链接失效密码错误各种报错请在反馈板块反馈报错发帖,您的支持,是我们发展的最大动力;投诉建议

    回复

    使用道具 举报

    您需要登录后才可以回帖 登录 | 立即注册 微信登录

    本版积分规则

    发布主题
    阅读排行更多+
    关闭

    站长推荐上一条 /1 下一条

    活动提示

    赞助永久VIP会员送3T硬盘一块 限时活动

    地址:立刻参加

    我知道了
    收藏帖子 返回列表 这是一个自定义按钮
    音乐分享,音乐下载。
    微信公众号
    微信号:hires_
    意见反馈:admin@maomicd.com

    加入我们的官方QQ群和微信群

    Powered by Discuz! X3.4 Archiver|手机版|小黑屋|捌零音乐论坛 ( 苏ICP备20015413号 )|( 苏公网安备 32030502000272号) 繁體

    GMT+8, 2021-9-22 22:23