[古典] ( Orchestral, Baroque ) Georg Philipp Telemann - Musique de table (Tafelmusik) - (Gottfried von der Goltz, Petra Mullejans - Freiburger Barockorchester) - 2009, 4 CD-Box - FLAC (im

[复制链接]
tikus75 发表于 2021-9-10 16:56:48 | 显示全部楼层 |阅读模式 打印 上一主题 下一主题
Georg Philipp Telemann (1681-1767) - Tafelmusik
Жанр: Orchestral
Страна-производитель диска: Italy
Год издания диска: 2010
Издатель (лейбл): Harmonia Mundi
Формат записи: DDD, Stereo
Номер по каталогу: HMC 902042.45
Дата записи: 2009
Аудиокодек: FLAC
Тип рипа: image+.cue
Битрейт аудио: lossless
Продолжительность: 4'03
Источник: собственный рип
Наличие сканов в содержимом раздачи: да
Треклист:
CD 1 - 56:58
01-07: Overture in E minor
08-11: Quartet in G major
12-15: Concerto in A major
CD 2 - 67:52
01-04: Trio in E flat major
05-08: Flute Sonata in B minor
09: Sinfonia in E minor
10-14: Overture in D major
15-16: Quartet in D minor

CD 3 - 49:45
01-03: Concerto in F major
04-07: Trio E minor
08-11: Sonata in A major
12: Conclusion D major
CD 4 - 68:39
01-07: Overture in B flat major
08-11: Quartet in E minor
12-15: Concerto in E flat major
16-19: Trio in D major
20-23: Sonata in G minor
24: Conclusion in B flat major
Исполнители:
Freiburger Barockorchester
Gottfried von der Goltz
Petra Müllejans
Лог создания рипа

CD 1
Exact Audio Copy V0.99 prebeta 5 from 4. May 2009
Отчёт EAC об извлечении, выполненном 25. марта 2011, 10:39
Georg Philipp Telemann / Musique de Table - CD1
Дисковод: ASUS DRW-20B1ST Adapter: 1 ID: 0
Режим чтения : Достоверность
Использование точного потока : Да
Отключение кэша аудио : Да
Использование указателей C2 : Нет
Коррекция смещения при чтении : 6
Способность читать области Lead-in и Lead-out : Нет
Заполнение пропущенных сэмплов тишиной : Да
Удаление блоков с тишиной в начале и конце : Нет
При вычислениях CRC использовались нулевые сэмплы : Да
Интерфейс : Встроенный Win32-интерфейс для Win NT/2000
Выходной формат : Пользовательский кодировщик
Выбранный битрейт : 1024 kBit/s
Качество : Высокий
Добавление ID3-тэга : Нет
Утилита сжатия : C:\Program Files\Exact Audio Copy\FLAC\FLAC.EXE
Дополнительные параметры : -8 -V %s
TOC извлечённого CD
Трек | Старт | Длительность | Начальный сектор | Конечный сектор
---------------------------------------------------------------------
1 | 0:00.00 | 6:00.02 | 0 | 27001
2 | 6:00.02 | 3:30.37 | 27002 | 42788
3 | 9:30.39 | 1:58.17 | 42789 | 51655
4 | 11:28.56 | 2:54.48 | 51656 | 64753
5 | 14:23.29 | 2:33.71 | 64754 | 76299
6 | 16:57.25 | 3:39.31 | 76300 | 92755
7 | 20:36.56 | 2:13.42 | 92756 | 102772
8 | 22:50.23 | 3:38.73 | 102773 | 119195
9 | 26:29.21 | 6:34.59 | 119196 | 148804
10 | 33:04.05 | 0:30.35 | 148805 | 151089
11 | 33:34.40 | 3:08.35 | 151090 | 165224
12 | 36:43.00 | 4:19.39 | 165225 | 184688
13 | 41:02.39 | 6:10.39 | 184689 | 212477
14 | 47:13.03 | 3:42.38 | 212478 | 229165
15 | 50:55.41 | 6:00.74 | 229166 | 256239
Характеристики диапазона извлечения и сообщения об ошибках
Выбранный диапазон
Имя файла D:\EAC\Telemann-Tafelmusik,Freiburger Barockorchester\CD 1\Georg Philipp Telemann - Musique de Table - CD1.wav
Пиковый уровень 96.6 %
Качество диапазона 100.0 %
CRC теста 0A70DE88
CRC копии 0A70DE88
Копирование... OK
Ошибок не произошло
AccurateRip: сводка
Трек 1 точное извлечение (доверие 3) [6E847BC6]
Трек 2 точное извлечение (доверие 3) [4468CBED]
Трек 3 точное извлечение (доверие 3) [090B755A]
Трек 4 точное извлечение (доверие 3) [4C0AF683]
Трек 5 точное извлечение (доверие 3) [F340F7B8]
Трек 6 точное извлечение (доверие 3) [134991BA]
Трек 7 точное извлечение (доверие 3) [C8A1C4E6]
Трек 8 точное извлечение (доверие 3) [D8484CAA]
Трек 9 точное извлечение (доверие 3) [7A6D9A11]
Трек 10 точное извлечение (доверие 3) [A60D58C8]
Трек 11 точное извлечение (доверие 3) [57598D6C]
Трек 12 точное извлечение (доверие 3) [04192D44]
Трек 13 точное извлечение (доверие 3) [7C4376F7]
Трек 14 точное извлечение (доверие 3) [CE8731FA]
Трек 15 точное извлечение (доверие 3) [4493318A]
Все треки извлечены точно
Конец отчёта

CD 2
Exact Audio Copy V0.99 prebeta 5 from 4. May 2009
Отчёт EAC об извлечении, выполненном 25. марта 2011, 11:12
Georg Philipp Telemann / Musique de Table - CD2
Дисковод: ASUS DRW-20B1ST Adapter: 1 ID: 0
Режим чтения : Достоверность
Использование точного потока : Да
Отключение кэша аудио : Да
Использование указателей C2 : Нет
Коррекция смещения при чтении : 6
Способность читать области Lead-in и Lead-out : Нет
Заполнение пропущенных сэмплов тишиной : Да
Удаление блоков с тишиной в начале и конце : Нет
При вычислениях CRC использовались нулевые сэмплы : Да
Интерфейс : Встроенный Win32-интерфейс для Win NT/2000
Выходной формат : Пользовательский кодировщик
Выбранный битрейт : 1024 kBit/s
Качество : Высокий
Добавление ID3-тэга : Нет
Утилита сжатия : C:\Program Files\Exact Audio Copy\FLAC\FLAC.EXE
Дополнительные параметры : -8 -V %s
TOC извлечённого CD
Трек | Старт | Длительность | Начальный сектор | Конечный сектор
---------------------------------------------------------------------
1 | 0:00.00 | 2:59.53 | 0 | 13477
2 | 2:59.53 | 3:35.60 | 13478 | 29662
3 | 6:35.38 | 2:37.13 | 29663 | 41450
4 | 9:12.51 | 3:28.19 | 41451 | 57069
5 | 12:40.70 | 3:29.08 | 57070 | 72752
6 | 16:10.03 | 2:12.23 | 72753 | 82675
7 | 18:22.26 | 3:34.72 | 82676 | 98797
8 | 21:57.23 | 3:16.43 | 98798 | 113540
9 | 25:13.66 | 4:49.62 | 113541 | 135277
10 | 30:03.53 | 6:28.60 | 135278 | 164437
11 | 36:32.38 | 4:32.30 | 164438 | 184867
12 | 41:04.68 | 2:56.23 | 184868 | 198090
13 | 44:01.16 | 3:42.28 | 198091 | 214768
14 | 47:43.44 | 4:00.60 | 214769 | 232828
15 | 51:44.29 | 3:19.21 | 232829 | 247774
16 | 55:03.50 | 4:26.61 | 247775 | 267785
17 | 59:30.36 | 3:24.01 | 267786 | 283086
18 | 62:54.37 | 4:55.68 | 283087 | 305279
Характеристики диапазона извлечения и сообщения об ошибках
Выбранный диапазон
Имя файла D:\EAC\Telemann-Tafelmusik,Freiburger Barockorchester\CD 2\Georg Philipp Telemann - Musique de Table - CD2.wav
Пиковый уровень 96.6 %
Качество диапазона 100.0 %
CRC теста 9B19B5FA
CRC копии 9B19B5FA
Копирование... OK
Ошибок не произошло
AccurateRip: сводка
Трек 1 точное извлечение (доверие 2) [86BA98FC]
Трек 2 точное извлечение (доверие 2) [181D8037]
Трек 3 точное извлечение (доверие 2) [877D1761]
Трек 4 точное извлечение (доверие 2) [E653B1A5]
Трек 5 точное извлечение (доверие 2) [7AA0822E]
Трек 6 точное извлечение (доверие 2) [03BD32EA]
Трек 7 точное извлечение (доверие 2) [A23F77F8]
Трек 8 точное извлечение (доверие 2) [E45B0300]
Трек 9 точное извлечение (доверие 2) [E7AC9EEC]
Трек 10 точное извлечение (доверие 2) [D4879005]
Трек 11 точное извлечение (доверие 2) [7D484701]
Трек 12 точное извлечение (доверие 2) [5BE86456]
Трек 13 точное извлечение (доверие 2) [91E0998B]
Трек 14 точное извлечение (доверие 2) [E7747683]
Трек 15 точное извлечение (доверие 2) [4F4D4094]
Трек 16 точное извлечение (доверие 2) [82715C08]
Трек 17 точное извлечение (доверие 2) [4C2EA984]
Трек 18 точное извлечение (доверие 2) [8518230C]
Все треки извлечены точно
Конец отчёта

CD 3
Exact Audio Copy V0.99 prebeta 5 from 4. May 2009
Отчёт EAC об извлечении, выполненном 25. марта 2011, 12:15
Georg Philipp Telemann / Musique de Table - CD 3
Дисковод: ASUS DRW-20B1ST Adapter: 1 ID: 0
Режим чтения : Достоверность
Использование точного потока : Да
Отключение кэша аудио : Да
Использование указателей C2 : Нет
Коррекция смещения при чтении : 6
Способность читать области Lead-in и Lead-out : Нет
Заполнение пропущенных сэмплов тишиной : Да
Удаление блоков с тишиной в начале и конце : Нет
При вычислениях CRC использовались нулевые сэмплы : Да
Интерфейс : Встроенный Win32-интерфейс для Win NT/2000
Выходной формат : Пользовательский кодировщик
Выбранный битрейт : 1024 kBit/s
Качество : Высокий
Добавление ID3-тэга : Нет
Утилита сжатия : C:\Program Files\Exact Audio Copy\FLAC\FLAC.EXE
Дополнительные параметры : -8 -V %s
TOC извлечённого CD
Трек | Старт | Длительность | Начальный сектор | Конечный сектор
---------------------------------------------------------------------
1 | 0:00.00 | 5:03.58 | 0 | 22782
2 | 5:03.58 | 5:21.25 | 22783 | 46882
3 | 10:25.08 | 3:11.69 | 46883 | 61276
4 | 13:37.02 | 3:39.24 | 61277 | 77725
5 | 17:16.26 | 2:51.28 | 77726 | 90578
6 | 20:07.54 | 4:40.05 | 90579 | 111583
7 | 24:47.59 | 3:51.41 | 111584 | 128949
8 | 28:39.25 | 1:59.53 | 128950 | 137927
9 | 30:39.03 | 4:12.38 | 137928 | 156865
10 | 34:51.41 | 3:56.26 | 156866 | 174591
11 | 38:47.67 | 4:18.06 | 174592 | 193947
12 | 43:05.73 | 6:37.15 | 193948 | 223737
Характеристики диапазона извлечения и сообщения об ошибках
Выбранный диапазон
Имя файла D:\EAC\Telemann-Tafelmusik,Freiburger Barockorchester\CD 3\Georg Philipp Telemann - Musique de Table - CD 3.wav
Пиковый уровень 96.6 %
Качество диапазона 100.0 %
CRC теста 7FBEE9DE
CRC копии 7FBEE9DE
Копирование... OK
Ошибок не произошло
AccurateRip: сводка
Трек 1 точное извлечение (доверие 2) [49DC727A]
Трек 2 точное извлечение (доверие 2) [9F4B7015]
Трек 3 точное извлечение (доверие 2) [C160BC15]
Трек 4 точное извлечение (доверие 2) [CF40E5C8]
Трек 5 точное извлечение (доверие 2) [CFFCA764]
Трек 6 точное извлечение (доверие 2) [96527BCC]
Трек 7 точное извлечение (доверие 2) [40B7E181]
Трек 8 точное извлечение (доверие 2) [874F5FCC]
Трек 9 точное извлечение (доверие 2) [D2DE1D0D]
Трек 10 точное извлечение (доверие 2) [D44D689E]
Трек 11 точное извлечение (доверие 2) [7844EE13]
Трек 12 точное извлечение (доверие 2) [C70A0328]
Все треки извлечены точно
Конец отчёта

CD 4
Exact Audio Copy V0.99 prebeta 5 from 4. May 2009
Отчёт EAC об извлечении, выполненном 25. марта 2011, 12:46
Georg Philipp Telemann / The Complete Tafelmusik - Cd4
Дисковод: ASUS DRW-20B1ST Adapter: 1 ID: 0
Режим чтения : Достоверность
Использование точного потока : Да
Отключение кэша аудио : Да
Использование указателей C2 : Нет
Коррекция смещения при чтении : 6
Способность читать области Lead-in и Lead-out : Нет
Заполнение пропущенных сэмплов тишиной : Да
Удаление блоков с тишиной в начале и конце : Нет
При вычислениях CRC использовались нулевые сэмплы : Да
Интерфейс : Встроенный Win32-интерфейс для Win NT/2000
Выходной формат : Пользовательский кодировщик
Выбранный битрейт : 1024 kBit/s
Качество : Высокий
Добавление ID3-тэга : Нет
Утилита сжатия : C:\Program Files\Exact Audio Copy\FLAC\FLAC.EXE
Дополнительные параметры : -8 -V %s
TOC извлечённого CD
Трек | Старт | Длительность | Начальный сектор | Конечный сектор
---------------------------------------------------------------------
1 | 0:00.00 | 5:37.40 | 0 | 25314
2 | 5:37.40 | 2:41.21 | 25315 | 37410
3 | 8:18.61 | 2:20.63 | 37411 | 47973
4 | 10:39.49 | 1:50.17 | 47974 | 56240
5 | 12:29.66 | 3:18.14 | 56241 | 71104
6 | 15:48.05 | 2:26.41 | 71105 | 82095
7 | 18:14.46 | 2:56.15 | 82096 | 95310
8 | 21:10.61 | 2:22.41 | 95311 | 106001
9 | 23:33.27 | 2:00.52 | 106002 | 115053
10 | 25:34.04 | 2:30.07 | 115054 | 126310
11 | 28:04.11 | 1:58.56 | 126311 | 135216
12 | 30:02.67 | 3:34.58 | 135217 | 151324
13 | 33:37.50 | 4:13.11 | 151325 | 170310
14 | 37:50.61 | 3:11.12 | 170311 | 184647
15 | 41:01.73 | 4:22.01 | 184648 | 204298
16 | 45:23.74 | 2:17.43 | 204299 | 214616
17 | 47:41.42 | 2:06.04 | 214617 | 224070
18 | 49:47.46 | 2:39.58 | 224071 | 236053
19 | 52:27.29 | 2:06.39 | 236054 | 245542
20 | 54:33.68 | 3:00.42 | 245543 | 259084
21 | 57:34.35 | 4:59.34 | 259085 | 281543
22 | 62:33.69 | 1:26.65 | 281544 | 288058
23 | 64:00.59 | 2:50.25 | 288059 | 300833
24 | 66:51.09 | 1:45.73 | 300834 | 308781
Характеристики диапазона извлечения и сообщения об ошибках
Выбранный диапазон
Имя файла D:\EAC\Telemann-Tafelmusik,Freiburger Barockorchester\CD 4\Georg Philipp Telemann - The Complete Tafelmusik - Cd4.wav
Пиковый уровень 96.6 %
Качество диапазона 100.0 %
CRC теста D45FB9AA
CRC копии D45FB9AA
Копирование... OK
Ошибок не произошло
AccurateRip: сводка
Трек 1 точное извлечение (доверие 2) [0DB8D3A1]
Трек 2 точное извлечение (доверие 2) [F6E72376]
Трек 3 точное извлечение (доверие 2) [8489F4DD]
Трек 4 точное извлечение (доверие 2) [6F1A11D1]
Трек 5 точное извлечение (доверие 2) [A60FC5AC]
Трек 6 точное извлечение (доверие 2) [AC3B4832]
Трек 7 точное извлечение (доверие 2) [28774896]
Трек 8 точное извлечение (доверие 2) [B28C7EBE]
Трек 9 точное извлечение (доверие 2) [AA1D11C4]
Трек 10 точное извлечение (доверие 2) [06D79A22]
Трек 11 точное извлечение (доверие 2) [B2955D3E]
Трек 12 точное извлечение (доверие 2) [AA083329]
Трек 13 точное извлечение (доверие 2) [836C6020]
Трек 14 точное извлечение (доверие 2) [2ED8F59A]
Трек 15 точное извлечение (доверие 2) [01848C9B]
Трек 16 точное извлечение (доверие 2) [8F52DA7E]
Трек 17 точное извлечение (доверие 2) [01961106]
Трек 18 точное извлечение (доверие 2) [0556AE53]
Трек 19 точное извлечение (доверие 2) [6AE0CEC1]
Трек 20 точное извлечение (доверие 2) [3D66E227]
Трек 21 точное извлечение (доверие 2) [1758A307]
Трек 22 точное извлечение (доверие 2) [9006CA3C]
Трек 23 точное извлечение (доверие 2) [262A7801]
Трек 24 точное извлечение (доверие 2) [04709699]
Все треки извлечены точно
Конец отчёта


Содержание индексной карты (.CUE)

CD 1
REM GENRE Classical
REM DATE 2010
REM DISCID CE0D580F
REM COMMENT "ExactAudioCopy v0.99pb5"
PERFORMER "Georg Philipp Telemann"
TITLE "Musique de Table - CD1"
FILE "Georg Philipp Telemann - Musique de Table - CD1.flac" WAVE
TRACK 01 AUDIO
TITLE "Overture in e-moll, I Overture, Lentement Vite Lentement"
PERFORMER "Georg Philipp Telemann"
ISRC FRYA20905010
INDEX 01 00:00:00
TRACK 02 AUDIO
TITLE "Overture in e-moll, II Rejouissance"
PERFORMER "Georg Philipp Telemann"
ISRC FRYA20905020
INDEX 01 06:00:02
TRACK 03 AUDIO
TITLE "Overture in e-moll, III Rondeau"
PERFORMER "Georg Philipp Telemann"
ISRC FRYA20905030
INDEX 01 09:30:39
TRACK 04 AUDIO
TITLE "Overture in e-moll, IV Loure"
PERFORMER "Georg Philipp Telemann"
ISRC FRYA20905040
INDEX 01 11:28:56
TRACK 05 AUDIO
TITLE "Overture in e-moll, V Passepied"
PERFORMER "Georg Philipp Telemann"
ISRC FRYA20905050
INDEX 01 14:23:29
TRACK 06 AUDIO
TITLE "Overture in e-moll, VI Air un peu Vivement"
PERFORMER "Georg Philipp Telemann"
ISRC FRYA20905060
INDEX 01 16:57:25
TRACK 07 AUDIO
TITLE "Overture in e-moll, VII Gigue"
PERFORMER "Georg Philipp Telemann"
ISRC FRYA20905070
INDEX 01 20:36:56
TRACK 08 AUDIO
TITLE "Quartett in G-Dur, I Largo"
PERFORMER "Georg Philipp Telemann"
ISRC FRYA20905080
INDEX 00 22:45:24
INDEX 01 22:50:23
TRACK 09 AUDIO
TITLE "Quartett in G-Dur, II Vivace"
PERFORMER "Georg Philipp Telemann"
ISRC FRYA20905090
INDEX 01 26:29:21
TRACK 10 AUDIO
TITLE "Quartett in G-Dur, III Grave"
PERFORMER "Georg Philipp Telemann"
ISRC FRYA20905090
INDEX 01 33:04:05
TRACK 11 AUDIO
TITLE "Quartett in G-Dur, IV Vivace"
PERFORMER "Georg Philipp Telemann"
ISRC FRYA20905110
INDEX 01 33:34:40
TRACK 12 AUDIO
TITLE "Konzert fur Flote, Violine und Cello in A-Dur, I Largo"
PERFORMER "Georg Philipp Telemann"
ISRC FRYA20905120
INDEX 00 36:39:18
INDEX 01 36:43:00
TRACK 13 AUDIO
TITLE "Konzert fur Flote, Violine und Cello in A-Dur, II Allegro"
PERFORMER "Georg Philipp Telemann"
ISRC FRYA20905130
INDEX 01 41:02:39
TRACK 14 AUDIO
TITLE "Konzert fur Flote, Violine und Cello in A-Dur, III Gratioso"
PERFORMER "Georg Philipp Telemann"
ISRC FRYA20905140
INDEX 01 47:13:03
TRACK 15 AUDIO
TITLE "Konzert fur Flote, Violine und Cello in A-Dur, IV Allegro"
PERFORMER "Georg Philipp Telemann"
ISRC FRYA20905150
INDEX 01 50:55:41

CD 2
REM GENRE Classical
REM DATE 2010
REM DISCID 000FE612
REM COMMENT "ExactAudioCopy v0.99pb5"
PERFORMER "Georg Philipp Telemann"
TITLE "Musique de Table - CD2"
FILE "Georg Philipp Telemann - Musique de Table - CD2.flac" WAVE
TRACK 01 AUDIO
TITLE "01 - Trio in Es-Dur - 1 affettuoso"
PERFORMER "Georg Philipp Telemann"
ISRC FRYA20906010
INDEX 01 00:00:00
TRACK 02 AUDIO
TITLE "02 - Trio in Es-Dur - 2 vivace"
PERFORMER "Georg Philipp Telemann"
ISRC FRYA20906020
INDEX 01 02:59:53
TRACK 03 AUDIO
TITLE "03 - Trio in Es-Dur - 3 grave"
PERFORMER "Georg Philipp Telemann"
ISRC FRYA20906030
INDEX 01 06:35:38
TRACK 04 AUDIO
TITLE "04 - Trio in Es-Dur - 4 allegro"
PERFORMER "Georg Philipp Telemann"
ISRC FRYA20906040
INDEX 01 09:12:51
TRACK 05 AUDIO
TITLE "05 - Flotensonate in h-moll - 1 cantabile"
PERFORMER "Georg Philipp Telemann"
ISRC FRYA20906050
INDEX 00 12:37:02
INDEX 01 12:40:70
TRACK 06 AUDIO
TITLE "06 - Flotensonate in h-moll - 2 allegro"
PERFORMER "Georg Philipp Telemann"
ISRC FRYA20906060
INDEX 01 16:10:03
TRACK 07 AUDIO
TITLE "07 - Flotensonate in h-moll - 3 dolce"
PERFORMER "Georg Philipp Telemann"
ISRC FRYA20906070
INDEX 01 18:22:26
TRACK 08 AUDIO
TITLE "08 - Flotensonate in h-moll - 4 allegro"
PERFORMER "Georg Philipp Telemann"
ISRC FRYA20906080
INDEX 01 21:57:23
TRACK 09 AUDIO
TITLE "09 - Sinfonie in e-moll 'Conclusion' - allegro"
PERFORMER "Georg Philipp Telemann"
ISRC FRYA20906090
INDEX 01 25:13:66
TRACK 10 AUDIO
TITLE "10 -Overture in D-Dur - 1 ouverture, lentement"
PERFORMER "Georg Philipp Telemann"
ISRC FRYA20906100
INDEX 00 29:55:46
INDEX 01 30:03:53
TRACK 11 AUDIO
TITLE "11 -Overture in D-Dur - 2 air, tempo giusto"
PERFORMER "Georg Philipp Telemann"
ISRC FRYA20906110
INDEX 01 36:32:38
TRACK 12 AUDIO
TITLE "12 -Overture in D-Dur - 3 air, vivace"
PERFORMER "Georg Philipp Telemann"
ISRC FRYA20906120
INDEX 01 41:04:68
TRACK 13 AUDIO
TITLE "13 -Overture in D-Dur - 4 air, presto"
PERFORMER "Georg Philipp Telemann"
ISRC FRYA20906130
INDEX 01 44:01:16
TRACK 14 AUDIO
TITLE "14 -Overture in D-Dur - 5 air, allegro"
PERFORMER "Georg Philipp Telemann"
ISRC FRYA20906140
INDEX 01 47:43:44
TRACK 15 AUDIO
TITLE "15 - Quartett in d-moll - 1 andante"
PERFORMER "Georg Philipp Telemann"
ISRC FRYA20906150
INDEX 00 51:40:63
INDEX 01 51:44:29
TRACK 16 AUDIO
TITLE "16 - Quartett in d-moll - 2 vivace"
PERFORMER "Georg Philipp Telemann"
ISRC FRYA20906160
INDEX 01 55:03:50
TRACK 17 AUDIO
TITLE "17 - Quartett in d-moll - 3 largo"
PERFORMER "Georg Philipp Telemann"
ISRC FRYA20906160
INDEX 01 59:30:36
TRACK 18 AUDIO
TITLE "18 - Quartett in d-moll - 4 allegro"
PERFORMER "Georg Philipp Telemann"
ISRC FRYA20906180
INDEX 01 62:54:37

CD 3
REM GENRE Classical
REM DATE 2010
REM DISCID A60BA70C
REM COMMENT "ExactAudioCopy v0.99pb5"
PERFORMER "Georg Philipp Telemann"
TITLE "Musique de Table - CD 3"
FILE "Georg Philipp Telemann - Musique de Table - CD 3.flac" WAVE
TRACK 01 AUDIO
TITLE "Konzert fur 3 Violinen F-Dur; I. Allegro"
PERFORMER "Georg Philipp Telemann"
ISRC FRYA20907010
INDEX 01 00:00:00
TRACK 02 AUDIO
TITLE "Konzert fur 3 Violinen F-Dur; II. Largo"
PERFORMER "Georg Philipp Telemann"
ISRC FRYA20907020
INDEX 01 05:03:58
TRACK 03 AUDIO
TITLE "Konzert fur 3 Violinen F-Dur; III. Vivace"
PERFORMER "Georg Philipp Telemann"
ISRC FRYA20907030
INDEX 01 10:25:08
TRACK 04 AUDIO
TITLE "Trio in e-moll; I. Affettuoso"
PERFORMER "Georg Philipp Telemann"
ISRC FRYA20907040
INDEX 00 13:32:53
INDEX 01 13:37:02
TRACK 05 AUDIO
TITLE "Trio in e-moll; II. Allegro"
PERFORMER "Georg Philipp Telemann"
ISRC FRYA20907050
INDEX 01 17:16:26
TRACK 06 AUDIO
TITLE "Trio in e-moll; III. Dolce"
PERFORMER "Georg Philipp Telemann"
ISRC FRYA20907060
INDEX 01 20:07:54
TRACK 07 AUDIO
TITLE "Trio in e-moll; IV. Vivace"
PERFORMER "Georg Philipp Telemann"
ISRC FRYA20907070
INDEX 01 24:47:59
TRACK 08 AUDIO
TITLE "Violinensonate in A-Dur; I. Andante"
PERFORMER "Georg Philipp Telemann"
ISRC FRYA20907080
INDEX 00 28:35:07
INDEX 01 28:39:25
TRACK 09 AUDIO
TITLE "Violinensonate in A-Dur; II. Vivace"
PERFORMER "Georg Philipp Telemann"
ISRC FRYA20907090
INDEX 01 30:39:03
TRACK 10 AUDIO
TITLE "Violinensonate in A-Dur; III. Cantabile"
PERFORMER "Georg Philipp Telemann"
ISRC FRYA20907100
INDEX 01 34:51:41
TRACK 11 AUDIO
TITLE "Violinensonate in A-Dur; IV. Allegro - Adagio - Allegro - Adagio"
PERFORMER "Georg Philipp Telemann"
ISRC FRYA20907110
INDEX 01 38:47:67
TRACK 12 AUDIO
TITLE "Conclusion in D-Dur; Allegro - Adagio - Allegro"
PERFORMER "Georg Philipp Telemann"
ISRC FRYA20907120
INDEX 01 43:05:73

CD 4
REM GENRE Classical
REM DATE 2010
REM DISCID 5D101518
REM COMMENT "ExactAudioCopy v0.99pb5"
PERFORMER "Georg Philipp Telemann"
TITLE "The Complete Tafelmusik - Cd4"
FILE "Georg Philipp Telemann - The Complete Tafelmusik - Cd4.flac" WAVE
TRACK 01 AUDIO
TITLE "Overture in Si flat major, I Ouverture, Lentement"
PERFORMER "Georg Philipp Telemann"
ISRC FRYA20920010
INDEX 01 00:00:00
TRACK 02 AUDIO
TITLE "Overture in Si flat major, II Bergerie"
PERFORMER "Georg Philipp Telemann"
ISRC FRYA20920020
INDEX 01 05:37:40
TRACK 03 AUDIO
TITLE "Overture in Si flat major, III Allegresse, vite"
PERFORMER "Georg Philipp Telemann"
ISRC FRYA20920030
INDEX 01 08:18:61
TRACK 04 AUDIO
TITLE "Overture in Si flat major, IV Postillons"
PERFORMER "Georg Philipp Telemann"
ISRC FRYA20920040
INDEX 01 10:39:49
TRACK 05 AUDIO
TITLE "Overture in Si flat major, V Flaterie"
PERFORMER "Georg Philipp Telemann"
ISRC FRYA20920050
INDEX 01 12:29:66
TRACK 06 AUDIO
TITLE "Overture in Si flat major, VI Badinage"
PERFORMER "Georg Philipp Telemann"
ISRC FRYA20920060
INDEX 01 15:48:05
TRACK 07 AUDIO
TITLE "Overture in Si flat major, VII Menuet"
PERFORMER "Georg Philipp Telemann"
ISRC FRYA20920070
INDEX 01 18:14:46
TRACK 08 AUDIO
TITLE "Quartet in Mi minor, I Adagio"
PERFORMER "Georg Philipp Telemann"
ISRC FRYA20920080
INDEX 00 21:07:25
INDEX 01 21:10:61
TRACK 09 AUDIO
TITLE "Quartet in Mi minor, II Allegro"
PERFORMER "Georg Philipp Telemann"
ISRC FRYA20920090
INDEX 01 23:33:27
TRACK 10 AUDIO
TITLE "Quartet in Mi minor, III Dolce"
PERFORMER "Georg Philipp Telemann"
ISRC FRYA20920100
INDEX 01 25:34:04
TRACK 11 AUDIO
TITLE "Quartet in Mi minor, IV Allegro"
PERFORMER "Georg Philipp Telemann"
ISRC FRYA20920110
INDEX 01 28:04:11
TRACK 12 AUDIO
TITLE "Concerto for two Horns as Strings in Mi flat major, I Maestoso"
PERFORMER "Georg Philipp Telemann"
ISRC FRYA20920120
INDEX 00 29:59:21
INDEX 01 30:02:67
TRACK 13 AUDIO
TITLE "Concerto for two Horns as Strings in Mi flat major, II Allegro"
PERFORMER "Georg Philipp Telemann"
ISRC FRYA20920130
INDEX 01 33:37:50
TRACK 14 AUDIO
TITLE "Concerto for two Horns as Strings in Mi flat major, III Grave"
PERFORMER "Georg Philipp Telemann"
ISRC FRYA20920140
INDEX 01 37:50:61
TRACK 15 AUDIO
TITLE "Concerto for two Horns as Strings in Mi flat major, IV Vivace"
PERFORMER "Georg Philipp Telemann"
ISRC FRYA20920150
INDEX 01 41:01:73
TRACK 16 AUDIO
TITLE "Trio in Re major, I Andante"
PERFORMER "Georg Philipp Telemann"
ISRC FRYA20920160
INDEX 00 45:19:53
INDEX 01 45:23:74
TRACK 17 AUDIO
TITLE "Trio in Re major, II Allegro"
PERFORMER "Georg Philipp Telemann"
ISRC FRYA20920170
INDEX 01 47:41:42
TRACK 18 AUDIO
TITLE "Trio in Re major, III Grave - Largo - Grave"
PERFORMER "Georg Philipp Telemann"
ISRC FRYA20920180
INDEX 01 49:47:46
TRACK 19 AUDIO
TITLE "Trio in Re major, IV Vivace"
PERFORMER "Georg Philipp Telemann"
ISRC FRYA20920190
INDEX 01 52:27:29
TRACK 20 AUDIO
TITLE "Oboe Sonata in Sol minor, I Largo"
PERFORMER "Georg Philipp Telemann"
ISRC FRYA20920200
INDEX 00 54:31:22
INDEX 01 54:33:68
TRACK 21 AUDIO
TITLE "Oboe Sonata in Sol minor, II Presto, Tempo Giusto"
PERFORMER "Georg Philipp Telemann"
ISRC FRYA20920210
INDEX 01 57:34:35
TRACK 22 AUDIO
TITLE "Oboe Sonata in Sol minor, III Andante"
PERFORMER "Georg Philipp Telemann"
ISRC FRYA20920220
INDEX 01 62:33:69
TRACK 23 AUDIO
TITLE "Oboe Sonata in Sol minor, IV Allegro"
PERFORMER "Georg Philipp Telemann"
ISRC FRYA20920230
INDEX 01 64:00:59
TRACK 24 AUDIO
TITLE "Conclusion in Si flat major, Allegro - Adagio - Allegro"
PERFORMER "Georg Philipp Telemann"
ISRC FRYA20920240
INDEX 01 66:51:09




мои раздачи

                                                                                       
                       
                       
                       
                       
                       
                                磁力下载(论坛代下载服务)::
                                                               
                                       
付费主题

已有0人支付


                                               
  • 1.25 GB
  • 温馨提示

    记得善用社区搜索功能,那里可能会有你想要的资源;论坛站内搜索

    如果你有什么需要的资源可以去资源求档发帖,求助社区的网友,我们会在第一时间给你回复哦;资源求档

    对于本社区网盘链接失效密码错误各种报错请在反馈板块反馈报错发帖,您的支持,是我们发展的最大动力;投诉建议

    回复

    使用道具 举报

    您需要登录后才可以回帖 登录 | 立即注册 微信登录

    本版积分规则

    关注0

    粉丝1

    帖子31072

    发布主题
    阅读排行更多+
    关闭

    站长推荐上一条 /1 下一条

    活动提示

    赞助永久VIP会员送3T硬盘一块 限时活动

    地址:立刻参加

    我知道了
    收藏帖子 返回列表 这是一个自定义按钮
    音乐分享,音乐下载。
    微信公众号
    微信号:hires_
    意见反馈:admin@maomicd.com

    加入我们的官方QQ群和微信群

    Powered by Discuz! X3.4 Archiver|手机版|小黑屋|捌零音乐论坛 ( 苏ICP备20015413号 )|( 苏公网安备 32030502000272号) 繁體

    GMT+8, 2021-9-24 05:12