[古典] (Classical, violin) Сергей Танеев - Концертная сюита для скрипки и оркестра, Op.28; Увертюра "Орестея" - Pekka Kuusisto, Helsinki Philharmonic Orchestra, Владимир

[复制链接]
10086 发表于 6 天前 | 显示全部楼层 |阅读模式 打印 上一主题 下一主题
Сергей Танеев - Концертная сюита для скpипки и оркестра, Op.28; Увертюра "Орестея" - Pekka Kuusisto, Helsinki Philharmonic Orchestra, Владимир Ашкенази
Жанр: Classical, violin
Страна-производитель диска: Finland
Год издания диска: 2000
Издатель (лейбл): Ondine
Номер по каталогу: ODE 959-2
Дата записи: 2000
Аудиокодек: FLAC
Тип рипа: image+.cue
Битрейт аудио: lossless
Продолжительность: 64:57
Источник: собственный рип
Наличие сканов в содержимом раздачи: да
Треклист:
Сергей Иванович Танеев (1856-1915)
[1]-[12] Концертная сюита для скpипки и оркестра, Op.28
[13] "Храм Аполлона в Дельфах"
Антракт к 2-й картине 3-й части музыкальной трилогии "Орестея"
[14] Увертюра "Орестея"
Исполнители:
Pekka Kuusisto violin
Helsinki Philharmonic Orchestra
Владимир Ашкенази conductor
Лог создания рипа

Exact Audio Copy V1.0 beta 3 from 29. August 2011
EAC extraction logfile from 1. February 2012, 17:23
Helsinki Philharmonic Orchestra, Vladimir Ashkenazy / Taneyev - Concert Suite for Violin and Orchestra
Used drive  : Optiarc DVD+-RW AD-5170S   Adapter: 1  ID: 2
Read mode               : Secure
Utilize accurate stream : Yes
Defeat audio cache      : Yes
Make use of C2 pointers : No
Read offset correction                      : 48
Overread into Lead-In and Lead-Out          : No
Fill up missing offset samples with silence : Yes
Delete leading and trailing silent blocks   : No
Null samples used in CRC calculations       : Yes
Used interface                              : Native Win32 interface for Win NT & 2000
Used output format              : User Defined Encoder
Selected bitrate                : 896 kBit/s
Quality                         : High
Add ID3 tag                     : Yes
Command line compressor         : C:\Program Files\Exact Audio Copy\Flac\flac.exe
Additional command line options : -V -8 %source%
TOC of the extracted CD
     Track |   Start  |  Length  | Start sector | End sector
    ---------------------------------------------------------
        1  |  0:00.00 |  7:03.37 |         0    |    31761
        2  |  7:03.37 |  5:55.44 |     31762    |    58430
        3  | 12:59.06 |  9:26.36 |     58431    |   100916
        4  | 22:25.42 |  0:57.36 |    100917    |   105227
        5  | 23:23.03 |  1:08.39 |    105228    |   110366
        6  | 24:31.42 |  1:26.48 |    110367    |   116864
        7  | 25:58.15 |  1:55.18 |    116865    |   125507
        8  | 27:53.33 |  1:44.22 |    125508    |   133329
        9  | 29:37.55 |  0:50.37 |    133330    |   137116
       10  | 30:28.17 |  1:25.22 |    137117    |   143513
       11  | 31:53.39 |  3:56.08 |    143514    |   161221
       12  | 35:49.47 |  6:46.28 |    161222    |   191699
       13  | 42:36.00 |  5:33.00 |    191700    |   216674
       14  | 48:09.00 | 16:48.34 |    216675    |   292308
Range status and errors
Selected range
     Filename D:\temp\pics\Taneyev - Concert Suite for Violin and Orchestra\Taneyev - Concert Suite for Violin and Orchestra.wav
     Peak level 100.0 %
     Extraction speed 5.4 X
     Range quality 100.0 %
     Test CRC D0967AC6
     Copy CRC D0967AC6
     Copy OK
No errors occurred
End of status report
==== Log checksum 4F1128CE7F9F830FD4968427CF37AC47D948E7F885F8C1F8C9D97C523E5EF171 ====

                                                                                       
                       
                       
                       
                       
                       
                                磁力下载(论坛代下载服务)::
                                                               
                                       
付费主题

已有0人支付


                                               
  • 295.7 MB
  • 温馨提示

    记得善用社区搜索功能,那里可能会有你想要的资源;论坛站内搜索

    如果你有什么需要的资源可以去资源求档发帖,求助社区的网友,我们会在第一时间给你回复哦;资源求档

    对于本社区网盘链接失效密码错误各种报错请在反馈板块反馈报错发帖,您的支持,是我们发展的最大动力;投诉建议

    回复

    使用道具 举报

    您需要登录后才可以回帖 登录 | 立即注册 微信登录

    本版积分规则

    关注0

    粉丝7

    帖子52319

    发布主题
    阅读排行更多+
    关闭

    站长推荐上一条 /1 下一条

    活动提示

    赞助永久VIP会员送3T硬盘一块 限时活动

    地址:立刻参加

    我知道了
    收藏帖子 返回列表 这是一个自定义按钮
    音乐分享,音乐下载。
    微信公众号
    微信号:hires_
    意见反馈:admin@maomicd.com

    加入我们的官方QQ群和微信群

    Powered by Discuz! X3.4 Archiver|手机版|小黑屋|捌零音乐论坛 ( 苏ICP备20015413号 )|( 苏公网安备 32030502000272号) 繁體

    GMT+8, 2021-9-16 23:49