[古典] (Classical) Gustav Mahler - Symphony No.6 / Густав Малер - Симфония №6 (Bernard Haitink, Chicago Symphony Orchestra / Бернард Хайтинк, Чикагский Симфонический Оркестр) - 2008, FLAC

[复制链接]
10086 发表于 2021-9-10 16:56:47 | 显示全部楼层 |阅读模式 打印 上一主题 下一主题
Gustav Mahler - Symphony No.6 / Густав Малер - Симфония №6 (Bernard Haitink, Chicago Symphony Orchestra / Бернард Хайтинк, Чикагский Симфонический Оркестр)
Жанр: Classical|Orchestral|Symphony
Страна-производитель диска: США (USA)
Год издания диска: 2008
Издатель (лейбл): CSO Resound
Номер по каталогу: CSOR 901 804
Дата записи: 18-23 октября 2007
Аудиокодек: FLAC
Тип рипа: image+.cue
Битрейт аудио: lossless
Продолжительность: 90:41
Источник: собственный рип
Наличие сканов в содержимом раздачи: нет (присутствуют фотографии)
Треклист:
CD 1
1. Allegro energico, ma non troppo; Heftig, aber markig (25:56)
2. Scherzo; Wuchtig (14:23)
3. Andante moderato (16:12)
CD 2
1. Finale. Sostenuto; Allegro moderato - allegro energico (34:10)
Исполнители:
Chicago symphony orchestra, Bernard Haitink
Чикагский симфонический оркестр, Бернард Хайтинк
Лог создания рипа

CD 1
Отчёт EAC об извлечении, выполненном 4. июля 2013, 10:09
Bernard Haitink, Chicago Symphony Orchestra / Mahler 6 Haitink CSO-2008 CD1
Дисковод: Optiarc DVD RW AD-5170A   Adapter: 0  ID: 0
Режим чтения                 : Достоверность
Использование точного потока : Да
Отключение кэша аудио        : Да
Использование указателей C2  : Нет
Коррекция смещения при чтении                     : 48
Способность читать области Lead-in и Lead-out     : Нет
Заполнение пропущенных сэмплов тишиной            : Да
Удаление блоков с тишиной в начале и конце        : Нет
При вычислениях CRC использовались нулевые сэмплы : Да
Интерфейс                                         : Встроенный Win32-интерфейс для Win NT/2000
Выходной формат          : Пользовательский кодировщик
Выбранный битрейт        : 640 kBit/s
Качество                 : Высокий
Добавление ID3-тега      : Нет
Утилита сжатия           : D:\Program Files\Exact Audio Copy\Flac\flac.exe
Дополнительные параметры : -V -8 -T "Date=%year%" -T "Genre=%genre%" %source%
TOC извлечённого CD
     Трек |   Старт  | Длительность | Начальный сектор | Конечный сектор
    ---------------------------------------------------------------------
       1  |  0:00.00 |   25:55.64   |           0      |     116688
       2  | 25:55.64 |   14:23.53   |      116689      |     181466
       3  | 40:19.42 |   16:12.12   |      181467      |     254378
Характеристики диапазона извлечения и сообщения об ошибках
Выбранный диапазон
     Имя файла D:\Users\NightX\Desktop\Mahler 6 (Haitink CSO)\Bernard Haitink, Chicago Symphony Orchestra - Mahler 6 Haitink CSO-2008 CD1.wav
     Пиковый уровень 93.8 %
     Скорость извлечения 5.9 X
     Качество диапазона 99.9 %
     CRC теста F04D4233
     CRC копии F04D4233
     Копирование... OK
Ошибок не произошло
Конец отчёта
-------------------------------------------------------------------------------
CD 2
Отчёт EAC об извлечении, выполненном 4. июля 2013, 10:25
Bernard Haitink, Chicago Symphony Orchestra / Mahler 6 Haitink CSO-2008 CD2
Дисковод: Optiarc DVD RW AD-5170A   Adapter: 0  ID: 0
Режим чтения                 : Достоверность
Использование точного потока : Да
Отключение кэша аудио        : Да
Использование указателей C2  : Нет
Коррекция смещения при чтении                     : 48
Способность читать области Lead-in и Lead-out     : Нет
Заполнение пропущенных сэмплов тишиной            : Да
Удаление блоков с тишиной в начале и конце        : Нет
При вычислениях CRC использовались нулевые сэмплы : Да
Интерфейс                                         : Встроенный Win32-интерфейс для Win NT/2000
Выходной формат          : Пользовательский кодировщик
Выбранный битрейт        : 640 kBit/s
Качество                 : Высокий
Добавление ID3-тега      : Нет
Утилита сжатия           : D:\Program Files\Exact Audio Copy\Flac\flac.exe
Дополнительные параметры : -V -8 -T "Date=%year%" -T "Genre=%genre%" %source%
TOC извлечённого CD
     Трек |   Старт  | Длительность | Начальный сектор | Конечный сектор
    ---------------------------------------------------------------------
       1  |  0:00.00 |   34:06.34   |           0      |     153483
Характеристики диапазона извлечения и сообщения об ошибках
Выбранный диапазон
     Имя файла D:\Users\NightX\Desktop\Mahler 6 (Haitink CSO)\Bernard Haitink, Chicago Symphony Orchestra - Mahler 6 Haitink CSO-2008 CD2.wav
     Пиковый уровень 98.1 %
     Скорость извлечения 4.3 X
     Качество диапазона 99.9 %
     CRC копии BACCECA0
     Копирование... OK
Ошибок не произошло
Конец отчёта
Конец отчёта

                                                                                       
                       
                       
                       
                       
                       
                                磁力下载(论坛代下载服务)::
                                                               
                                       
付费主题

已有0人支付


                                               
  • 421.3 MB
  • 温馨提示

    记得善用社区搜索功能,那里可能会有你想要的资源;论坛站内搜索

    如果你有什么需要的资源可以去资源求档发帖,求助社区的网友,我们会在第一时间给你回复哦;资源求档

    对于本社区网盘链接失效密码错误各种报错请在反馈板块反馈报错发帖,您的支持,是我们发展的最大动力;投诉建议

    回复

    使用道具 举报

    您需要登录后才可以回帖 登录 | 立即注册 微信登录

    本版积分规则

    关注0

    粉丝7

    帖子52764

    发布主题
    阅读排行更多+
    关闭

    站长推荐上一条 /1 下一条

    活动提示

    赞助永久VIP会员送3T硬盘一块 限时活动

    地址:立刻参加

    我知道了
    收藏帖子 返回列表 这是一个自定义按钮
    音乐分享,音乐下载。
    微信公众号
    微信号:hires_
    意见反馈:admin@maomicd.com

    加入我们的官方QQ群和微信群

    Powered by Discuz! X3.4 Archiver|手机版|小黑屋|捌零音乐论坛 ( 苏ICP备20015413号 )|( 苏公网安备 32030502000272号) 繁體

    GMT+8, 2021-9-25 04:56