[古典] (classic) Various - Greatest Overtures - 1991 (Suppe, Flotow, Wagner, Herold, Nicolai, Rossini, Tchaikovsky), APE (image + .cue), lossless

[复制链接]
全球采集 发表于 2021-9-10 16:56:47 | 显示全部楼层 |阅读模式 打印 上一主题 下一主题
Various - Greatest Overtures (Suppe, Flotow, Wagner, Herold, Nicolai, Rossini, Tchaikovsky)
Жанр: classic
Год выпуска диска: 1991
Производитель диска: USA
Формат: APE (image + .cue)
Битрейт аудио: lossless
Продолжительность: 67:28.38
Трэклист:
01. Suppe - Light Cavalry (6:45)
02. Flotow - Martha (8:14)
03. Wagner - Lohengrin: Prelude To Act III (2:56)
04. Herold - Zampa (7:43)
05. Nicolai - The Merry Wives Of Windsor (7:38)
06. Suppe - Poet And Peasant (9:49)
07. Rossini - William Tell (11:50)
08. Tchaikovsky - 1812 Overture, Op. 49 (12:32)
Arthur Fiedler/Boston Pops (1-7)
Fritz Reiner/Chicago Symphony (8)
EAC log

Exact Audio Copy V0.99 prebeta 3 from 28. July 2007
Отчёт EAC об извлечении, выполненном 13. апреля 2008, 10:17
Various / Greatest Overtures
Дисковод: HL-DT-STDVD-ROM GDR8163B   Adapter: 1  ID: 1
Режим чтения                 : Достоверность
Использование точного потока : Да
Отключение кэша аудио        : Да
Использование указателей C2  : Нет
Коррекция смещения при чтении                     : 102
Способность читать области Lead-in и Lead-out     : Нет
Заполнение пропущенных сэмплов тишиной            : Да
Удаление блоков с тишиной в начале и конце        : Нет
При вычислениях CRC использовались нулевые сэмплы : Нет
Интерфейс                                         : Встроенный Win32-интерфейс для Win NT/2000
Выходной формат : Внутренние WAV-операции
Формат сэмплов  : 44.100 Гц; 16 бит; стерео
TOC извлечённого CD
     Трек |   Старт  | Длительность | Начальный сектор | Конечный сектор
    ---------------------------------------------------------------------
       1  |  0:00.00 |    6:44.45   |           0      |      30344
       2  |  6:44.45 |    8:14.23   |       30345      |      67417
       3  | 14:58.68 |    2:55.62   |       67418      |      80604
       4  | 17:54.55 |    7:43.08   |       80605      |     115337
       5  | 25:37.63 |    7:37.67   |      115338      |     149679
       6  | 33:15.55 |    9:49.08   |      149680      |     193862
       7  | 43:04.63 |   11:49.55   |      193863      |     247092
       8  | 54:54.43 |   12:31.70   |      247093      |     303487
Характеристики диапазона извлечения и сообщения об ошибках
Выбранный диапазон
     Имя файла K:\Greatest Overtures\Various - Greatest Overtures.wav
     Пиковый уровень 97.7 %
     Качество диапазона 99.9 %
     CRC копии 82CABD03
     Копирование... OK
Ошибок не произошло
AccurateRip: сводка
Трек  1  точность не определена (достоверность 1)  [7EE3AF25], AccurateRip вернул [5FA8A831]
Трек  2  точность не определена (достоверность 1)  [E83A8D07], AccurateRip вернул [CB95D8FB]
Трек  3  точность не определена (достоверность 1)  [98B26214], AccurateRip вернул [A6A856AD]
Трек  4  точность не определена (достоверность 1)  [948842E1], AccurateRip вернул [81F4A453]
Трек  5  точность не определена (достоверность 1)  [C99E8B4D], AccurateRip вернул [F7FB479A]
Трек  6  точность не определена (достоверность 1)  [EFC8DEA2], AccurateRip вернул [983F6966]
Трек  7  точность не определена (достоверность 1)  [BAABF812], AccurateRip вернул [55A4DFF4]
Трек  8  точность не определена (достоверность 1)  [4913C5FC], AccurateRip вернул [CCE53F22]
Ни один трек не прошёл проверки на точность
В вашей базе может быть иной вариант штамповки диска
Конец отчёта
                                                                                       
                       
                       
                       
                       
                       
                                磁力下载(论坛代下载服务)::
                                                               
                                       
付费主题

已有0人支付


                                               
  • 341.1 MB
  • 温馨提示

    记得善用社区搜索功能,那里可能会有你想要的资源;论坛站内搜索

    如果你有什么需要的资源可以去资源求档发帖,求助社区的网友,我们会在第一时间给你回复哦;资源求档

    对于本社区网盘链接失效密码错误各种报错请在反馈板块反馈报错发帖,您的支持,是我们发展的最大动力;投诉建议

    回复

    使用道具 举报

    您需要登录后才可以回帖 登录 | 立即注册 微信登录

    本版积分规则

    关注0

    粉丝19

    帖子87653

    发布主题
    阅读排行更多+
    关闭

    站长推荐上一条 /1 下一条

    活动提示

    赞助永久VIP会员送3T硬盘一块 限时活动

    地址:立刻参加

    我知道了
    收藏帖子 返回列表 这是一个自定义按钮
    音乐分享,音乐下载。
    微信公众号
    微信号:hires_
    意见反馈:admin@maomicd.com

    加入我们的官方QQ群和微信群

    Powered by Discuz! X3.4 Archiver|手机版|小黑屋|捌零音乐论坛 ( 苏ICP备20015413号 )|( 苏公网安备 32030502000272号) 繁體

    GMT+8, 2021-9-21 12:31