[古典] (Classical) Carles Baguer - Sinfonias [Sinfonia No.14 Mi b Mayor; Sinfonia No.19 Si b Mayor; Sinfonia No.15 Mi b Mayor; Sinfonia No.5 Re Mayor] (Orquesta Barroca de Sevilla, Manfre

[复制链接]
tikus75 发表于 2021-9-10 16:56:47 | 显示全部楼层 |阅读模式 打印 上一主题 下一主题
Carles Baguer - Sinfonias - Manfredo Kraemer
Жанр: Classical symphony
Страна-производитель диска: Made in Spain
Год издания диска: 2011
Издатель (лейбл): OBS Prometeo
Номер по каталогу: OBS 004 (не уверен)
Дата записи: 2008, 2009
Аудиокодек: FLAC
Тип рипа: image+.cue
Битрейт аудио: lossless
Продолжительность: 60'27
Источник: релизер
сайт-источник/ник/другое: odeonmusic
Наличие сканов в содержимом раздачи: да
Треклист:
01. Obertura - 'El hijo Pródigo' [0:05:29.07]
02. Sinfonia No.14 Mi b Mayor - I. Allegro con brio [0:05:36.30]
03. II. Andante [0:03:29.65]
04. III. Minueto [0:02:50.08]
05. IV. Finale presto [0:04:14.66]
06. Sinfonia No.19 Si b Mayor - I. Allegro spirituoso [0:05:31.19]
07. II. Andante [0:04:12.09]
08. III. Minueto [0:02:23.56]
09. IV. Rondó: Presto [0:03:00.21]
10. Sinfonia No.15 Mi b Mayor - I. Allegro assai [0:03:45.27]
11. II. Adagio [0:02:36.31]
12. III. Minueto [0:02:19.07]
13. IV. Rondó: Allegro presto [0:01:59.02]
14. Sinfonia No.5 Re Mayor - I. Allegro assai [0:05:14.52]
15. II. Adagio [0:03:22.16]
16. III. Minueto [0:02:07.61]
17. IV. Rondó: Allegro presto [0:02:15.18]
Исполнители

Carles Baguer (1768-1808)
Overture "El hijo pródigo"
Symphony No.14 in E flat major
Symphony No.19 in B flat major
Symphony No.15 in E flat major
Symphony No.5 in D major
Orquesta Barroca de Sevilla
Manfredo Kraemer - conductor
Released: 02 May 2011


Лог создания рипа

Exact Audio Copy V1.0 beta 3 from 29. August 2011
EAC extraction logfile from 6. August 2012, 12:27
Manfredo Kraemer / Carles Baguer - Sinfonias - Manfredo Kraemer
Used drive  : HL-DT-STDVDRAM GSA-H10A   Adapter: 0  ID: 0
Read mode               : Secure
Utilize accurate stream : Yes
Defeat audio cache      : Yes
Make use of C2 pointers : No
Read offset correction                      : 667
Overread into Lead-In and Lead-Out          : No
Fill up missing offset samples with silence : Yes
Delete leading and trailing silent blocks   : No
Null samples used in CRC calculations       : Yes
Used interface                              : Native Win32 interface for Win NT & 2000
Used output format              : User Defined Encoder
Selected bitrate                : 1024 kBit/s
Quality                         : High
Add ID3 tag                     : No
Command line compressor         : C:\Program Files\Exact Audio Copy\Flac\flac.exe
Additional command line options : -8 -V -T "TITLE=%title%" -T "ARTIST=%artist%" -T "ALBUMARTIST=%albumartist%" -T "ALBUM=%albumtitle%" -T "DATE=%year%" -T "TRACKNUMBER=%tracknr%" -T "TRACKTOTAL=%numtracks%" -T "GENRE=%genre%" -T "COMMENT=%comment%" -T "PERFORMER=%albuminterpret%" -T "COMPOSER=%composer%" %source% -o %dest%
TOC of the extracted CD
     Track |   Start  |  Length  | Start sector | End sector
    ---------------------------------------------------------
        1  |  0:00.00 |  5:29.07 |         0    |    24681
        2  |  5:29.07 |  5:36.30 |     24682    |    49911
        3  | 11:05.37 |  3:29.65 |     49912    |    65651
        4  | 14:35.27 |  2:50.08 |     65652    |    78409
        5  | 17:25.35 |  4:14.66 |     78410    |    97525
        6  | 21:40.26 |  5:31.19 |     97526    |   122369
        7  | 27:11.45 |  4:12.09 |    122370    |   141278
        8  | 31:23.54 |  2:23.56 |    141279    |   152059
        9  | 33:47.35 |  3:00.21 |    152060    |   165580
       10  | 36:47.56 |  3:45.27 |    165581    |   182482
       11  | 40:33.08 |  2:36.31 |    182483    |   194213
       12  | 43:09.39 |  2:19.07 |    194214    |   204645
       13  | 45:28.46 |  1:59.02 |    204646    |   213572
       14  | 47:27.48 |  5:14.52 |    213573    |   237174
       15  | 52:42.25 |  3:22.16 |    237175    |   252340
       16  | 56:04.41 |  2:07.61 |    252341    |   261926
       17  | 58:12.27 |  2:15.18 |    261927    |   272069
Range status and errors
Selected range
     Filename F:\Ripped general\[9696] Carles Baguer - Sinfonias - Manfredo Kraemer\Carles Baguer - Sinfonias - Manfredo Kraemer.wav
     Peak level 98.4 %
     Extraction speed 7.5 X
     Range quality 100.0 %
     Test CRC 41A8D282
     Copy CRC 41A8D282
     Copy OK
No errors occurred
AccurateRip summary
Track  1  not present in database
Track  2  not present in database
Track  3  not present in database
Track  4  not present in database
Track  5  not present in database
Track  6  not present in database
Track  7  not present in database
Track  8  not present in database
Track  9  not present in database
Track 10  not present in database
Track 11  not present in database
Track 12  not present in database
Track 13  not present in database
Track 14  not present in database
Track 15  not present in database
Track 16  not present in database
Track 17  not present in database
None of the tracks are present in the AccurateRip database
End of status report


Содержание индексной карты (.CUE)

REM GENRE Classical
REM DISCID F70E2B11
REM COMMENT "ExactAudioCopy v1.0b3"
PERFORMER "Manfredo Kraemer"
TITLE "Carles Baguer - Sinfonias - Manfredo Kraemer"
FILE "Carles Baguer - Sinfonias - Manfredo Kraemer.flac" WAVE
  TRACK 01 AUDIO
    TITLE "Obertura - 'El hijo Prуdigo'"
    PERFORMER "Manfredo Kraemer"
    INDEX 01 00:00:00
  TRACK 02 AUDIO
    TITLE "Sinfonia No.14 Mi b Mayor - I. Allegro con brio"
    PERFORMER "Manfredo Kraemer"
    INDEX 01 05:29:07
  TRACK 03 AUDIO
    TITLE "Sinfonia No.14 Mi b Mayor - II. Andante"
    PERFORMER "Manfredo Kraemer"
    INDEX 01 11:05:37
  TRACK 04 AUDIO
    TITLE "Sinfonia No.14 Mi b Mayor - III. Minueto"
    PERFORMER "Manfredo Kraemer"
    INDEX 01 14:35:27
  TRACK 05 AUDIO
    TITLE "Sinfonia No.14 Mi b Mayor - IV. Finale presto"
    PERFORMER "Manfredo Kraemer"
    INDEX 01 17:25:35
  TRACK 06 AUDIO
    TITLE "Sinfonia No.19 Si b Mayor - I. Allegro spirituoso"
    PERFORMER "Manfredo Kraemer"
    INDEX 00 21:36:69
    INDEX 01 21:40:26
  TRACK 07 AUDIO
    TITLE "Sinfonia No.19 Si b Mayor - II. Andante"
    PERFORMER "Manfredo Kraemer"
    INDEX 01 27:11:45
  TRACK 08 AUDIO
    TITLE "Sinfonia No.19 Si b Mayor - III. Minueto"
    PERFORMER "Manfredo Kraemer"
    INDEX 01 31:23:54
  TRACK 09 AUDIO
    TITLE "Sinfonia No.19 Si b Mayor - IV. Rondу: Presto"
    PERFORMER "Manfredo Kraemer"
    INDEX 01 33:47:35
  TRACK 10 AUDIO
    TITLE "Sinfonia No.15 Mi b Mayor - I. Allegro assai"
    PERFORMER "Manfredo Kraemer"
    INDEX 00 36:43:52
    INDEX 01 36:47:56
  TRACK 11 AUDIO
    TITLE "Sinfonia No.15 Mi b Mayor - II. Adagio"
    PERFORMER "Manfredo Kraemer"
    INDEX 01 40:33:08
  TRACK 12 AUDIO
    TITLE "Sinfonia No.15 Mi b Mayor - III. Minueto"
    PERFORMER "Manfredo Kraemer"
    INDEX 01 43:09:39
  TRACK 13 AUDIO
    TITLE "Sinfonia No.15 Mi b Mayor - IV. Rondу: Allegro presto"
    PERFORMER "Manfredo Kraemer"
    INDEX 01 45:28:46
  TRACK 14 AUDIO
    TITLE "Sinfonia No.5 Re Mayor - I. Allegro assai"
    PERFORMER "Manfredo Kraemer"
    INDEX 00 47:24:61
    INDEX 01 47:27:48
  TRACK 15 AUDIO
    TITLE "Sinfonia No.5 Re Mayor - II. Adagio"
    PERFORMER "Manfredo Kraemer"
    INDEX 01 52:42:25
  TRACK 16 AUDIO
    TITLE "Sinfonia No.5 Re Mayor - III. Minueto"
    PERFORMER "Manfredo Kraemer"
    INDEX 01 56:04:41
  TRACK 17 AUDIO
    TITLE "Sinfonia No.5 Re Mayor - IV. Rondу: Allegro presto"
    PERFORMER "Manfredo Kraemer"
    INDEX 01 58:12:27

                                                                                       
                       
                       
                       
                       
                       
                                磁力下载(论坛代下载服务)::
                                                               
                                       
付费主题

已有0人支付


                                               
  • 353 MB
  • 温馨提示

    记得善用社区搜索功能,那里可能会有你想要的资源;论坛站内搜索

    如果你有什么需要的资源可以去资源求档发帖,求助社区的网友,我们会在第一时间给你回复哦;资源求档

    对于本社区网盘链接失效密码错误各种报错请在反馈板块反馈报错发帖,您的支持,是我们发展的最大动力;投诉建议

    回复

    使用道具 举报

    您需要登录后才可以回帖 登录 | 立即注册 微信登录

    本版积分规则

    关注0

    粉丝1

    帖子31072

    发布主题
    阅读排行更多+
    关闭

    站长推荐上一条 /1 下一条

    活动提示

    赞助永久VIP会员送3T硬盘一块 限时活动

    地址:立刻参加

    我知道了
    收藏帖子 返回列表 这是一个自定义按钮
    音乐分享,音乐下载。
    微信公众号
    微信号:hires_
    意见反馈:admin@maomicd.com

    加入我们的官方QQ群和微信群

    Powered by Discuz! X3.4 Archiver|手机版|小黑屋|捌零音乐论坛 ( 苏ICP备20015413号 )|( 苏公网安备 32030502000272号) 繁體

    GMT+8, 2021-9-22 21:41