[古典] (Classical ochestral) Handel - Water Music (The Amsterdam Baroque Orchestra, Ton Koopman) - 1993, FLAC (image+.cue) lossless

[复制链接]
韬199435 发表于 7 天前 | 显示全部楼层 |阅读模式 打印 上一主题 下一主题
Handel - Water Music (The Amsterdam Baroque Orchestra, Ton Koopman)
Жанр: Classical ochestral
Страна-производитель диска: Made in Germany
Год издания диска: 1993
Издатель (лейбл): Erato
Номер по каталогу: 2564 697001-4
Дата записи: 1992
Аудиокодек: FLAC
Тип рипа: image+.cue
Битрейт аудио: lossless
Продолжительность: 00:56:25
сайт-источник/ник/другое: Nosreme, подарок; Caterina Sforza - работа с cue, доп. сканы
Наличие сканов в содержимом раздачи: да, полный авторский буклет pdf, 6 страниц
Треклист:
Water Music Suite No. 1 for orchestra in F major, HWV 348:
1. Movement 1: Overture
2. Movement 2: Adagio e staccato
3. Movement 3: (Allegro) Andante (Allegro)
4. Movement 4: (Menuet & Trio)
5. Movement 5: Air
6. Movement 6: Menuet
7. Movement 7: Bourrée
8. Movement 8: Hornpipe
9. Movement 9: (Allegro moderato)
10. Movement 10: (Allegro)
11. Movement 11: Alla Hornpipe
Water Music Suite No. 1 for orchestra in F major, HWV 348:
12. Movement 1: Menuet
13. Movement 2: Rigaudon I & II
14. Movement 3: Menuet
15. Movement 4: (Menuet)
16. Movement 5: Gigue
17. Movement 6: (Gigue)
Water Music Suite No. 2 for orchestra in D major, HWV 349:
18. Allegro
19. Alla Hornpipe
20. Menuet
21. Lentement
22. Bouree
Исполнители

Georg Friedrich Händel (1685-1759)
Water Music
Suite in F major HWV 348
Suite in G major HWV 350
Suite in D major HWV 349
The Amsterdam Baroque Orchestra
Ton Koopman, conductor


Лог создания рипа

Exact Audio Copy V1.3 from 2. September 2016
EAC extraction logfile from 18. July 2019, 6:20
Koopman, Amsterdam Baroque Orch. / Wassermusik-3 Suiten
Used drive  : HL-DT-STDVD+-RW GU90N   Adapter: 1  ID: 0
Read mode               : Secure
Utilize accurate stream : Yes
Defeat audio cache      : Yes
Make use of C2 pointers : No
Read offset correction                      : 102
Overread into Lead-In and Lead-Out          : No
Fill up missing offset samples with silence : Yes
Delete leading and trailing silent blocks   : No
Null samples used in CRC calculations       : Yes
Used interface                              : Native Win32 interface for Win NT & 2000
Used output format              : User Defined Encoder
Selected bitrate                : 1024 kBit/s
Quality                         : High
Add ID3 tag                     : No
Command line compressor         : C:\Program Files (x86)\Exact Audio Copy\FLAC\FLAC.EXE
Additional command line options : -6 -V -T "ARTIST=%artist%" -T "TITLE=%title%" -T "ALBUM=%albumtitle%" -T "DATE=%year%" -T "TRACKNUMBER=%tracknr%" -T "GENRE=%genre%" -T "COMMENT=%comment%" -T "BAND=%albuminterpret%" -T "ALBUMARTIST=%albuminterpret%" -T "COMPOSER=%composer%" %haslyrics%--tag-from-file=LYRICS="%lyricsfile%"%haslyrics% -T "DISCNUMBER=%cdnumber%" -T "TOTALDISCS=%totalcds%" -T "TOTALTRACKS=%numtracks%" %hascover%--picture="%coverfile%"%hascover% %source% -o %dest%
TOC of the extracted CD
     Track |   Start  |  Length  | Start sector | End sector
    ---------------------------------------------------------
        1  |  0:00.00 |  3:24.67 |         0    |    15366
        2  |  3:24.67 |  1:51.25 |     15367    |    23716
        3  |  5:16.17 |  7:14.08 |     23717    |    56274
        4  | 12:30.25 |  3:38.52 |     56275    |    72676
        5  | 16:09.02 |  3:11.25 |     72677    |    87026
        6  | 19:20.27 |  2:17.13 |     87027    |    97314
        7  | 21:37.40 |  1:40.30 |     97315    |   104844
        8  | 23:17.70 |  1:20.52 |    104845    |   110896
        9  | 24:38.47 |  2:47.35 |    110897    |   123456
       10  | 27:26.07 |  4:15.25 |    123457    |   142606
       11  | 31:41.32 |  4:34.30 |    142607    |   163186
       12  | 36:15.62 |  3:20.20 |    163187    |   178206
       13  | 39:36.07 |  2:31.40 |    178207    |   189571
       14  | 42:07.47 |  1:04.00 |    189572    |   194371
       15  | 43:11.47 |  1:34.30 |    194372    |   201451
       16  | 44:46.02 |  0:28.63 |    201452    |   203614
       17  | 45:14.65 |  0:39.72 |    203615    |   206611
       18  | 45:54.62 |  2:09.10 |    206612    |   216296
       19  | 48:03.72 |  3:45.30 |    216297    |   233201
       20  | 51:49.27 |  1:28.48 |    233202    |   239849
       21  | 53:18.00 |  1:51.22 |    239850    |   248196
       22  | 55:09.22 |  1:15.64 |    248197    |   253885
Range status and errors
Selected range
     Filename D:\Music-Temp_working\17.0 EAC\Koopman-Handel Water Music\Koopman, Amsterdam Baroque Orch. - Wassermusik-3 Suiten.wav
     Peak level 79.8 %
     Extraction speed 4.4 X
     Range quality 100.0 %
     Test CRC ABDD0869
     Copy CRC ABDD0869
     Copy OK
No errors occurred
AccurateRip summary
Track  1  accurately ripped (confidence 3)  [F328373C]  (AR v2)
Track  2  accurately ripped (confidence 3)  [A7CACA58]  (AR v2)
Track  3  accurately ripped (confidence 2)  [953B9010]  (AR v2)
Track  4  accurately ripped (confidence 3)  [D3C3DBD2]  (AR v2)
Track  5  accurately ripped (confidence 3)  [D921E9B5]  (AR v2)
Track  6  accurately ripped (confidence 3)  [1806DD1D]  (AR v2)
Track  7  accurately ripped (confidence 3)  [657E980F]  (AR v2)
Track  8  accurately ripped (confidence 3)  [9B7BA048]  (AR v2)
Track  9  accurately ripped (confidence 3)  [8AAC2645]  (AR v2)
Track 10  accurately ripped (confidence 3)  [04E3EB53]  (AR v2)
Track 11  accurately ripped (confidence 3)  [5437E019]  (AR v2)
Track 12  accurately ripped (confidence 3)  [952080D1]  (AR v2)
Track 13  accurately ripped (confidence 3)  [1CDFC021]  (AR v2)
Track 14  accurately ripped (confidence 3)  [3E42563C]  (AR v2)
Track 15  accurately ripped (confidence 3)  [62CCFE7F]  (AR v2)
Track 16  accurately ripped (confidence 3)  [0CFD0E5E]  (AR v2)
Track 17  accurately ripped (confidence 3)  [4483DCA4]  (AR v2)
Track 18  accurately ripped (confidence 3)  [D7ADEB1A]  (AR v2)
Track 19  accurately ripped (confidence 3)  [98EFF6B2]  (AR v2)
Track 20  accurately ripped (confidence 3)  [D739114D]  (AR v2)
Track 21  accurately ripped (confidence 3)  [B6481F37]  (AR v2)
Track 22  accurately ripped (confidence 3)  [EE6961B8]  (AR v2)
All tracks accurately ripped
End of status report
---- CUETools DB Plugin V2.1.6
[CTDB TOCID: c0m6va6htPVWf.OixjBYSfFb8NA-] found
Submit result: c0m6va6htPVWf.OixjBYSfFb8NA- has been confirmed
Track | CTDB Status
  1   | (6/6) Accurately ripped
  2   | (6/6) Accurately ripped
  3   | (6/6) Accurately ripped
  4   | (6/6) Accurately ripped
  5   | (6/6) Accurately ripped
  6   | (6/6) Accurately ripped
  7   | (6/6) Accurately ripped
  8   | (6/6) Accurately ripped
  9   | (6/6) Accurately ripped
10   | (6/6) Accurately ripped
11   | (6/6) Accurately ripped
12   | (6/6) Accurately ripped
13   | (6/6) Accurately ripped
14   | (6/6) Accurately ripped
15   | (6/6) Accurately ripped
16   | (6/6) Accurately ripped
17   | (6/6) Accurately ripped
18   | (6/6) Accurately ripped
19   | (6/6) Accurately ripped
20   | (6/6) Accurately ripped
21   | (6/6) Accurately ripped
22   | (6/6) Accurately ripped
==== Log checksum BA00DD9F130A1C1B3D3AE4F44A65ACFE0162501D0CC76D5498E276008209C64A ====


Содержание индексной карты (.CUE)

REM GENRE Orchesterwerk
REM DATE 1992
REM DISCID 480D3916
REM COMMENT "ExactAudioCopy v1.3"
PERFORMER "The Amsterdam Baroque Orchestra, Ton Koopman (Leitung)"
TITLE "Handel - Water Music / Wassermusik"
REM COMPOSER "George Frederick Handel (1685-1759)"
FILE "Ton Koopman - George Frederick Handel - Water Music.flac" WAVE
  TRACK 01 AUDIO
    TITLE "Wassermusik-Suite Nr. 1 F-dur HWV 348 - 1. Ouverture"
    PERFORMER "The Amsterdam Baroque Orchestra, Ton Koopman"
    REM COMPOSER "George Frederick Handel"
    INDEX 01 00:00:00
  TRACK 02 AUDIO
    TITLE "Wassermusik-Suite Nr. 1 F-dur HWV 348 - 2. Adagio e staccato"
    PERFORMER "The Amsterdam Baroque Orchestra, Ton Koopman"
    REM COMPOSER "George Frederick Handel"
    REM INDEX 00 03:24:00
    INDEX 01 03:24:67
  TRACK 03 AUDIO
    TITLE "Wassermusik-Suite Nr. 1 F-dur HWV 348 - 3. [Allegro] - Andante - [Allegro]"
    PERFORMER "The Amsterdam Baroque Orchestra, Ton Koopman"
    REM COMPOSER "George Frederick Handel"
    REM INDEX 00 05:15:00
    INDEX 01 05:16:17
  TRACK 04 AUDIO
    TITLE "Wassermusik-Suite Nr. 1 F-dur HWV 348 - 4. [Menuet & Trio]"
    PERFORMER "The Amsterdam Baroque Orchestra, Ton Koopman"
    REM COMPOSER "George Frederick Handel"
    REM INDEX 00 12:28:00
    INDEX 01 12:30:25
  TRACK 05 AUDIO
    TITLE "Wassermusik-Suite Nr. 1 F-dur HWV 348 - 5. Air"
    PERFORMER "The Amsterdam Baroque Orchestra, Ton Koopman"
    REM COMPOSER "George Frederick Handel"
    REM INDEX 00 16:08:00
    INDEX 01 16:09:02
  TRACK 06 AUDIO
    TITLE "Wassermusik-Suite Nr. 1 F-dur HWV 348 - 6. Menuet"
    PERFORMER "The Amsterdam Baroque Orchestra, Ton Koopman"
    REM COMPOSER "George Frederick Handel"
    INDEX 01 19:20:27
  TRACK 07 AUDIO
    TITLE "Wassermusik-Suite Nr. 1 F-dur HWV 348 - 7. Bourrée"
    PERFORMER "The Amsterdam Baroque Orchestra, Ton Koopman"
    REM COMPOSER "George Frederick Handel"
    INDEX 01 21:37:40
  TRACK 08 AUDIO
    TITLE "Wassermusik-Suite Nr. 1 F-dur HWV 348 - 8. Hornpipe"
    PERFORMER "The Amsterdam Baroque Orchestra, Ton Koopman"
    REM COMPOSER "George Frederick Handel"
    INDEX 01 23:17:70
  TRACK 09 AUDIO
    TITLE "Wassermusik-Suite Nr. 1 F-dur HWV 348 - 9. [Allegro moderato]"
    PERFORMER "The Amsterdam Baroque Orchestra, Ton Koopman"
    REM COMPOSER "George Frederick Handel"
    REM INDEX 00 24:37:00
    INDEX 01 24:38:47
  TRACK 10 AUDIO
    TITLE "Wassermusik-Suite Nr. 1 F-dur HWV 348 - 10. [Allegro]"
    PERFORMER "The Amsterdam Baroque Orchestra, Ton Koopman"
    REM COMPOSER "George Frederick Handel"
    REM INDEX 00 27:19:00
    INDEX 01 27:26:07
  TRACK 11 AUDIO
    TITLE "Wassermusik-Suite Nr. 1 F-dur HWV 348 - 11. Alla hornpipe"
    PERFORMER "The Amsterdam Baroque Orchestra, Ton Koopman"
    REM COMPOSER "George Frederick Handel"
    REM INDEX 00 31:41:00
    INDEX 01 31:41:32
  TRACK 12 AUDIO
    TITLE "Wassermusik-Suite Nr. 2 G-dur HWV 350 - 1. Menuet"
    PERFORMER "The Amsterdam Baroque Orchestra, Ton Koopman"
    REM COMPOSER "George Frederick Handel"
    REM INDEX 00 36:09:00
    INDEX 01 36:15:62
  TRACK 13 AUDIO
    TITLE "Wassermusik-Suite Nr. 2 G-dur HWV 350 - 2. Rigaudon I & II"
    PERFORMER "The Amsterdam Baroque Orchestra, Ton Koopman"
    REM COMPOSER "George Frederick Handel"
    INDEX 01 39:36:07
  TRACK 14 AUDIO
    TITLE "Wassermusik-Suite Nr. 2 G-dur HWV 350 - 3. Menuet"
    PERFORMER "The Amsterdam Baroque Orchestra, Ton Koopman"
    REM COMPOSER "George Frederick Handel"
    REM INDEX 00 42:07:00
    INDEX 01 42:07:47
  TRACK 15 AUDIO
    TITLE "Wassermusik-Suite Nr. 2 G-dur HWV 350 - 4. [Menuet]"
    PERFORMER "The Amsterdam Baroque Orchestra, Ton Koopman"
    REM COMPOSER "George Frederick Handel"
    REM INDEX 00 43:10:00
    INDEX 01 43:11:47
  TRACK 16 AUDIO
    TITLE "Wassermusik-Suite Nr. 2 G-dur HWV 350 - 5. Gigue"
    PERFORMER "The Amsterdam Baroque Orchestra, Ton Koopman"
    REM COMPOSER "George Frederick Handel"
    REM INDEX 00 44:45:00
    INDEX 01 44:46:02
  TRACK 17 AUDIO
    TITLE "Wassermusik-Suite Nr. 2 G-dur HWV 350 - 6. [Gigue]"
    PERFORMER "The Amsterdam Baroque Orchestra, Ton Koopman"
    REM COMPOSER "George Frederick Handel"
    INDEX 01 45:14:65
  TRACK 18 AUDIO
    TITLE "Wassermusik-Suite Nr. 3 D-dur HWV 349 - 1. [Allegro]"
    PERFORMER "The Amsterdam Baroque Orchestra, Ton Koopman"
    REM COMPOSER "George Frederick Handel"
    REM INDEX 00 45:48:00
    INDEX 01 45:54:62
  TRACK 19 AUDIO
    TITLE "Wassermusik-Suite Nr. 3 D-dur HWV 349 - 2. Alla hornpipe"
    PERFORMER "The Amsterdam Baroque Orchestra, Ton Koopman"
    REM COMPOSER "George Frederick Handel"
    INDEX 01 48:03:72
  TRACK 20 AUDIO
    TITLE "Wassermusik-Suite Nr. 3 D-dur HWV 349 - 3. Menuet"
    PERFORMER "The Amsterdam Baroque Orchestra, Ton Koopman"
    REM COMPOSER "George Frederick Handel"
    REM INDEX 00 51:48:00
    INDEX 01 51:49:27
  TRACK 21 AUDIO
    TITLE "Wassermusik-Suite Nr. 3 D-dur HWV 349 - 4. Lentement"
    PERFORMER "The Amsterdam Baroque Orchestra, Ton Koopman"
    REM COMPOSER "George Frederick Handel"
    REM INDEX 00 53:16:00
    INDEX 01 53:18:00
  TRACK 22 AUDIO
    TITLE "Wassermusik-Suite Nr. 3 D-dur HWV 349 - 5. Bourrée"
    PERFORMER "The Amsterdam Baroque Orchestra, Ton Koopman"
    REM COMPOSER "George Frederick Handel"
    REM INDEX 00 55:08:00
    INDEX 01 55:09:22

                                                                                       
                       
                       
                       
                       
                       
                                磁力下载(论坛代下载服务)::
                                                               
                                       
付费主题

已有0人支付


                                               
  • 255.4 MB
  • 温馨提示

    记得善用社区搜索功能,那里可能会有你想要的资源;论坛站内搜索

    如果你有什么需要的资源可以去资源求档发帖,求助社区的网友,我们会在第一时间给你回复哦;资源求档

    对于本社区网盘链接失效密码错误各种报错请在反馈板块反馈报错发帖,您的支持,是我们发展的最大动力;投诉建议

    回复

    使用道具 举报

    您需要登录后才可以回帖 登录 | 立即注册 微信登录

    本版积分规则

    关注0

    粉丝0

    帖子31315

    发布主题
    阅读排行更多+
    关闭

    站长推荐上一条 /1 下一条

    活动提示

    赞助永久VIP会员送3T硬盘一块 限时活动

    地址:立刻参加

    我知道了
    收藏帖子 返回列表 这是一个自定义按钮
    音乐分享,音乐下载。
    微信公众号
    微信号:hires_
    意见反馈:admin@maomicd.com

    加入我们的官方QQ群和微信群

    Powered by Discuz! X3.4 Archiver|手机版|小黑屋|捌零音乐论坛 ( 苏ICP备20015413号 )|( 苏公网安备 32030502000272号) 繁體

    GMT+8, 2021-9-17 00:46