[古典] (Orchestra) G.Mahler - Symphony No.2; M.Constant - 24 Preludes (B.Montmart, O.Dominguez; Orchestre National de la R.T.F. - Leonard Bernstein) \ Малер - Симфония №2 (Оркестр Телерад

[复制链接]
韬199435 发表于 2021-9-10 16:56:47 | 显示全部楼层 |阅读模式 打印 上一主题 下一主题
Gustav Mahler
Symphonie Nr.2 "Auferstehungs-Sinfonie"______________________Orchestre National de la R.T.F. - Leonard Bernstein
Жанр: Orchestra
Страна-производитель диска: France
Год издания диска: 2008
Издатель (лейбл): INA
Дата записи: 13.11.1958
Аудиокодек: FLAC
Тип рипа: image+.cue
Битрейт аудио: lossless
Продолжительность: 97:50
Источник: скачано с
сайт-источник/ник/другое: web
Наличие сканов в содержимом раздачи: да
Треклист:
CD1
01. Mahler 2 - Allegro maestoso (23:09)
02. Andante moderato (10:55)
03. In ruhig fliessender Bewegung (10:10)
04. Uhrlicht. Sehr feierlich aber schlicht (5:35)
Лог создания рипа

Exact Audio Copy V0.99 prebeta 4 from 23. January 2008
EAC extraction logfile from 17. July 2009, 20:34
Mahler 2 / Bernstein (1958) CD1
Used drive  : HL-DT-STDVD-RAM GSA-H55N   Adapter: 3  ID: 0
Read mode : Burst
Combined read/write offset correction       : 0
Overread into Lead-In and Lead-Out          : No
Fill up missing offset samples with silence : Yes
Delete leading and trailing silent blocks   : No
Null samples used in CRC calculations       : No
Used interface                              : Native Win32 interface for Win NT & 2000
Used output format : Internal WAV Routines
Sample format      : 44.100 Hz; 16 Bit; Stereo
TOC of the extracted CD
     Track |   Start  |  Length  | Start sector | End sector
    ---------------------------------------------------------
        1  |  0:00.00 | 23:08.55 |         0    |   104154
        2  | 23:08.55 | 10:55.04 |    104155    |   153283
        3  | 34:03.59 | 10:10.07 |    153284    |   199040
        4  | 44:13.66 |  5:34.65 |    199041    |   224155
Range status and errors
Selected range
     Filename C:\Documents and Settings\Proprietario\Desktop\Mahler 2 - Bernstein (1958) CD1.wav
     Timing problem 0:00:17
     Peak level 92.8 %
     Copy CRC 1E2379B3
     Copy finished
No errors occurred
End of status report


Содержание индексной карты (.CUE)

REM DISCID 2C0BAC04
REM COMMENT ExactAudioCopy v0.99pb4
PERFORMER "Mahler 2"
TITLE "Bernstein (1958) CD1"
FILE "Mahler 2 - Bernstein (1958) CD1.flac" WAVE
  TRACK 01 AUDIO
    TITLE "Mahler 2 - Allegro maestoso"
    FLAGS DCP
    INDEX 01 00:00:00
  TRACK 02 AUDIO
    TITLE "Andante moderato"
    FLAGS DCP
    INDEX 00 23:08:44
    INDEX 01 23:08:55
  TRACK 03 AUDIO
    TITLE "In ruhig fliessender Bewegung"
    FLAGS DCP
    INDEX 00 32:45:37
    INDEX 01 34:03:59
  TRACK 04 AUDIO
    TITLE "Uhrlicht. Sehr feierlich aber schlicht"
    FLAGS DCP
    INDEX 00 44:13:52
    INDEX 01 44:13:66



CD2
01. Im Tempo des Scherzos. Wild herausfahrend (33:56)
02. M.Constant - 24 Preludes (14:06)
Лог создания рипа

Exact Audio Copy V0.99 prebeta 4 from 23. January 2008
EAC extraction logfile from 17. July 2009, 20:39
Mahler 2 / Bernstein (1958) CD2
Used drive  : HL-DT-STDVD-RAM GSA-H55N   Adapter: 3  ID: 0
Read mode : Burst
Combined read/write offset correction       : 0
Overread into Lead-In and Lead-Out          : No
Fill up missing offset samples with silence : Yes
Delete leading and trailing silent blocks   : No
Null samples used in CRC calculations       : No
Used interface                              : Native Win32 interface for Win NT & 2000
Used output format : Internal WAV Routines
Sample format      : 44.100 Hz; 16 Bit; Stereo
TOC of the extracted CD
     Track |   Start  |  Length  | Start sector | End sector
    ---------------------------------------------------------
        1  |  0:00.00 | 33:55.54 |         0    |   152678
        2  | 33:55.54 | 14:05.72 |    152679    |   216125
Range status and errors
Selected range
     Filename C:\Documents and Settings\Proprietario\Desktop\Mahler 2 - Bernstein (1958) CD2.wav
     Timing problem 0:00:17
     Peak level 90.2 %
     Copy CRC 09034C39
     Copy finished
No errors occurred
End of status report


Содержание индексной карты (.CUE)

REM DISCID 0E0B4102
REM COMMENT ExactAudioCopy v0.99pb4
PERFORMER "Mahler 2"
TITLE "Bernstein (1958) CD2"
FILE "Mahler 2 - Bernstein (1958) CD2.flac" WAVE
  TRACK 01 AUDIO
    TITLE "Im Tempo des Scherzos. Wild herausfahrend"
    FLAGS DCP
    INDEX 01 00:00:00
  TRACK 02 AUDIO
    TITLE "M.Constant - 24 Preludes"
    FLAGS DCP
    INDEX 00 33:49:14
    INDEX 01 33:55:54


Исполнители:
Berthe MONTMART
Oralia DOMINGUEZ
Choeurs de la R.T.F.,Orchestre National de la R.T.F. - Leonard Bernstein                                                                                       
                       
                       
                       
                       
                       
                                磁力下载(论坛代下载服务)::
                                                               
                                       
付费主题

已有0人支付


                                               
  • 272.7 MB
  • 温馨提示

    记得善用社区搜索功能,那里可能会有你想要的资源;论坛站内搜索

    如果你有什么需要的资源可以去资源求档发帖,求助社区的网友,我们会在第一时间给你回复哦;资源求档

    对于本社区网盘链接失效密码错误各种报错请在反馈板块反馈报错发帖,您的支持,是我们发展的最大动力;投诉建议

    回复

    使用道具 举报

    您需要登录后才可以回帖 登录 | 立即注册 微信登录

    本版积分规则

    关注0

    粉丝0

    帖子31807

    发布主题
    阅读排行更多+
    关闭

    站长推荐上一条 /1 下一条

    活动提示

    赞助永久VIP会员送3T硬盘一块 限时活动

    地址:立刻参加

    我知道了
    收藏帖子 返回列表 这是一个自定义按钮
    音乐分享,音乐下载。
    微信公众号
    微信号:hires_
    意见反馈:admin@maomicd.com

    加入我们的官方QQ群和微信群

    Powered by Discuz! X3.4 Archiver|手机版|小黑屋|捌零音乐论坛 ( 苏ICP备20015413号 )|( 苏公网安备 32030502000272号) 繁體

    GMT+8, 2021-9-25 06:01