[古典] (Classical) [CD] Concurrence: Thorvaldsdottir, Tomasson, Sigfusdottir, Palsson - Vikingur Olafsson, Saeunn Thorsteinsdottir, Iceland Symphony Orchestra, Daniel Bjarnason - 2019, FL

[复制链接]
fqw1001 发表于 2021-9-10 16:56:46 | 显示全部楼层 |阅读模式 打印 上一主题 下一主题
Concurrence: Thorvaldsdóttir, Tómasson, Sigfúsdóttir, Pálsson - Víkingur Ólafsson, Sæunn Thorsteinsdóttir, Iceland Symphony Orchestra, Daníel Bjarnason
Жанр: Classical
Носитель: CD
Страна-производитель диска: USA
Год издания диска: 2019
Издатель (лейбл): Sono Luminus
Номер по каталогу: DSL-92237
Дата записи: 2018, 2019
Аудиокодек: FLAC
Тип рипа: image+.cue
Битрейт аудио: lossless
Продолжительность: 55:21
Источник: собственный рип
Наличие сканов в содержимом раздачи: да
Треклист:
Anna Thorvaldsdóttir
[1] Metacosmos
Haukur Tómasson
[2] Piano Concerto No. 2
María Huld Markan Sigfúsdóttir
[3] Oceans
Páll Ragnar Pálsson
[4] Quake
Исполнители:
Víkingur Ólafsson piano ([2])
Sæunn Thorsteinsdóttir cello ([4])
Iceland Symphony Orchestra
Daníel Bjarnason
Лог создания рипа

Exact Audio Copy V1.5 from 20. February 2020
EAC extraction logfile from 3. September 2021, 22:35
Iceland Symphony Orchestra, Daníel Bjarnason / Concurrence
Used drive  : ASUS    SDRW-08U7M-U   Adapter: 1  ID: 0
Read mode               : Secure
Utilize accurate stream : Yes
Defeat audio cache      : Yes
Make use of C2 pointers : No
Read offset correction                      : 6
Overread into Lead-In and Lead-Out          : No
Fill up missing offset samples with silence : Yes
Delete leading and trailing silent blocks   : No
Null samples used in CRC calculations       : Yes
Used interface                              : Native Win32 interface for Win NT & 2000
Used output format              : User Defined Encoder
Selected bitrate                : 128 kBit/s
Quality                         : High
Add ID3 tag                     : No
Command line compressor         : C:\Program Files (x86)\Exact Audio Copy\Flac\flac.exe
Additional command line options : -V -8 -T "Date=%year%" -T "Genre=%genre%" %source%
TOC of the extracted CD
     Track |   Start  |  Length  | Start sector | End sector
    ---------------------------------------------------------
        1  |  0:00.00 | 13:13.70 |         0    |    59544
        2  | 13:13.70 | 17:01.48 |     59545    |   136167
        3  | 30:15.43 |  9:35.06 |    136168    |   179298
        4  | 39:50.49 | 15:33.39 |    179299    |   249312
Range status and errors
Selected range
     Filename C:\temp\Concurrence - Iceland Symphony Orchestra, Bjarnason - 2019\Concurrence.wav
     Peak level 97.6 %
     Extraction speed 4.6 X
     Range quality 100.0 %
     Test CRC F827916B
     Copy CRC F827916B
     Copy OK
No errors occurred
AccurateRip summary
Track  1  accurately ripped (confidence 3)  [198DED29]  (AR v2)
Track  2  accurately ripped (confidence 3)  [DF3E4666]  (AR v2)
Track  3  accurately ripped (confidence 3)  [E4CAEED0]  (AR v2)
Track  4  accurately ripped (confidence 3)  [E3D96C51]  (AR v2)
All tracks accurately ripped
End of status report
==== Log checksum 3DC9DCCF1895F584C624578995707BF14AF355D2345C632B4A7E7E0BC3CC61F3 ====


Содержание индексной карты (.CUE)

REM GENRE Classical
REM DATE 2019
REM DISCID 380CFC04
REM COMMENT "ExactAudioCopy v1.5"
PERFORMER "Iceland Symphony Orchestra, Daníel Bjarnason"
TITLE "Concurrence"
REM COMPOSER " "
FILE "Concurrence.flac" WAVE
  TRACK 01 AUDIO
    TITLE "Anna Thorvaldsdóttir: Metacosmos"
    PERFORMER "Iceland Symphony Orchestra, Daníel Bjarnason"
    REM COMPOSER "Anna Thorvaldsdóttir"
    INDEX 01 00:00:00
  TRACK 02 AUDIO
    TITLE "Haukur Tómasson: Piano Concerto No. 2"
    PERFORMER "Víkingur Ólafsson, Iceland Symphony Orchestra, Daníel Bjarnason"
    REM COMPOSER "Haukur Tómasson"
    INDEX 01 13:13:70
  TRACK 03 AUDIO
    TITLE "María Huld Markan Sigfúsdóttir: Oceans"
    PERFORMER "Iceland Symphony Orchestra, Daníel Bjarnason"
    REM COMPOSER "María Huld Markan Sigfúsdóttir"
    INDEX 01 30:15:43
  TRACK 04 AUDIO
    TITLE "Páll Ragnar Pálsson: Quake"
    PERFORMER "Sæunn Thorsteinsdóttir, Iceland Symphony Orchestra, Daníel Bjarnason"
    REM COMPOSER "Páll Ragnar Pálsson"
    INDEX 01 39:50:49

                                                                                       
                       
                       
                       
                       
                       
                                磁力下载(论坛代下载服务)::
                                                               
                                       
付费主题

已有0人支付


                                               
  • 240 MB
  • 温馨提示

    记得善用社区搜索功能,那里可能会有你想要的资源;论坛站内搜索

    如果你有什么需要的资源可以去资源求档发帖,求助社区的网友,我们会在第一时间给你回复哦;资源求档

    对于本社区网盘链接失效密码错误各种报错请在反馈板块反馈报错发帖,您的支持,是我们发展的最大动力;投诉建议

    回复

    使用道具 举报

    您需要登录后才可以回帖 登录 | 立即注册 微信登录

    本版积分规则

    关注0

    粉丝0

    帖子30586

    发布主题
    阅读排行更多+
    关闭

    站长推荐上一条 /1 下一条

    活动提示

    赞助永久VIP会员送3T硬盘一块 限时活动

    地址:立刻参加

    我知道了
    收藏帖子 返回列表 这是一个自定义按钮
    音乐分享,音乐下载。
    微信公众号
    微信号:hires_
    意见反馈:admin@maomicd.com

    加入我们的官方QQ群和微信群

    Powered by Discuz! X3.4 Archiver|手机版|小黑屋|捌零音乐论坛 ( 苏ICP备20015413号 )|( 苏公网安备 32030502000272号) 繁體

    GMT+8, 2021-9-21 13:45