[古典] (Orchestral Music) Mahler - Symphony No. 7 - Staatskapelle Berlin, Barenboim - 2006, FLAC (image+.cue) lossless

[复制链接]
fqw1001 发表于 2021-9-10 16:56:46 | 显示全部楼层 |阅读模式 打印 上一主题 下一主题
Mahler - Symphony No. 7 - Staatskapelle Berlin, Barenboim
Жанр: Orchestral Music
Страна-производитель диска: Germany
Год издания диска: 2006
Издатель (лейбл): Warner Classics
Номер по каталогу: 2564 62963-2
Дата записи: 2006
Аудиокодек: FLAC
Тип рипа: image+.cue
Битрейт аудио: lossless
Продолжительность: 1:14:35
[Источник: скачано с web
Важная информация: рип не мой, все благодарности оригинальному аплоудеру /
Наличие сканов в содержимом раздачи: нет
Треклист:
[01] I. Langsam - Allegro con fuoco
[02] II. Nachtmusik I: Allegro moderato
[03] III. Scherzo: Schattenhaft
[04] IV. Nachtmusik II: Andante amoroso
[05] V. Rondo Finale: Allegro ordinario - Allegro moderato ma energico
Исполнители:
Staatskapelle Berlin, Daniel Barenboim
Лог создания рипа

Exact Audio Copy V0.99 prebeta 5 from 4. May 2009
EAC extraction logfile from 29. August 2009, 16:56
Staatskapelle Berlin / Mahler: Symphony No.7 - Daniel Barenboim
Used drive  : PIONEER DVD-RW  DVR-216   Adapter: 3  ID: 0
Read mode               : Secure
Utilize accurate stream : Yes
Defeat audio cache      : Yes
Make use of C2 pointers : No
Read offset correction                      : 96
Overread into Lead-In and Lead-Out          : No
Fill up missing offset samples with silence : Yes
Delete leading and trailing silent blocks   : No
Null samples used in CRC calculations       : Yes
Used interface                              : Native Win32 interface for Win NT & 2000
Used output format : Internal WAV Routines
Sample format      : 44.100 Hz; 16 Bit; Stereo
TOC of the extracted CD
     Track |   Start  |  Length  | Start sector | End sector
    ---------------------------------------------------------
        1  |  0:00.00 | 21:14.53 |         0    |    95602
        2  | 21:14.53 | 16:07.66 |     95603    |   168193
        3  | 37:22.44 |  8:19.60 |    168194    |   205678
        4  | 45:42.29 | 11:24.36 |    205679    |   257014
        5  | 57:06.65 | 17:28.29 |    257015    |   335643
Range status and errors
Selected range
     Filename C:\Users\-\Mahler Symphony No.7 - Staatskapelle Barlin, Daniel Barenboim.wav
     Peak level 99.8 %
     Range quality 99.9 %
     Copy CRC 46BCE0FE
     Copy OK
No errors occurred
AccurateRip summary
Track  1  accurately ripped (confidence 12)  [F4C9D99E]
Track  2  accurately ripped (confidence 12)  [82B09BF7]
Track  3  accurately ripped (confidence 12)  [8C0E055C]
Track  4  accurately ripped (confidence 12)  [9ACF883A]
Track  5  accurately ripped (confidence 12)  [6BA86E2C]
All tracks accurately ripped
End of status report


                                                                                       
                       
                       
                       
                       
                       
                                磁力下载(论坛代下载服务)::
                                                               
                                       
付费主题

已有0人支付


                                               
  • 320.4 MB
  • 温馨提示

    记得善用社区搜索功能,那里可能会有你想要的资源;论坛站内搜索

    如果你有什么需要的资源可以去资源求档发帖,求助社区的网友,我们会在第一时间给你回复哦;资源求档

    对于本社区网盘链接失效密码错误各种报错请在反馈板块反馈报错发帖,您的支持,是我们发展的最大动力;投诉建议

    回复

    使用道具 举报

    您需要登录后才可以回帖 登录 | 立即注册 微信登录

    本版积分规则

    关注0

    粉丝0

    帖子30586

    发布主题
    阅读排行更多+
    关闭

    站长推荐上一条 /1 下一条

    活动提示

    赞助永久VIP会员送3T硬盘一块 限时活动

    地址:立刻参加

    我知道了
    收藏帖子 返回列表 这是一个自定义按钮
    音乐分享,音乐下载。
    微信公众号
    微信号:hires_
    意见反馈:admin@maomicd.com

    加入我们的官方QQ群和微信群

    Powered by Discuz! X3.4 Archiver|手机版|小黑屋|捌零音乐论坛 ( 苏ICP备20015413号 )|( 苏公网安备 32030502000272号) 繁體

    GMT+8, 2021-9-22 22:49