[古典] (Classical) Alexandr Arutiunian/Арутюнян - Orchestral Compositions - Symphony, Festive Overture, Violin Concerto (V. Gergiev/Гергиев, R. Mangasarian/Мангасарян, K. Orbelian/Орбелян

[复制链接]
全球搬运 发表于 2021-9-10 16:56:46 | 显示全部楼层 |阅读模式 打印 上一主题 下一主题
Alexandr Arutiunian - Orchestral Compositions - Symphony, Festive Overture, Violin Concerto (V. Gergiev/Гергиев, R. Mangasarian/Мангасарян, K. Orbelian/Орбелян)
Жанр: Classical
Год издания диска: 2002
Издатель (лейбл): © Alexander Arutiunian
Аудиокодек: FLAC
Тип рипа: image+.cue
Битрейт аудио: lossless
Продолжительность: 1:03.36
Источник: собственный рип
Наличие сканов в содержимом раздачи: да
Треклист:
1. SYMPHONY for a big Symphony Orchestra
1) Maestoso. Allegro con fuoco
2) Andante sostenuto
3) Allegretto
4) Moderato
All-Uunion Radio Symphony Orchestra, Conductor: V. Gergiev
2. FESTIVE OVERTURE for Symphony Orchestra
1) Allegro giusto
All-Uunion Radio Symphony Orchestra, Conductor: R. Mangasarian
3. CONCERTO FOR VIOLIN AND STRING ORCHESTRA
1) Andante sostenuto
2) Allegretto
3) Adagio recitative
4) Allegro molto
(1988. Dedicated to the first performer Ruben Aharonian). I.Grubert (violin) Holland
Moscow Chamber Orcestra, Conductor: K. Orbelian
Исполнители:
Conductor: V. Gergiev
Conductor: R. Mangasarian
All-Uunion Radio
Symphony Orchestra
Conductor: K. Orbelian
(1988. Dedicated to the first performer Ruben Aharonian).
I.Grubert (violin) Holland
Moscow Chamber Orcestra
LOG EAC

Exact Audio Copy V1.0 beta 1 from 15. November 2010
EAC extraction logfile from 19. March 2012, 20:00
Alexsandr Arutiunian / Orchestral Compositions
Used drive  : ASUS    DRW-1814BL   Adapter: 0  ID: 0
Read mode               : Secure
Utilize accurate stream : Yes
Defeat audio cache      : Yes
Make use of C2 pointers : No
Read offset correction                      : 6
Overread into Lead-In and Lead-Out          : No
Fill up missing offset samples with silence : Yes
Delete leading and trailing silent blocks   : No
Null samples used in CRC calculations       : Yes
Used interface                              : Native Win32 interface for Win NT & 2000
Used output format              : User Defined Encoder
Selected bitrate                : 768 kBit/s
Quality                         : High
Add ID3 tag                     : No
Command line compressor         : C:\Program Files\Exact Audio Copy\Flac\flac.exe
Additional command line options : -8 -V %s
TOC of the extracted CD
     Track |   Start  |  Length  | Start sector | End sector
    ---------------------------------------------------------
        1  |  0:00.00 | 35:12.56 |         0    |   158455
        2  | 35:12.56 |  6:16.15 |    158456    |   186670
        3  | 41:28.71 | 22:11.74 |    186671    |   286569
Range status and errors
Selected range
     Filename C:\Program Files\Exact Audio Copy\Flac\Alexsandr Arutiunian - Orchestral Compositions.wav
     Peak level 99.2 %
     Extraction speed 2.8 X
     Range quality 100.0 %
     Test CRC E3663F21
     Copy CRC E3663F21
     Copy OK
No errors occurred
AccurateRip summary
Track  1  accurately ripped (confidence 1)  [91F6C79E]
Track  2  accurately ripped (confidence 1)  [C4CA9657]
Track  3  accurately ripped (confidence 1)  [9533A9A0]
All tracks accurately ripped
End of status report
==== Log checksum FF5D1D96F2054327D7689559CAB53051C346F89A9240F61FE1E492B8477647D7 ====


*CUE

REM GENRE Classical
REM DATE 2000
REM DISCID 190EEC03
REM COMMENT "ExactAudioCopy v1.0b1"
PERFORMER "Alexsandr Arutiunian"
TITLE "Orchestral Compositions"
FILE "Alexsandr Arutiunian - Orchestral Compositions.flac" WAVE
  TRACK 01 AUDIO
    TITLE "SYMPHONY for a big Symphony Orchestra"
    PERFORMER "Alexsandr Arutiunian"
    FLAGS DCP
    INDEX 01 00:00:00
  TRACK 02 AUDIO
    TITLE "FESTIVE OVERTURE for Symphony Orchestra"
    PERFORMER "Alexsandr Arutiunian"
    FLAGS DCP
    INDEX 00 35:10:56
    INDEX 01 35:12:56
  TRACK 03 AUDIO
    TITLE "CONCERTO FOR VIOLIN AND STRING ORCHESTRA"
    PERFORMER "Alexsandr Arutiunian"
    FLAGS DCP
    INDEX 00 41:26:71
    INDEX 01 41:28:71


Доп. информация
Алекса́ндр Григо́рьевич Арутюня́н (арм. Ալեքսանդր Գրիգորի Հարությունյանը; род. 23 сентября 1920, Ереван) — армянский композитор и пианист, Народный артист СССР (1970).
В 1934—1941 годах обучался в Ереванской консерватории имени Комитаса по классам композиции у Саркиса Бархударяна и В. Г. Тальяна, фортепиано — у О. А. Бабасян.
После войны совершенствовался в Московской консерватории у Литинского, Пейко и Цуккермана (1946—1948). Выступал как пианист-солист, исполнитель собственных произведений.
С 1954 по 1990 год — бессменный руководитель Армянской филармонии, с 1965 преподаёт в Ереванской консерватории, с 1977 — профессор класса композиции.
Арутюнян — член Союза композиторов СССР с 1939 года, Союза кинематографистов Армении с 1975 года.
Творческий стиль Арутюняна, развившийся в конце 1940-х годов, основан на богатом музыкальном наследии Армении и в то же время на принципах музыки классицизма и романтизма, что проявляется как в строгом соблюдении классической последовательности быстрых и медленных частей, так и в обращении к жанрам сюит и концертов. Важное значение в творчестве композитора имеют традиции народных армянских певцов — ашугов, музыка которых строится на разнообразных типах импровизационного развития. Сочинения Арутюняна наполнены экспрессией, чувственностью, ностальгией и иронией.
В творчестве композитора можно выделить несколько периодов: сочинения послевоенного периода и начала 1950-х годов характеризуются принципами тематического развития и сочетания масштабных структур, создающих большую эмоциональную интенсивность. Произведения этого периода — Праздничная увертюра, Симфония, Концертино для фортепиано с оркестром — приближаются по духу к работам Арама Хачатуряна. В 1960-е — 1970-е годы композитор отказывается от драматических элементов в пользу большей ясности изложения и ориентации на классические формы. Крупнейшее достижение Арутюняна в этот период — опера «Саят-Нова» (либретто А.С.Ханджяна), а также многочисленные произведения в неоклассическом стиле, среди которых — Концерт для валторны с оркестром, Вариации для трубы с оркестром и др. Наконец, начиная с 1980-х годов в сочинениях Арутюняна наблюдается стремление к синтезу различных стилей, как, например, в концертах для тромбона и тубы с оркестром (первые концертные сочинения для этих инструментов в истории армянской музыки), а также скрипичный концерт «Армения-88», считающийся одним из лучших произведений композитора. Посвящённый памяти жертв Спитакского землетрясения, концерт сочетает в себе стиль музыки барокко, классическую форму и утончённый лиризм романтической палитры звучаний. Среди его исполнителей Сергей Хачатрян.Ряд произведений Арутюняна для духовых инструментов (в частности, концерт для трубы, посвящённый Тимофею Докшицеру) входят в репертуар ведущих мировых исполнителей. На многих сценах мира звучат ярко концертные пьесы для двух фортепиано "Армянская рапсоди" и "Праздничная" (с ударными), написанные в соавторстве с А.А.Бабаджаняном.
mp3                                                                                       
                       
                       
                       
                       
                       
                                磁力下载(论坛代下载服务)::
                                                               
                                       
付费主题

已有0人支付


                                               
  • 351.3 MB
  • 温馨提示

    记得善用社区搜索功能,那里可能会有你想要的资源;论坛站内搜索

    如果你有什么需要的资源可以去资源求档发帖,求助社区的网友,我们会在第一时间给你回复哦;资源求档

    对于本社区网盘链接失效密码错误各种报错请在反馈板块反馈报错发帖,您的支持,是我们发展的最大动力;投诉建议

    回复

    使用道具 举报

    您需要登录后才可以回帖 登录 | 立即注册 微信登录

    本版积分规则

    关注0

    粉丝17

    帖子71480

    发布主题
    阅读排行更多+
    关闭

    站长推荐上一条 /1 下一条

    活动提示

    赞助永久VIP会员送3T硬盘一块 限时活动

    地址:立刻参加

    我知道了
    收藏帖子 返回列表 这是一个自定义按钮
    音乐分享,音乐下载。
    微信公众号
    微信号:hires_
    意见反馈:admin@maomicd.com

    加入我们的官方QQ群和微信群

    Powered by Discuz! X3.4 Archiver|手机版|小黑屋|捌零音乐论坛 ( 苏ICP备20015413号 )|( 苏公网安备 32030502000272号) 繁體

    GMT+8, 2021-9-25 05:37