[古典] (Classical) Elgar - Chanson de Matin, Serenade Lyrique, Salut d'Amour, Dream Children, Contrasts, Bavarian Dances, etc. (Tne Bournemouth Sinfonietta, Norman Del Mar; Leon Goossens

[复制链接]
elmisy 发表于 6 天前 | 显示全部楼层 |阅读模式 打印 上一主题 下一主题
Format: FLAC (image+.cue), lossless
Time: 50"42"
Recorded: Guildhall, Southampton in July 1976
Recording Technology: ADD
Executive Producer: Brian Couzens
Sound Engineer: Brian Couzens
Label: Chandos Records
Catalog: CHAN 8371 (pub. 1985)

Edward Elgar (1857-1934)
01. Chanson de Matin Op 15 No 2
02. Chanson de Nuit Op 15 No 1
03. Serenade Lyrique
04. Salut d'Amour Op 12
Dream Children Op.43 Nos. 1 & 2
05. No. 1 Andante
06. No. 2 Allegretto
07. Contrasts Op.10 No.3 (The Gavotte)
08. Soliliquy for Oboe and Orchestra
09. Woodland Interlude from 'Caractacus'
Two Interludes from 'Falstaff'
10. a) Jack Falstaff, Page to the Duke of Norfolk
11. b) Gloucestershire, Shallow's orchard
Three Bavarian Dances Op.27
12. No. 1 Allegretto giocoso
13. No. 2 Moderato
14. No. 3 Allegro vivace
Bournemouth Sinfonietta
Ronad Thomas, leader
Norman Del Mar, conductor
Leon Goossens, oboe
EAC log
Exact Audio Copy V0.99 prebeta 4 from 23. January 2008
EAC extraction logfile from 5. December 2008, 22:00
Del Mar, Bournemouth Sinfonietta / Elgar: Miniatures
Used drive : ASUS DVD-E616A3 Adapter: 0 ID: 0
Read mode : Secure
Utilize accurate stream : Yes
Defeat audio cache : No
Make use of C2 pointers : No
Read offset correction : 6
Overread into Lead-In and Lead-Out : No
Fill up missing offset samples with silence : Yes
Delete leading and trailing silent blocks : No
Null samples used in CRC calculations : Yes
Used interface : Native Win32 interface for Win NT & 2000
Used output format : User Defined Encoder
Selected bitrate : 128 kBit/s
Quality : High
Add ID3 tag : No
Command line compressor : C:\Program Files\FLAC\flac.exe
Additional command line options : -T "artist=%a" -T "title=%t" -T "album=%g" -T "date=%y" -T "tracknumber=%n" -T "genre=%m" -8 %s
TOC of the extracted CD
Track | Start | Length | Start sector | End sector
---------------------------------------------------------
1 | 0:00.33 | 2:55.17 | 33 | 13174
2 | 2:55.50 | 4:45.58 | 13175 | 34607
3 | 7:41.33 | 4:42.67 | 34608 | 55824
4 | 12:24.25 | 3:22.08 | 55825 | 70982
5 | 15:46.33 | 3:27.45 | 70983 | 86552
6 | 19:14.03 | 4:16.17 | 86553 | 105769
7 | 23:30.20 | 3:52.55 | 105770 | 123224
8 | 27:23.00 | 3:54.33 | 123225 | 140807
9 | 31:17.33 | 1:54.25 | 140808 | 149382
10 | 33:11.58 | 2:36.25 | 149383 | 161107
11 | 35:48.08 | 2:07.65 | 161108 | 170697
12 | 37:55.73 | 3:46.12 | 170698 | 187659
13 | 41:42.10 | 4:12.18 | 187660 | 206577
14 | 45:54.28 | 4:48.37 | 206578 | 228214
Range status and errors
Selected range
Filename J:\Torrents\Harvey's of Bristol\Harveys of Bristol English Series - Vol. 1 - Elgar, Delius, Bantock, Bridge, Butterworth\Elgar - Miniatures\Elgar - Miniatures.wav
Peak level 83.7 %
Range quality 100.0 %
Copy CRC 4BAF0D31
Copy OK
No errors occurred
AccurateRip summary
Track 1 accurately ripped (confidence 2) [B164D717]
Track 2 accurately ripped (confidence 2) [069AA49C]
Track 3 accurately ripped (confidence 2) [9B4C7D9C]
Track 4 accurately ripped (confidence 2) [0EA5DA0C]
Track 5 accurately ripped (confidence 2) [0FDC2696]
Track 6 accurately ripped (confidence 2) [E0DEC156]
Track 7 accurately ripped (confidence 2) [25B2F776]
Track 8 accurately ripped (confidence 2) [EFA12BEF]
Track 9 accurately ripped (confidence 2) [A78F834E]
Track 10 accurately ripped (confidence 2) [70A4BA0D]
Track 11 accurately ripped (confidence 2) [46FFF817]
Track 12 accurately ripped (confidence 2) [0B33C42F]
Track 13 accurately ripped (confidence 2) [E45CDEF5]
Track 14 accurately ripped (confidence 2) [DBCB4827]
All tracks accurately ripped
End of status report
[CHAN 8372] Frederick Delius - Miniatures (The Bournemouth Sinfonietta, Norman Del Mar)
[CHAN 8373] Bridge, Bantock & Butterworth (The Bournemouth Sinfonietta, Norman Del Mar)
[CHAN 8374] Vaughan Williams - Flos Campi, Suite for Viola & Orchestra (The Bournemouth Sinfonietta & Choir, Norman Del Mar)
[CHAN 8375] English Music for Strings - Holst, Elgar, Warlock & Ireland (The Bournemouth Sinfonietta, George Hurst)
[CHAN 8376] Benjamin Britten - The Complete Music for Strings (The Bournemouth Sinfonietta, Ronald Thomas)
[CHAN 8377] Music of Percy Grainger (The Bournemouth Sinfonietta, Kenneth Montgomery)
[CHAN 8378] Edmund Rubbra - Symphony No.10, Improvisations, & RVW Tribute (The Bournemouth Sinfonietta, Hans-Hubert Schonzeler)                                                                                       
                       
                       
                       
                       
                       
                                磁力下载(论坛代下载服务)::
                                                               
                                       
付费主题

已有0人支付


                                               
  • 206.3 MB
  • 温馨提示

    记得善用社区搜索功能,那里可能会有你想要的资源;论坛站内搜索

    如果你有什么需要的资源可以去资源求档发帖,求助社区的网友,我们会在第一时间给你回复哦;资源求档

    对于本社区网盘链接失效密码错误各种报错请在反馈板块反馈报错发帖,您的支持,是我们发展的最大动力;投诉建议

    回复

    使用道具 举报

    您需要登录后才可以回帖 登录 | 立即注册 微信登录

    本版积分规则

    关注0

    粉丝3

    帖子30621

    发布主题
    阅读排行更多+
    关闭

    站长推荐上一条 /1 下一条

    活动提示

    赞助永久VIP会员送3T硬盘一块 限时活动

    地址:立刻参加

    我知道了
    收藏帖子 返回列表 这是一个自定义按钮
    音乐分享,音乐下载。
    微信公众号
    微信号:hires_
    意见反馈:admin@maomicd.com

    加入我们的官方QQ群和微信群

    Powered by Discuz! X3.4 Archiver|手机版|小黑屋|捌零音乐论坛 ( 苏ICP备20015413号 )|( 苏公网安备 32030502000272号) 繁體

    GMT+8, 2021-9-16 23:51