[古典] (Classic) Bruckner - Symphony No. 8 - Carl Schuricht (EMI) - 1993, APE (image+.cue), lossless

[复制链接]
全球搬运 发表于 2021-9-10 16:56:46 | 显示全部楼层 |阅读模式 打印 上一主题 下一主题
Bruckner - Symphony No. 8 - Carl Schuricht (EMI)
Жанр: Classic
Год выпуска диска: 1993
Производитель диска: EMI
Аудио кодек: APE
Тип рипа: image+.cue
Битрейт аудио: lossless
Продолжительность: 71:16
Трэклист:
Symphony No. 8 1. Satz: Allegro moderato
2. Satz: Scherzo (Allegro Moderato) & Trio (Langsam)
3. Satz: Adagio (Feierlich langsam; doch nicht schleppend)
4. Satz: Finale (Feierlich, nicht schnell)
Доп. информация:
Berliner Philharmoniker
Carl Schuricht
Отчёт EAC
Exact Audio Copy V0.99 prebeta 4 from 23. January 2008
Отчёт EAC об извлечении, выполненном 30. августа 2009, 12:38
Carl Schuricht / Anton Bruckner - Sinfonie Nr. 8
Дисковод: HL-DT-STDVDRAM GSA-H62N Adapter: 2 ID: 0
Режим чтения : Достоверность
Использование точного потока : Да
Отключение кэша аудио : Да
Использование указателей C2 : Нет
Коррекция смещения при чтении : 667
Способность читать области Lead-in и Lead-out : Нет
Заполнение пропущенных сэмплов тишиной : Да
Удаление блоков с тишиной в начале и конце : Нет
При вычислениях CRC использовались нулевые сэмплы : Да
Интерфейс : Установленный внешний ASPI-интерфейс
Выходной формат : Внутренние WAV-операции
Формат сэмплов : 44.100 Гц; 16 бит; стерео
TOC извлечённого CD
Трек | Старт | Длительность | Начальный сектор | Конечный сектор
---------------------------------------------------------------------
1 | 0:00.00 | 15:38.32 | 0 | 70381
2 | 15:38.32 | 14:08.10 | 70382 | 133991
3 | 29:46.42 | 21:46.03 | 133992 | 231944
4 | 51:32.45 | 19:43.45 | 231945 | 320714
Характеристики диапазона извлечения и сообщения об ошибках
Выбранный диапазон
Имя файла D:\временная\Carl Schuricht - Anton Bruckner - Sinfonie Nr. 8.wav
Пиковый уровень 89.7 %
Качество диапазона 100.0 %
CRC копии 87B5504D
Копирование... OK
Ошибок не произошло
AccurateRip: сводка
Трек 1 нет в базе данных
Трек 2 нет в базе данных
Трек 3 нет в базе данных
Трек 4 нет в базе данных
Ни одного трека нет в базе AccurateRip
Конец отчёта

                                                                                       
                       
                       
                       
                       
                       
                                磁力下载(论坛代下载服务)::
                                                               
                                       
付费主题

已有0人支付


                                               
  • 295.8 MB
  • 温馨提示

    记得善用社区搜索功能,那里可能会有你想要的资源;论坛站内搜索

    如果你有什么需要的资源可以去资源求档发帖,求助社区的网友,我们会在第一时间给你回复哦;资源求档

    对于本社区网盘链接失效密码错误各种报错请在反馈板块反馈报错发帖,您的支持,是我们发展的最大动力;投诉建议

    回复

    使用道具 举报

    您需要登录后才可以回帖 登录 | 立即注册 微信登录

    本版积分规则

    关注0

    粉丝17

    帖子71978

    发布主题
    阅读排行更多+
    关闭

    站长推荐上一条 /1 下一条

    活动提示

    赞助永久VIP会员送3T硬盘一块 限时活动

    地址:立刻参加

    我知道了
    收藏帖子 返回列表 这是一个自定义按钮
    音乐分享,音乐下载。
    微信公众号
    微信号:hires_
    意见反馈:admin@maomicd.com

    加入我们的官方QQ群和微信群

    Powered by Discuz! X3.4 Archiver|手机版|小黑屋|捌零音乐论坛 ( 苏ICP备20015413号 )|( 苏公网安备 32030502000272号) 繁體

    GMT+8, 2021-9-26 09:16