[古典] (Orchestral) [CD] The Art of Toscanini (Mozart - Symphony No.40; Schubert - Symphony No.8; Smetana - Vltava "The Moldau"; Brahms - Symphony No.1; Saint-Saens - Da

[复制链接]
fqw1001 发表于 2021-9-10 16:56:46 | 显示全部楼层 |阅读模式 打印 上一主题 下一主题
The Art of Arturo Toscanini
Жанр: Orchestral • Издание диска: Vandisc, Italy • Номер по каталогу: THE50-21 • Год издания: 2003
Продолжительность: 1:53:50 • Аудиокодек: FLAC (*.flac) • Тип рипа: image+.cue • Битрейт аудио: lossless • Источник: свои диски • Наличие сканов: да
Диск 1
W.A. Mozart - Symphony No.40:
01. Allegro molto (10:37)
02. Andante (4:20)
03. Menuetto: Allegretto - Trio (18:46)
04. Finale: Allegro assai (5:44)
Franz Schubert - Symphny No.8:
05. Allegro moderato (12:21)
06. Andante con moto (12:04)
07. Bedrich Smetana - Vltava (The Moldau) (12:04)

NBC Symphony Orchestra - Arturo Toscanini
Время звучания: 55:14
Лог создания рипа

Exact Audio Copy V1.6 from 23. October 2020
EAC extraction logfile from 19. August 2021, 16:44
NBC Symphony Orchestra (CD1) / The Art of Toscanini
Used drive  : HL-DT-STDVDRAM GP65NB60   Adapter: 1  ID: 0
Read mode               : Secure
Utilize accurate stream : Yes
Defeat audio cache      : Yes
Make use of C2 pointers : No
Read offset correction                      : 6
Overread into Lead-In and Lead-Out          : No
Fill up missing offset samples with silence : Yes
Delete leading and trailing silent blocks   : No
Null samples used in CRC calculations       : Yes
Used interface                              : Native Win32 interface for Win NT & 2000
Used output format              : User Defined Encoder
Selected bitrate                : 1024 kBit/s
Quality                         : High
Add ID3 tag                     : No
Command line compressor         : C:\Program Files (x86)\Exact Audio Copy\Flac\flac.exe
Additional command line options : -V -8 -T "Date=%year%" -T "Genre=%genre%" %source%
TOC of the extracted CD
     Track |   Start  |  Length  | Start sector | End sector
    ---------------------------------------------------------
        1  |  0:00.00 |  7:25.21 |         0    |    33395
        2  |  7:25.21 |  6:57.14 |     33396    |    64684
        3  | 14:22.35 |  4:13.18 |     64685    |    83677
        4  | 18:35.53 |  4:26.53 |     83678    |   103680
        5  | 23:02.31 |  9:37.37 |    103681    |   146992
        6  | 32:39.68 | 11:31.08 |    146993    |   198825
        7  | 44:11.01 | 11:02.54 |    198826    |   248529
Range status and errors
Selected range
     Filename D:\The Art of Toscanini (CD1).wav
     Peak level 100.0 %
     Extraction speed 4.3 X
     Range quality 99.9 %
     Test CRC 18D5A658
     Copy CRC 18D5A658
     Copy OK
No errors occurred
AccurateRip summary
Track  1  accurately ripped (confidence 4)  [21B08680]  (AR v2)
Track  2  accurately ripped (confidence 4)  [01B4F779]  (AR v2)
Track  3  accurately ripped (confidence 4)  [87D851FB]  (AR v2)
Track  4  accurately ripped (confidence 4)  [FC90AB5C]  (AR v2)
Track  5  accurately ripped (confidence 4)  [3B3F17C5]  (AR v2)
Track  6  accurately ripped (confidence 4)  [9DC798B3]  (AR v2)
Track  7  accurately ripped (confidence 4)  [F59BC1E4]  (AR v2)
All tracks accurately ripped
End of status report
---- CUETools DB Plugin V2.1.6
[CTDB TOCID: pbiCsy0ulQxLmnVXH6a0LYscstQ-] found
Submit result: pbiCsy0ulQxLmnVXH6a0LYscstQ- has been confirmed
Track | CTDB Status
  1   | (7/7) Accurately ripped
  2   | (7/7) Accurately ripped
  3   | (7/7) Accurately ripped
  4   | (7/7) Accurately ripped
  5   | (7/7) Accurately ripped
  6   | (7/7) Accurately ripped
  7   | (7/7) Accurately ripped
==== Log checksum 11670A5B62ABC3A5B72C8938CBBC2B974A35A0A7493753718AD3119406537018 ====


Содержание индексной карты (.cue)

REM GENRE Classical
REM DATE 2003
REM DISCID 5E0CF107
REM COMMENT "ExactAudioCopy v1.6"
PERFORMER "The Art of Toscanini"
TITLE "NBC Symphony Orchestra (CD1)"
REM COMPOSER ""
FILE "The Art of Toscanini (CD1).flac" WAVE
  TRACK 01 AUDIO
    TITLE "Mozart - Symphony No.40: Allegro molto"
    PERFORMER "The Art of Toscanini"
    REM COMPOSER ""
    INDEX 01 00:00:00
  TRACK 02 AUDIO
    TITLE "Andante"
    PERFORMER "The Art of Toscanini"
    REM COMPOSER ""
    INDEX 01 07:25:21
  TRACK 03 AUDIO
    TITLE "Menuetto: Allegreto -Trio"
    PERFORMER "The Art of Toscanini"
    REM COMPOSER ""
    INDEX 01 14:22:35
  TRACK 04 AUDIO
    TITLE "Finale: Allegro assai"
    PERFORMER "The Art of Toscanini"
    REM COMPOSER ""
    INDEX 01 18:35:53
  TRACK 05 AUDIO
    TITLE "Schubert - Symphony No.8: Allegro moderato"
    PERFORMER "The Art of Toscanini"
    REM COMPOSER ""
    INDEX 00 22:56:32
    INDEX 01 23:02:31
  TRACK 06 AUDIO
    TITLE "Andante con moto"
    PERFORMER "The Art of Toscanini"
    REM COMPOSER ""
    INDEX 01 32:39:68
  TRACK 07 AUDIO
    TITLE "Smetana - The Moldau"
    PERFORMER "The Art of Toscanini"
    REM COMPOSER ""
    INDEX 00 44:06:41
    INDEX 01 44:11:01


DRM

foobar2000 1.1.7 / Замер динамического диапазона (DR) 1.1.1
Дата отчёта:  2021-08-19 17:23:48
--------------------------------------------------------------------------------
Анализ:   The Art of Toscanini / NBC Symphony Orchestra (CD1)
--------------------------------------------------------------------------------
DR         Пики         RMS           Продолжительность трека
--------------------------------------------------------------------------------
DR11      -0.37 дБ   -15.74 дБ      7:25 01-Mozart - Symphony No.40: Allegro molto
DR12      -0.98 дБ   -20.05 дБ      6:57 02-Andante
DR10      -0.12 дБ   -14.32 дБ      4:13 03-Menuetto: Allegreto -Trio
DR11       0.00 дБ   -13.95 дБ      4:27 04-Finale: Allegro assai
DR10       0.00 дБ   -15.36 дБ      9:37 05-Schubert - Symphony No.8: Allegro moderato
DR11      -0.58 дБ   -18.82 дБ     11:31 06-Andante con moto
DR11       0.00 дБ   -15.19 дБ     11:03 07-Smetana - The Moldau
--------------------------------------------------------------------------------
Количество треков: 7
Реальные значения DR: DR11
Частота:   44100 Гц
Каналов:   2
Разрядность:   16
Битрейт:   607 кбит/с
Кодек:   FLAC
================================================================================


.accurip

[CUETools log; Date: 19.08.2021 17:25:11; Version: 2.1.6]
[CTDB TOCID: pbiCsy0ulQxLmnVXH6a0LYscstQ-] found.
Track | CTDB Status
  1   | (8/8) Accurately ripped
  2   | (8/8) Accurately ripped
  3   | (8/8) Accurately ripped
  4   | (8/8) Accurately ripped
  5   | (8/8) Accurately ripped
  6   | (8/8) Accurately ripped
  7   | (8/8) Accurately ripped
[AccurateRip ID: 000d6cad-005207c9-5e0cf107] found.
Track   [  CRC   |   V2   ] Status
01     [48ae9227|21b08680] (0+4/4) Accurately ripped
02     [df77a03a|01b4f779] (0+4/4) Accurately ripped
03     [09bdd07e|87d851fb] (0+4/4) Accurately ripped
04     [33d63233|fc90ab5c] (0+4/4) Accurately ripped
05     [e90af5b8|3b3f17c5] (0+4/4) Accurately ripped
06     [6f2579a8|9dc798b3] (0+4/4) Accurately ripped
07     [b67aa73f|f59bc1e4] (0+4/4) Accurately ripped
Track Peak [ CRC32  ] [W/O NULL] [  LOG   ]
--   99,9 [18D5A658] [9C69EC45]   CRC32
01   95,8 [E4F7DAC9] [F2A92133]
02   89,3 [22E7531F] [415990A6]
03   98,6 [3C3163CF] [CCA07F37]
04   99,9 [AE1E3574] [FED93C32]
05   99,9 [02B05774] [40237201]
06   93,4 [3F0D2145] [93FFD441]
07   99,9 [82C28CE2] [F6CD2CDD]



Диск 2
Johannes Brahms - Symphony No.1:
01. Un poco sostenuto; Allegro (9:49)
02. Andante sostenuto (9:03)
03. Un poco allegretto e grazioso (7:59)
04. Adagio; Piu andante (11:27)
05. Camille Saint-Saens - Danse macabre (5:00)
06. Paul Dukas - L'apprenti sorcier (4:39)

NBC Symphony Orchestra - Arturo Toscanini
Время звучания: 59:24
Лог создания рипа

Exact Audio Copy V1.6 from 23. October 2020
EAC extraction logfile from 19. August 2021, 17:21
The Art of Toscanini / NBC Symphony Orchestra (CD2)
Used drive  : HL-DT-STDVDRAM GP65NB60   Adapter: 1  ID: 0
Read mode               : Secure
Utilize accurate stream : Yes
Defeat audio cache      : Yes
Make use of C2 pointers : No
Read offset correction                      : 6
Overread into Lead-In and Lead-Out          : No
Fill up missing offset samples with silence : Yes
Delete leading and trailing silent blocks   : No
Null samples used in CRC calculations       : Yes
Used interface                              : Native Win32 interface for Win NT & 2000
Used output format              : User Defined Encoder
Selected bitrate                : 1024 kBit/s
Quality                         : High
Add ID3 tag                     : No
Command line compressor         : C:\Program Files (x86)\Exact Audio Copy\Flac\flac.exe
Additional command line options : -V -8 -T "Date=%year%" -T "Genre=%genre%" %source%
TOC of the extracted CD
     Track |   Start  |  Length  | Start sector | End sector
    ---------------------------------------------------------
        1  |  0:00.00 | 11:57.27 |         0    |    53801
        2  | 11:57.27 |  8:20.09 |     53802    |    91310
        3  | 20:17.36 |  4:32.73 |     91311    |   111783
        4  | 24:50.34 | 16:51.10 |    111784    |   187618
        5  | 41:41.44 |  7:31.26 |    187619    |   221469
        6  | 49:12.70 | 10:11.33 |    221470    |   267327
Range status and errors
Selected range
     Filename D:\The Art of Toscanini (CD2).wav
     Peak level 100.0 %
     Extraction speed 4.4 X
     Range quality 99.9 %
     Test CRC BBCC1F5E
     Copy CRC BBCC1F5E
     Copy OK
No errors occurred
AccurateRip summary
Track  1  accurately ripped (confidence 4)  [6D6B60AD]  (AR v2)
Track  2  accurately ripped (confidence 4)  [CEF80D2B]  (AR v2)
Track  3  accurately ripped (confidence 4)  [C3109FD7]  (AR v2)
Track  4  accurately ripped (confidence 4)  [DE1698FB]  (AR v2)
Track  5  accurately ripped (confidence 4)  [08C8FCE6]  (AR v2)
Track  6  accurately ripped (confidence 4)  [E88AA19C]  (AR v2)
All tracks accurately ripped
End of status report
---- CUETools DB Plugin V2.1.6
[CTDB TOCID: W86QCgL8r1yg5QxcS_j_N8T8kR8-] found
Submit result: W86QCgL8r1yg5QxcS_j_N8T8kR8- has been confirmed
Track | CTDB Status
  1   | (8/8) Accurately ripped
  2   | (8/8) Accurately ripped
  3   | (8/8) Accurately ripped
  4   | (7/8) Accurately ripped
  5   | (7/8) Accurately ripped
  6   | (6/8) Accurately ripped
==== Log checksum EA5417B535C0053C6B94C3A7A4F67A4E6F47704D0A01ECD6AF348085459B8AA5 ====


Содержание индексной карты (.cue)

REM GENRE Classical
REM DATE 2003
REM DISCID 4E0DEC06
REM COMMENT "ExactAudioCopy v1.6"
PERFORMER "The Art of Toscanini"
TITLE "NBC Symphony Orchestra (CD2)"
REM COMPOSER ""
FILE "The Art of Toscanini (CD2).flac" WAVE
  TRACK 01 AUDIO
    TITLE "Brahms - Symphony No.1: Un poco sostenuto - Allegro"
    PERFORMER "The Art of Toscanini"
    REM COMPOSER ""
    INDEX 01 00:00:00
  TRACK 02 AUDIO
    TITLE "Andante sostenuto"
    PERFORMER "The Art of Toscanini"
    REM COMPOSER ""
    INDEX 01 11:57:27
  TRACK 03 AUDIO
    TITLE "Un poco allegretto e grazioso"
    PERFORMER "The Art of Toscanini"
    REM COMPOSER ""
    INDEX 01 20:17:36
  TRACK 04 AUDIO
    TITLE "Adagio - Piu andante"
    PERFORMER "The Art of Toscanini"
    REM COMPOSER ""
    INDEX 01 24:50:34
  TRACK 05 AUDIO
    TITLE "Saint-Saens - Danse macabre"
    PERFORMER "The Art of Toscanini"
    REM COMPOSER ""
    INDEX 00 41:37:31
    INDEX 01 41:41:44
  TRACK 06 AUDIO
    TITLE "Dukas - L'apprenti sorcier"
    PERFORMER "The Art of Toscanini"
    REM COMPOSER ""
    INDEX 00 49:08:50
    INDEX 01 49:12:70


DRM

foobar2000 1.1.7 / Замер динамического диапазона (DR) 1.1.1
Дата отчёта:  2021-08-19 17:25:30
--------------------------------------------------------------------------------
Анализ:   The Art of Toscanini / NBC Symphony Orchestra (CD2)
--------------------------------------------------------------------------------
DR         Пики         RMS           Продолжительность трека
--------------------------------------------------------------------------------
DR10      -0.02 дБ   -13.75 дБ     11:57 01-Brahms - Symphony No.1: Un poco sostenuto - Allegro
DR11       0.00 дБ   -16.89 дБ      8:20 02-Andante sostenuto
DR10      -0.68 дБ   -15.84 дБ      4:33 03-Un poco allegretto e grazioso
DR10       0.00 дБ   -14.40 дБ     16:51 04-Adagio - Piu andante
DR9        0.00 дБ   -14.30 дБ      7:31 05-Saint-Saens - Danse macabre
DR12       0.00 дБ   -16.71 дБ     10:11 06-Dukas - L'apprenti sorcier
--------------------------------------------------------------------------------
Количество треков: 6
Реальные значения DR: DR10
Частота:   44100 Гц
Каналов:   2
Разрядность:   16
Битрейт:   585 кбит/с
Кодек:   FLAC
================================================================================


.accurip

[CUETools log; Date: 19.08.2021 17:24:08; Version: 2.1.6]
[CTDB TOCID: W86QCgL8r1yg5QxcS_j_N8T8kR8-] found.
Track | CTDB Status
  1   | (9/9) Accurately ripped
  2   | (9/9) Accurately ripped
  3   | (9/9) Accurately ripped
  4   | (8/9) Accurately ripped
  5   | (8/9) Accurately ripped
  6   | (7/9) Accurately ripped
[AccurateRip ID: 000e3dc2-004bc9e5-4e0dec06] found.
Track   [  CRC   |   V2   ] Status
01     [9877a01e|6d6b60ad] (0+4/4) Accurately ripped
02     [0b2e08ca|cef80d2b] (0+4/4) Accurately ripped
03     [1668ccd7|c3109fd7] (0+4/4) Accurately ripped
04     [218cb714|de1698fb] (0+4/4) Accurately ripped
05     [7fc4e428|08c8fce6] (0+4/4) Accurately ripped
06     [2ea7efdb|e88aa19c] (0+4/4) Accurately ripped
Track Peak [ CRC32  ] [W/O NULL] [  LOG   ]
--   99,9 [BBCC1F5E] [3A90B1A7]   CRC32
01   99,7 [3DFFBE50] [FEACDDEB]
02   99,9 [25384D4F] [73BA259A]
03   92,5 [5CC3BEF2] [024D336A]
04   99,9 [02B68F7C] [722FF5AD]
05   99,9 [9DEF47F4] [4C92A7B0]
06   99,9 [0E99BAC1] [A136511F]


                                                                                       
                       
                       
                       
                       
                       
                                磁力下载(论坛代下载服务)::
                                                               
                                       
付费主题

已有0人支付


                                               
  • 509.4 MB
  • 温馨提示

    记得善用社区搜索功能,那里可能会有你想要的资源;论坛站内搜索

    如果你有什么需要的资源可以去资源求档发帖,求助社区的网友,我们会在第一时间给你回复哦;资源求档

    对于本社区网盘链接失效密码错误各种报错请在反馈板块反馈报错发帖,您的支持,是我们发展的最大动力;投诉建议

    回复

    使用道具 举报

    您需要登录后才可以回帖 登录 | 立即注册 微信登录

    本版积分规则

    关注0

    粉丝0

    帖子30586

    发布主题
    阅读排行更多+
    关闭

    站长推荐上一条 /1 下一条

    活动提示

    赞助永久VIP会员送3T硬盘一块 限时活动

    地址:立刻参加

    我知道了
    收藏帖子 返回列表 这是一个自定义按钮
    音乐分享,音乐下载。
    微信公众号
    微信号:hires_
    意见反馈:admin@maomicd.com

    加入我们的官方QQ群和微信群

    Powered by Discuz! X3.4 Archiver|手机版|小黑屋|捌零音乐论坛 ( 苏ICP备20015413号 )|( 苏公网安备 32030502000272号) 繁體

    GMT+8, 2021-9-24 05:15