[古典] (Classical bassoon concertos) [CD] Vivaldi - 7 Bassoon Concertos: in F major, RV 491; in A minor, RV 499; in E minor, RV 484; in G major, RV 494; in G minor, RV 495; in D minor, RV

[复制链接]
韬199435 发表于 2021-9-10 16:56:46 | 显示全部楼层 |阅读模式 打印 上一主题 下一主题
Vivaldi - 7 Bassoon Concertos (Klaus Thunemann, I Musici)
Жанр: Classical bassoon concertos
Носитель: CD
Страна-производитель диска: Made in Germany
Год издания диска: 1995
Издатель (лейбл): Philips Classics
Номер по каталогу: 416 355-2
Дата записи: 1994
Аудиокодек: FLAC
Тип рипа: image+.cue
Битрейт аудио: lossless
Продолжительность: 57:30
Источник: релизер
сайт-источник/ник/другое: odeonmusic; Caterina Sforza - работа с cue, доп. сканы
Наличие сканов в содержимом раздачи: да, полный авторский буклет jpeg, 13 стр.
Треклист:
Concerto in F, RV491
01. Allegro molto [0:03:27.00]
02. Largo [0:01:36.00]
03. (Allegro) [0:02:53.00]
Concerto in A minor, RV499
04. Allegro [0:03:32.00]
05. Largo [0:01:54.00]
06. Allegro [0:02:00.00]
Concerto in E minor, RV484
07. Allegro poco [0:04:08.00]
08. Andante [0:03:23.00]
09. Allegro [0:03:25.00]
Concerto in G, RV494
10. Allegro [0:03:58.00]
11. Concerto in G, RV494 - Largo [0:02:57.00]
12. (Allegro) [0:02:51.00]
Concerto in G minor, RV495
13. Presto [0:03:28.00]
14. Largo [0:02:29.00]
15. Allegro [0:02:54.00]
16. Allegro Molto [0:02:40.00]
Concerto in C, RV472
17. Allegro non molto [0:03:40.00]
18. Andante molto [0:03:02.00]
19. Allegro [0:03:13.00]
Исполнители

Antonio Vivaldi (1678-1741)
Concertos for Bassoon, Strings and Continuo:
Concerto in F major, RV 491
Concerto in A minor, RV 499
Concerto in E minor, RV 484
Concerto in G major, RV 494
Concerto in G minor, RV 495
Concerto in D minor, RV 482
Concerto in C major, RV 472
Klaus Thunemann - bassoon
I Musici


Лог создания рипа

Exact Audio Copy V1.0 beta 3 from 29. August 2011
EAC extraction logfile from 12. September 2012, 22:23
Klaus Thunemann / Vivaldi - 7 Bassoon Concertos - Klaus Thunemann
Used drive  : TSSTcorpCDDVDW SH-222BB   Adapter: 2  ID: 1
Read mode               : Secure
Utilize accurate stream : Yes
Defeat audio cache      : Yes
Make use of C2 pointers : No
Read offset correction                      : 6
Overread into Lead-In and Lead-Out          : No
Fill up missing offset samples with silence : Yes
Delete leading and trailing silent blocks   : No
Null samples used in CRC calculations       : Yes
Used interface                              : Native Win32 interface for Win NT & 2000
Used output format              : User Defined Encoder
Selected bitrate                : 1024 kBit/s
Quality                         : High
Add ID3 tag                     : No
Command line compressor         : C:\Program Files\Exact Audio Copy\Flac\flac.exe
Additional command line options : -8 -V -T "TITLE=%title%" -T "ARTIST=%artist%" -T "ALBUMARTIST=%albumartist%" -T "ALBUM=%albumtitle%" -T "DATE=%year%" -T "TRACKNUMBER=%tracknr%" -T "TRACKTOTAL=%numtracks%" -T "GENRE=%genre%" -T "COMMENT=%comment%" -T "PERFORMER=%albuminterpret%" -T "COMPOSER=%composer%" %source% -o %dest%
TOC of the extracted CD
     Track |   Start  |  Length  | Start sector | End sector
    ---------------------------------------------------------
        1  |  0:00.43 |  3:27.00 |        43    |    15567
        2  |  3:27.43 |  1:36.00 |     15568    |    22767
        3  |  5:03.43 |  2:53.00 |     22768    |    35742
        4  |  7:56.43 |  3:32.00 |     35743    |    51642
        5  | 11:28.43 |  1:54.00 |     51643    |    60192
        6  | 13:22.43 |  2:00.00 |     60193    |    69192
        7  | 15:22.43 |  4:08.00 |     69193    |    87792
        8  | 19:30.43 |  3:23.00 |     87793    |   103017
        9  | 22:53.43 |  3:25.00 |    103018    |   118392
       10  | 26:18.43 |  3:58.00 |    118393    |   136242
       11  | 30:16.43 |  2:57.00 |    136243    |   149517
       12  | 33:13.43 |  2:51.00 |    149518    |   162342
       13  | 36:04.43 |  3:28.00 |    162343    |   177942
       14  | 39:32.43 |  2:29.00 |    177943    |   189117
       15  | 42:01.43 |  2:54.00 |    189118    |   202167
       16  | 44:55.43 |  2:40.00 |    202168    |   214167
       17  | 47:35.43 |  3:40.00 |    214168    |   230667
       18  | 51:15.43 |  3:02.00 |    230668    |   244317
       19  | 54:17.43 |  3:13.00 |    244318    |   258792
Range status and errors
Selected range
     Filename F:\Ripped general\[2528] Vivaldi - 7 Bassoon Concertos - Klaus Thunemann\Vivaldi - 7 Bassoon Concertos - Klaus Thunemann.wav
     Peak level 94.0 %
     Extraction speed 2.3 X
     Range quality 100.0 %
     Test CRC 205EFE78
     Copy CRC 205EFE78
     Copy OK
No errors occurred
AccurateRip summary
Track  1  accurately ripped (confidence 2)  [E1C852BC]  (AR v1)
Track  2  accurately ripped (confidence 2)  [DB3D2EC5]  (AR v1)
Track  3  accurately ripped (confidence 2)  [18454094]  (AR v1)
Track  4  accurately ripped (confidence 2)  [8C65A4ED]  (AR v1)
Track  5  accurately ripped (confidence 2)  [D207228E]  (AR v1)
Track  6  accurately ripped (confidence 2)  [EACFC693]  (AR v1)
Track  7  accurately ripped (confidence 2)  [15BB6D86]  (AR v1)
Track  8  accurately ripped (confidence 2)  [6D45151E]  (AR v1)
Track  9  accurately ripped (confidence 2)  [CA863F79]  (AR v1)
Track 10  accurately ripped (confidence 2)  [B327597B]  (AR v1)
Track 11  accurately ripped (confidence 2)  [DDBF15AF]  (AR v1)
Track 12  accurately ripped (confidence 2)  [84688EC6]  (AR v1)
Track 13  accurately ripped (confidence 2)  [919A15BD]  (AR v1)
Track 14  accurately ripped (confidence 2)  [838D212A]  (AR v1)
Track 15  accurately ripped (confidence 2)  [A5650090]  (AR v1)
Track 16  not present in database
Track 17  accurately ripped (confidence 2)  [B4C07B09]  (AR v1)
Track 18  accurately ripped (confidence 2)  [C6F64AFE]  (AR v1)
Track 19  accurately ripped (confidence 2)  [1F82DFCD]  (AR v1)
18 track(s) accurately ripped
1 track(s) not present in the AccurateRip database
Some tracks could not be verified as accurate
End of status report


Содержание индексной карты (.CUE)

REM GENRE Classical
REM DATE 1994
REM DISCID 230D7A13
REM COMMENT "ExactAudioCopy v1.0b3"
PERFORMER "Klaus Thunemann (bassoon), I Musici"
TITLE "Vivaldi - 7 Bassoon Concertos - Klaus Thunemann"
FILE "Vivaldi - 7 Bassoon Concertos - Klaus Thunemann.flac" WAVE
  TRACK 01 AUDIO
    TITLE "Concerto for Bassoon, Strings and Continuo in F, RV 491 - 1. Allegro molto"
    PERFORMER "Klaus Thunemann, I Musici"
    INDEX 00 00:00:00
    INDEX 01 00:00:43
  TRACK 02 AUDIO
    TITLE "Concerto for Bassoon, Strings and Continuo in F, RV 491 - 2. Largo"
    PERFORMER "Klaus Thunemann, I Musici"
    INDEX 00 03:26:43
    INDEX 01 03:27:43
  TRACK 03 AUDIO
    TITLE "Concerto for Bassoon, Strings and Continuo in F, RV 491 - 3. (Allegro)"
    PERFORMER "Klaus Thunemann, I Musici"
    INDEX 00 05:02:43
    INDEX 01 05:03:43
  TRACK 04 AUDIO
    TITLE "Concerto for Bassoon, Strings and Continuo in A minor, RV 499 - 1. Allegro"
    PERFORMER "Klaus Thunemann, I Musici"
    INDEX 00 07:51:43
    INDEX 01 07:56:43
  TRACK 05 AUDIO
    TITLE "Concerto for Bassoon, Strings and Continuo in A minor, RV 499 - 2. Largo"
    PERFORMER "Klaus Thunemann, I Musici"
    INDEX 00 11:26:43
    INDEX 01 11:28:43
  TRACK 06 AUDIO
    TITLE "Concerto for Bassoon, Strings and Continuo in A minor, RV 499 - 3. Allegro"
    PERFORMER "Klaus Thunemann, I Musici"
    INDEX 01 13:22:43
  TRACK 07 AUDIO
    TITLE "Concerto for Bassoon, Strings and Continuo in E minor, RV 484 - 1. Allegro poco"
    PERFORMER "Klaus Thunemann, I Musici"
    INDEX 00 15:18:43
    INDEX 01 15:22:43
  TRACK 08 AUDIO
    TITLE "Concerto for Bassoon, Strings and Continuo in E minor, RV 484 - 2. Andante"
    PERFORMER "Klaus Thunemann, I Musici"
    INDEX 00 19:27:43
    INDEX 01 19:30:43
  TRACK 09 AUDIO
    TITLE "Concerto for Bassoon, Strings and Continuo in E minor, RV 484 - 3. Allegro"
    PERFORMER "Klaus Thunemann, I Musici"
    INDEX 00 22:52:43
    INDEX 01 22:53:43
  TRACK 10 AUDIO
    TITLE "Concerto for Bassoon, Strings and Continuo in G, RV 494 - 1. Allegro"
    PERFORMER "Klaus Thunemann, I Musici"
    INDEX 00 26:14:43
    INDEX 01 26:18:43
  TRACK 11 AUDIO
    TITLE "Concerto for Bassoon, Strings and Continuo in G, RV 494 - 2. Largo"
    PERFORMER "Klaus Thunemann, I Musici"
    INDEX 00 30:14:43
    INDEX 01 30:16:43
  TRACK 12 AUDIO
    TITLE "Concerto for Bassoon, Strings and Continuo in G, RV 494 - 3. (Allegro)"
    PERFORMER "Klaus Thunemann, I Musici"
    INDEX 00 33:12:43
    INDEX 01 33:13:43
  TRACK 13 AUDIO
    TITLE "Concerto for Bassoon, Strings and Continuo in G minor, RV 495 - 1. Presto"
    PERFORMER "Klaus Thunemann, I Musici"
    INDEX 00 35:59:43
    INDEX 01 36:04:43
  TRACK 14 AUDIO
    TITLE "Concerto for Bassoon, Strings and Continuo in G minor, RV 495 - 2. Largo"
    PERFORMER "Klaus Thunemann, I Musici"
    INDEX 01 39:32:43
  TRACK 15 AUDIO
    TITLE "Concerto for Bassoon, Strings and Continuo in G minor, RV 495 - 3. Allegro"
    PERFORMER "Klaus Thunemann, I Musici"
    INDEX 00 42:00:43
    INDEX 01 42:01:43
  TRACK 16 AUDIO
    TITLE "Concerto for Bassoon, Strings and Continuo in D minor, RV 482 - 1. Allegro Molto"
    PERFORMER "Klaus Thunemann, I Musici"
    INDEX 00 44:52:43
    INDEX 01 44:55:43
  TRACK 17 AUDIO
    TITLE "Concerto for Bassoon, Strings and Continuo in C, RV 472 - 2. Allegro non molto"
    PERFORMER "Klaus Thunemann, I Musici"
    INDEX 00 47:30:43
    INDEX 01 47:35:43
  TRACK 18 AUDIO
    TITLE "Concerto for Bassoon, Strings and Continuo in C, RV 472 - 3. Andante molto"
    PERFORMER "Klaus Thunemann, I Musici"
    INDEX 00 51:13:43
    INDEX 01 51:15:43
  TRACK 19 AUDIO
    TITLE "Concerto for Bassoon, Strings and Continuo in C, RV 472 - 4. Allegro"
    PERFORMER "Klaus Thunemann, I Musici"
    INDEX 00 54:16:43
    INDEX 01 54:17:43

Редкий диск
Не путать с этими:
https://rutracker.org/forum/https://rutracker.net/forum/viewtopic.php?t=5118058
https://rutracker.org/forum/https://rutracker.net/forum/viewtopic.php?t=633798 (вообще нужно удалить)
Там запись 1985 года, здесь 1994
НУЖНО ПЕРЕНЕСТИ В КОНЦЕРТНУЮ!                                                                                       
                       
                       
                       
                       
                       
                                磁力下载(论坛代下载服务)::
                                                               
                                       
付费主题

已有0人支付


                                               
  • 279.2 MB
  • 温馨提示

    记得善用社区搜索功能,那里可能会有你想要的资源;论坛站内搜索

    如果你有什么需要的资源可以去资源求档发帖,求助社区的网友,我们会在第一时间给你回复哦;资源求档

    对于本社区网盘链接失效密码错误各种报错请在反馈板块反馈报错发帖,您的支持,是我们发展的最大动力;投诉建议

    回复

    使用道具 举报

    您需要登录后才可以回帖 登录 | 立即注册 微信登录

    本版积分规则

    关注0

    粉丝0

    帖子31315

    发布主题
    阅读排行更多+
    关闭

    站长推荐上一条 /1 下一条

    活动提示

    赞助永久VIP会员送3T硬盘一块 限时活动

    地址:立刻参加

    我知道了
    收藏帖子 返回列表 这是一个自定义按钮
    音乐分享,音乐下载。
    微信公众号
    微信号:hires_
    意见反馈:admin@maomicd.com

    加入我们的官方QQ群和微信群

    Powered by Discuz! X3.4 Archiver|手机版|小黑屋|捌零音乐论坛 ( 苏ICP备20015413号 )|( 苏公网安备 32030502000272号) 繁體

    GMT+8, 2021-9-21 13:17