[古典] (Classical ballet / vocal) Lully, Campra, Lambert, Marais, de Chambonnieres, F.Couperin, L.Couperin, d'Anglebert, le Roux - Versailles: L'ile enchantee (Guillemette Laurens, Capric

[复制链接]
kayda 发表于 2021-9-10 16:56:46 | 显示全部楼层 |阅读模式 打印 上一主题 下一主题
Versailles: L'ile enchantee / The Enchanted Island
Жанр: Classical orchestral / vocal
Страна-производитель диска: Made in EU
Год издания диска: 2004
Издатель (лейбл): Alpha Productions ‎; Серия: Ut Pictura Musica
Номер по каталогу: Alpha 016
Дата записи: 2001
Аудиокодек: FLAC
Тип рипа: image+.cue
Битрейт аудио: lossless
Продолжительность: 01:08:35
Источник: релизер
сайт-источник/ник/другое: Roy Movrich, подарок; Caterina Sforza - доп. сканы (cue не трогал)
Наличие сканов в содержимом раздачи: да, авторский? pdf буклет, 42 страницы + авторские сканы tif
Треклист

Divertissement I
1 –Jean-Baptiste Lully Ouverture De Psyché (Prologue) [Le Théâtre Représente Une Cour Magnifique Au Bord De La Mer] 2:24
Divertissement II
2 –Jean-Henri D'Anglebert* Prélude En Sol Mineur 1:36
3 –Michel Lambert (3) Vos Mépris Chaque Jour 3:20
4 –Jacques Champion de Chambonnières Sarabande En Sol 2:14
5 –Jean-Baptiste Lully Marche Pour La Cérémonie Des Turcs (Le Bourgeois Gentilhomme 1:18
Divertissement III
6 –Jean-Henri D'Anglebert* Prélude En Sol 2:04
7 –Michel Lambert (3) Ombre De Mon Amant 5:37
8 –Jean-Baptiste Lully / Jean-Henri D'Anglebert* Passacaille D'Armide À 2 Clavecins 3:54
9 –Gaspard Le Roux Gigue En Sol À 2 Clavecins 1:02
10 –Jean-Baptiste Lully Reprise De La Marche Pour La Cérémonie Des Turcs 1:30
Divertissement IV
11 –André Campra Sommeil (L'Europe Galante, Acte III, 1) [Le Théâtre Représente Une Place Publique, Que L'on Discerne À Peine, Parce Que L'Action Se Passe Dans La Nuit] 5:40
Divertissement V
12 –Louis Couperin Prélude En Ut 2:58
13 –Louis Couperin Passacaille En Ut 5:09
Divertissement VI
14 –Jacques Champion de Chambonnières Paschalia À 2 Clavecins 1:36
15 –André Campra Mes Yeux... (L'Europe Galante, Acte V, I) [Le Théâtre Représente Les Jardins Du Sérail Du Grand Seigneur, & Dans Le Fond, L'Appartement Des Sultanes] 4:18
16 –François Couperin Allemande À 2 Clavecins 4:31
Divertissement VII
17 –Marin Marais Les Voix Humaines 4:08
18 –Jean-Henri D'Anglebert* Prélude En Ré Mineur 4:07
19 –Marin Marais Sarabande En Ré Mineur 3:21
Divertissement VIII
20 –Jean-Baptiste Lully Quels Spectacles Charmants (Le Bourgeois Gentilhomme) 1:18
21 –Jean-Baptiste Lully Chaconne (Amadis, Acte V, 5) [Les Héros & Héroïnes Témoignent Leur Joie Par Des Danses Mélées De Chants] 6:43


Исполнители

Versailles: The Enchanted Island
Jean-Baptiste Lully (1632-1687)
Ouverture de Psyché
Jean-Henri d'Anglebert (1635-1691)
Prélude en sol mineur
Michel Lambert (1610-1696)
Vos mépris chaque jour
Jacques Champion de Chambonnières (1602-1672)
Sarabande en sol
Jean-Baptiste Lully (1632-1687)
Marche pour la cérémonie des Turcs (Le Bourgeois Gentilhomme)
Jean-Henri d'Anglebert (1635-1691)
Prélude en sol
Michel Lambert (1610-1696)
Ombre de mon amant
Jean-Baptiste Lully (1632-1687)
Passacaille d’Armide à 2 clavecins
Gaspard le Roux (c1660-c1707)
Gigue en sol à 2 clavecins
Jean-Baptiste Lully (1632-1687)
Réprise de la Marche pour la Cérémonie des Turcs (Le Bourgeois Gentilhomme)
André Campra (1660-1744)
Sommeil (L’Europe Galante, Acte III, 1)
Louis Couperin (c1626-1661)
Prélude en ut
Passacaille en ut
Jacques Champion de Chambonnières (1602-1672)
Paschalia à 2 clavecins
André Campra (1660-1744)
“Mes Yeux...” (L’Europe Galante, Acte V, 1)
François Couperin (1668-1733)
Allemande à 2 clavecins
Marin Marais (1656-1728)
Le Voix Humaines
Jean-Henri d'Anglebert (1635-1691)
Prélude en ré mineur
Marin Marais (1656-1728)
Sarabande en ré mineur
Jean-Baptiste Lully (1632-1687)
“Quels spectacles charmants” (Le Bourgeois Gentilhomme)
Chaconne d’Amadis (Amadis, Acte V, 5)
SOLOISTS:
Guillemette Laurens - mezzo soprano
Sandrine Rondot - soprano
José Canales - ténor
Renaud Delaigue - basse
Jay Bernfield, Ariane Maurette - basse de viole
Jasu Moisio - hautbois
Skip Sempé, Olivier Fortin - clavecins
DIRECTION: Skip Sempé
Recorded in July 2001 in Paris, Eglise Notre-Dame du Liban
Release Date: July 20, 2004


Лог создания рипа

Exact Audio Copy V1.2 from 12. August 2016
EAC extraction logfile from 29. July 2019, 7:09
Skip Sempé, Capriccio Stravagante Orchestra / Versailles - L’île enchantée
Used drive  : MATSHITADVD-RAM UJ8G6   Adapter: 1  ID: 0
Read mode               : Secure
Utilize accurate stream : Yes
Defeat audio cache      : Yes
Make use of C2 pointers : No
Read offset correction                      : 103
Overread into Lead-In and Lead-Out          : No
Fill up missing offset samples with silence : Yes
Delete leading and trailing silent blocks   : No
Null samples used in CRC calculations       : Yes
Used interface                              : Native Win32 interface for Win NT & 2000
Used output format              : User Defined Encoder
Selected bitrate                : 768 kBit/s
Quality                         : High
Add ID3 tag                     : No
Command line compressor         : C:\Program Files (x86)\Exact Audio Copy\Flac\flac.exe
Additional command line options : -6 -V -T "ARTIST=%artist%" -T "TITLE=%title%" -T "ALBUM=%albumtitle%" -T "DATE=%year%" -T "TRACKNUMBER=%tracknr%" -T "GENRE=%genre%" -T "COMMENT=%comment%" -T "BAND=%albuminterpret%" -T "ALBUMARTIST=%albuminterpret%" -T "COMPOSER=%composer%" %haslyrics%--tag-from-file=LYRICS="%lyricsfile%"%haslyrics% -T "DISCNUMBER=%cdnumber%" -T "TOTALDISCS=%totalcds%" -T "TOTALTRACKS=%numtracks%" %hascover%--picture="%coverfile%"%hascover% %source% -o %dest%
TOC of the extracted CD
     Track |   Start  |  Length  | Start sector | End sector
    ---------------------------------------------------------
        1  |  0:00.00 |  2:22.73 |         0    |    10722
        2  |  2:22.73 |  1:34.31 |     10723    |    17803
        3  |  3:57.29 |  3:20.32 |     17804    |    32835
        4  |  7:17.61 |  2:13.00 |     32836    |    42810
        5  |  9:30.61 |  1:18.27 |     42811    |    48687
        6  | 10:49.13 |  2:02.60 |     48688    |    57897
        7  | 12:51.73 |  5:37.27 |     57898    |    83199
        8  | 18:29.25 |  3:54.24 |     83200    |   100773
        9  | 22:23.49 |  1:00.33 |    100774    |   105306
       10  | 23:24.07 |  1:30.36 |    105307    |   112092
       11  | 24:54.43 |  5:40.66 |    112093    |   137658
       12  | 30:35.34 |  2:59.03 |    137659    |   151086
       13  | 33:34.37 |  5:08.45 |    151087    |   174231
       14  | 38:43.07 |  1:35.03 |    174232    |   181359
       15  | 40:18.10 |  4:17.09 |    181360    |   200643
       16  | 44:35.19 |  4:31.18 |    200644    |   220986
       17  | 49:06.37 |  4:08.39 |    220987    |   239625
       18  | 53:15.01 |  4:07.33 |    239626    |   258183
       19  | 57:22.34 |  3:21.39 |    258184    |   273297
       20  | 60:43.73 |  1:16.60 |    273298    |   279057
       21  | 62:00.58 |  6:43.45 |    279058    |   309327
Range status and errors
Selected range
     Filename C:\Users\Roy\Music\VERSAILLES L’île enchantée () [Sempé; Alpha Classics]\CD (FLAC + CUE)\Versailles - L’île enchantée.wav
     Peak level 100.0 %
     Extraction speed 4.4 X
     Range quality 100.0 %
     Test CRC 4132D7A9
     Copy CRC 4132D7A9
     Copy OK
No errors occurred
AccurateRip summary
Track  1  accurately ripped (confidence 2)  [8619B3B7]  (AR v2)
Track  2  accurately ripped (confidence 2)  [301B9A7F]  (AR v2)
Track  3  accurately ripped (confidence 2)  [F9902B80]  (AR v2)
Track  4  accurately ripped (confidence 2)  [020AC053]  (AR v2)
Track  5  accurately ripped (confidence 2)  [2F251365]  (AR v2)
Track  6  accurately ripped (confidence 2)  [7E3F90C8]  (AR v2)
Track  7  accurately ripped (confidence 2)  [82E72170]  (AR v2)
Track  8  accurately ripped (confidence 2)  [C26D70F7]  (AR v2)
Track  9  accurately ripped (confidence 2)  [C2A37F05]  (AR v2)
Track 10  accurately ripped (confidence 2)  [5156B291]  (AR v2)
Track 11  accurately ripped (confidence 2)  [1F5936A4]  (AR v2)
Track 12  accurately ripped (confidence 2)  [FDE3D1BC]  (AR v2)
Track 13  accurately ripped (confidence 2)  [5A739F26]  (AR v2)
Track 14  accurately ripped (confidence 2)  [53958BF5]  (AR v2)
Track 15  accurately ripped (confidence 2)  [A44C403E]  (AR v2)
Track 16  accurately ripped (confidence 2)  [EFD6BCEB]  (AR v2)
Track 17  accurately ripped (confidence 2)  [F89F9C7F]  (AR v2)
Track 18  accurately ripped (confidence 2)  [ED14AA34]  (AR v2)
Track 19  accurately ripped (confidence 2)  [DCA4F111]  (AR v2)
Track 20  accurately ripped (confidence 2)  [353E1255]  (AR v2)
Track 21  accurately ripped (confidence 2)  [BDAA065F]  (AR v2)
All tracks accurately ripped
End of status report
---- CUETools DB Plugin V2.1.6
[CTDB TOCID: GJ0LjIZ57Z_2ylyPaOEZbthGJrI-] found
Submit result: GJ0LjIZ57Z_2ylyPaOEZbthGJrI- has been confirmed
Track | CTDB Status
  1   | (22/22) Accurately ripped
  2   | (22/22) Accurately ripped
  3   | (22/22) Accurately ripped
  4   | (22/22) Accurately ripped
  5   | (22/22) Accurately ripped
  6   | (22/22) Accurately ripped
  7   | (22/22) Accurately ripped
  8   | (22/22) Accurately ripped
  9   | (22/22) Accurately ripped
10   | (22/22) Accurately ripped
11   | (22/22) Accurately ripped
12   | (22/22) Accurately ripped
13   | (22/22) Accurately ripped
14   | (22/22) Accurately ripped
15   | (21/22) Accurately ripped
16   | (22/22) Accurately ripped
17   | (22/22) Accurately ripped
18   | (21/22) Accurately ripped
19   | (22/22) Accurately ripped
20   | (22/22) Accurately ripped
21   | (21/22) Accurately ripped
==== Log checksum 219B3F9635595EDDC208CE4021AE8D8ACCE6AC5F905110CD3A23B9A7C7786804 ====


Содержание индексной карты (.CUE)

REM DATE 2001
REM DISCID 25101C15
REM COMMENT "ExactAudioCopy v1.2"
PERFORMER "Skip Sempé; Guillemette Laurens; Sandrine Rondot; José Canales; Renaud Delaigue; Jay Bernfield; Ariane Maurette; Jasu Moisio; Olivier Fortin; Capriccio Stravagante Orchestra"
TITLE "Versailles - L’île enchantée"
FILE "Versailles - L’île enchantée.flac" WAVE
  TRACK 01 AUDIO
    TITLE "Divertissement I - LULLY Ouverture de Psyché (Prologue)"
    PERFORMER "Skip Sempé, Capriccio Stravagante Orchestra"
    INDEX 01 00:00:00
  TRACK 02 AUDIO
    TITLE "Divertissement II - D’ANGLEBERT Prélude en sol mineur"
    PERFORMER "Skip Sempé"
    INDEX 01 02:22:73
  TRACK 03 AUDIO
    TITLE "Divertissement II - LAMBERT “Vos mépris chaque jour...”"
    PERFORMER "Skip Sempé, Guillemette Laurens, Capriccio Stravagante"
    INDEX 01 03:57:29
  TRACK 04 AUDIO
    TITLE "Divertissement II - CHAMBONNIÈRES Sarabande en sol"
    PERFORMER "Skip Sempé"
    INDEX 01 07:17:61
  TRACK 05 AUDIO
    TITLE "Divertissement II - LULLY Marche pour la cérémonie des Turcs (Le Bourgeois Gentilhomme)"
    PERFORMER "Skip Sempé, Capriccio Stravagante Orchestra"
    INDEX 01 09:30:61
  TRACK 06 AUDIO
    TITLE "Divertissement III - D’ANGLEBERT Prélude en sol"
    PERFORMER "Skip Sempé"
    INDEX 01 10:49:13
  TRACK 07 AUDIO
    TITLE "Divertissement III - LAMBERT “Ombre de mon amant”"
    PERFORMER "Skip Sempé, Guillemette Laurens, Capriccio Stravagante"
    INDEX 01 12:51:73
  TRACK 08 AUDIO
    TITLE "Divertissement III - LULLY Passacaille d’Armide à 2 clavecins"
    PERFORMER "Skip Sempé, Olivier Fortin"
    INDEX 01 18:29:25
  TRACK 09 AUDIO
    TITLE "Divertissement III - LE ROUX Gigue en sol à 2 clavecins"
    PERFORMER "Skip Sempé, Olivier Fortin"
    INDEX 01 22:23:49
  TRACK 10 AUDIO
    TITLE "Divertissement III - LULLY Réprise de la Marche pour la Cérémonie des Turcs"
    PERFORMER "Skip Sempé, Capriccio Stravagante Orchestra"
    INDEX 01 23:24:07
  TRACK 11 AUDIO
    TITLE "Divertissement IV - CAMPRA Sommeil (L’Europe Galante, Acte III, 1)"
    PERFORMER "Skip Sempé, Jasu Moisio, Capriccio Stravagante Orchestra"
    REM INDEX 00 24:53:61
    INDEX 01 24:54:43
  TRACK 12 AUDIO
    TITLE "Divertissement V - COUPERIN, L. Prélude en ut"
    PERFORMER "Skip Sempé"
    REM INDEX 00 30:32:48
    INDEX 01 30:35:34
  TRACK 13 AUDIO
    TITLE "Divertissement V - COUPERIN, L. Passacaille en ut"
    PERFORMER "Skip Sempé"
    INDEX 01 33:34:37
  TRACK 14 AUDIO
    TITLE "Divertissement VI - CHAMBONNIÈRES Paschalia à 2 clavecins"
    PERFORMER "Skip Sempé, Olivier Fortin"
    INDEX 01 38:43:07
  TRACK 15 AUDIO
    TITLE "Divertissement VI - CAMPRA “Mes Yeux...” (L’Europe Galante, Acte V, 1)"
    PERFORMER "Skip Sempé, Guillemette Laurens, Capriccio Stravagante Orchestra"
    INDEX 01 40:18:10
  TRACK 16 AUDIO
    TITLE "Divertissement VI - COUPERIN, F. Allemande à 2 clavecins"
    PERFORMER "Skip Sempé, Olivier Fortin"
    INDEX 01 44:35:19
  TRACK 17 AUDIO
    TITLE "Divertissement VII - MARAIS Le Voix Humaines"
    PERFORMER "Skip Sempé, Capriccio Stravagante"
    REM INDEX 00 49:04:27
    INDEX 01 49:06:37
  TRACK 18 AUDIO
    TITLE "Divertissement VII - D’ANGLEBERT Prélude en ré mineur"
    PERFORMER "Skip Sempé"
    INDEX 01 53:15:01
  TRACK 19 AUDIO
    TITLE "Divertissement VII - MARAIS Sarabande en ré mineur"
    PERFORMER "Skip Sempé, Capriccio Stravagante"
    INDEX 01 57:22:34
  TRACK 20 AUDIO
    TITLE "Divertissement VIII - LULLY “Quels spectacles charmants” (Le Bourgeois Gentilhomme)"
    PERFORMER "Skip Sempé, Sandrine Rondot, José Canales, Renaud Delaigue, Capriccio Stravagante Orchestra"
    INDEX 01 60:43:73
  TRACK 21 AUDIO
    TITLE "Divertissement VIII - LULLY - Chaconne d’Amadis (Amadis, Acte V, 5)"
    PERFORMER "Skip Sempé, Capriccio Stravagante Orchestra"
    INDEX 01 62:00:58


Review

AllMusic Review by James Leonard  [-]
Even by the supremely high production standards of Alpha recordings, this issue is especially splendid. Entitled Versailles, L'ile enchantée, it fully lives up to its name. As directed by Skip Sempé, the widely varied program features music written for Louis XIV's pleasure palace, performed by the Capriccio Stravagante Orchestra with mezzo soprano Guillemette Laurens and bass violist Jay Bernfeld. Each work is superbly selected, and every performance is absolutely idiomatic and wonderfully alive. There is wit and tenderness and elegance and, yes, nobility to their performances, which taken together form as much a portrait of the Sun King as the palace of Versailles itself. As organized into eight Divertissements, Sempé's choices range from the grand Ouverture de Psyché by Lully to the intimate Mes Yeux by Campra, from the soulful Les Voix Humaines by Marais to the massive Passacaille in C by Louis Couperin. As captured in the evocative photographs by Jean-Baptiste Leroux and reproduced in Alpha's superlative program book, Versailles looks every bit as beautiful as this disc sounds. Anyone who loves Baroque music, particularly French Baroque music, will love this disc.

Балетные номера + четыре вокальных                                                                                       
                       
                       
                       
                       
                       
                                磁力下载(论坛代下载服务)::
                                                               
                                       
付费主题

已有1人支付


                                               
  • 431.2 MB
  • 温馨提示

    记得善用社区搜索功能,那里可能会有你想要的资源;论坛站内搜索

    如果你有什么需要的资源可以去资源求档发帖,求助社区的网友,我们会在第一时间给你回复哦;资源求档

    对于本社区网盘链接失效密码错误各种报错请在反馈板块反馈报错发帖,您的支持,是我们发展的最大动力;投诉建议

    回复

    使用道具 举报

    您需要登录后才可以回帖 登录 | 立即注册 微信登录

    本版积分规则

    关注0

    粉丝2

    帖子31142

    发布主题
    阅读排行更多+
    关闭

    站长推荐上一条 /1 下一条

    活动提示

    赞助永久VIP会员送3T硬盘一块 限时活动

    地址:立刻参加

    我知道了
    收藏帖子 返回列表 这是一个自定义按钮
    音乐分享,音乐下载。
    微信公众号
    微信号:hires_
    意见反馈:admin@maomicd.com

    加入我们的官方QQ群和微信群

    Powered by Discuz! X3.4 Archiver|手机版|小黑屋|捌零音乐论坛 ( 苏ICP备20015413号 )|( 苏公网安备 32030502000272号) 繁體

    GMT+8, 2021-9-22 22:06