[古典] (Classical) Mozart - Adagios (2 CD)(Barry Tuckwell, London Symphony Orchestra, Peter Maag, Willi Boskovsky, The Cleveland Orchestra, Christoph von Dohnanyi and more) - 1998, FLAC (

[复制链接]
fqw1001 发表于 2021-9-10 16:56:46 | 显示全部楼层 |阅读模式 打印 上一主题 下一主题
Mozart - Adagios (2CD)(Barry Tuckwell, London Symphony Orchestra, Peter Maag, Willi Boskovsky, The Cleveland Orchestra, Christoph von Dohnanyi and more)
Жанр: Classical
Страна-производитель диска: Germany
Год издания диска: 1998
Издатель (лейбл): Decca
Номер по каталогу: 460 191-2
Аудиокодек: FLAC
Тип рипа: image+.cue
Битрейт аудио: lossless
Продолжительность: 01:14:27 / 01:11:24
Источник: what
Наличие сканов в содержимом раздачи: да
Треклист:
CD 1
CD1
Wolfgang Amadeus Mozart (1756 - 1791)
01. Serenade in G, K.525 "Eine kleine Nachtmusik" Romance (Andante) 05:49
Wiener Mozart Ensemble, Willi Boskovsky
02. Piano Concerto No.21 in C, K.467 Andante 06:45
Andras Schiff, Camerata Academica des Mozarteums Salzburg, Sandor Vegh
03. Serenade in B flat, K.361 "Gran partita" Adagio 05:38
London Wind Soloists, Jack Brymer
04. Clarinet Concerto in A, K.622 Adagio 08:03
Gervase de Peyer, London Symphony Orchestra, Peter Maag
05. Concerto for Flute, Harp, and Orchestra in C, K.299 Andantino 08:30
Lisa Beznosiuk, Francis Kelly, The Academy of Ancient Music, Christopher Hogwood
06. Piano Concerto No.23 in A, K.488 Adagio 07:35
Philharmonia Orchestra, Vladimir Ashkenazy
07. Adagio for Violin and Orchestra in E, K.261 07:36
Mayumi Fujikawa, Royal Philharmonic Orchestra, Walter Weller
08. Symphony No.40 in G minor, K.550 Andante 07:26
The Cleveland Orchestra, Christoph von Dohnanyi
09. Divertimento in B flat, K.137 Andante 04:59
The Academy of St. Martin in the Fields, Neville Marriner
10. Piano Concerto No.26 in D, K.537 "Coronation" (Larghetto) 06:50
Philharmonia Orchestra, Vladimir Ashkenazy
11. Horn Concerto No.3 in E flat, K.447 Romanze (Larghetto) 05:09
Barry Tuckwell, London Symphony Orchestra, Peter Maag
01:14:27
Лог создания рипа

Exact Audio Copy V0.99 prebeta 5 from 4. May 2009
Отчёт EAC об извлечении, выполненном 12. декабря 2010, 22:01
Mozart / Adagios (CD1)
Дисковод: ASUS    DRW-1814BL   Adapter: 6  ID: 0
Режим чтения                 : Достоверность
Использование точного потока : Да
Отключение кэша аудио        : Да
Использование указателей C2  : Нет
Комбинированное смещение чтения/записи            : 6
Способность читать области Lead-in и Lead-out     : Нет
Заполнение пропущенных сэмплов тишиной            : Да
Удаление блоков с тишиной в начале и конце        : Нет
При вычислениях CRC использовались нулевые сэмплы : Да
Интерфейс                                         : Встроенный Win32-интерфейс для Win NT/2000
Выходной формат : Внутренние WAV-операции
Формат сэмплов  : 44.100 Гц; 16 бит; стерео
TOC извлечённого CD
     Трек |   Старт  | Длительность | Начальный сектор | Конечный сектор
    ---------------------------------------------------------------------
       1  |  0:00.00 |    5:49.15   |           0      |      26189
       2  |  5:49.15 |    6:45.43   |       26190      |      56607
       3  | 12:34.58 |    5:38.55   |       56608      |      82012
       4  | 18:13.38 |    8:03.60   |       82013      |     118297
       5  | 26:17.23 |    8:30.20   |      118298      |     156567
       6  | 34:47.43 |    7:35.17   |      156568      |     190709
       7  | 42:22.60 |    7:36.33   |      190710      |     224942
       8  | 49:59.18 |    7:26.52   |      224943      |     258444
       9  | 57:25.70 |    4:59.00   |      258445      |     280869
      10  | 62:24.70 |    6:50.63   |      280870      |     311682
      11  | 69:15.58 |    5:09.40   |      311683      |     334897
Характеристики диапазона извлечения и сообщения об ошибках
Выбранный диапазон
     Имя файла C:\Mozart - Adagios (CD1).wav
     Пиковый уровень 87.9 %
     Качество диапазона 100.0 %
     CRC теста C8D7CB64
     CRC копии C8D7CB64
     Копирование... OK
Ошибок не произошло
Конец отчёта


Содержание индексной карты (.CUE)

REM GENRE Classical
REM DATE 1998
REM DISCID 9F11710B
REM COMMENT "ExactAudioCopy v0.99pb5"
PERFORMER "Mozart"
TITLE "Adagios (CD1)"
FILE "Mozart - Adagios (CD1).wav" WAVE
  TRACK 01 AUDIO
    TITLE "Eine Kleine Nachtmusik"
    PERFORMER "Mozart"
    INDEX 01 00:00:00
  TRACK 02 AUDIO
    TITLE "Piano Concerto #21"
    PERFORMER "Mozart"
    INDEX 00 05:45:32
    INDEX 01 05:49:15
  TRACK 03 AUDIO
    TITLE "Serenade"
    PERFORMER "Mozart"
    INDEX 00 12:31:03
    INDEX 01 12:34:58
  TRACK 04 AUDIO
    TITLE "Clarinet Concerto"
    PERFORMER "Mozart"
    INDEX 00 18:09:58
    INDEX 01 18:13:38
  TRACK 05 AUDIO
    TITLE "Concerto For Flute & Harp"
    PERFORMER "Mozart"
    INDEX 00 26:13:43
    INDEX 01 26:17:23
  TRACK 06 AUDIO
    TITLE "Piano Concerto #23"
    PERFORMER "Mozart"
    INDEX 00 34:43:63
    INDEX 01 34:47:43
  TRACK 07 AUDIO
    TITLE "Adagio for Violin"
    PERFORMER "Mozart"
    INDEX 00 42:19:05
    INDEX 01 42:22:60
  TRACK 08 AUDIO
    TITLE "Symphony #40"
    PERFORMER "Mozart"
    INDEX 00 49:55:38
    INDEX 01 49:59:18
  TRACK 09 AUDIO
    TITLE "Divertimento"
    PERFORMER "Mozart"
    INDEX 00 57:22:15
    INDEX 01 57:25:70
  TRACK 10 AUDIO
    TITLE "Piano Concerto #26 (Coronation)"
    PERFORMER "Mozart"
    INDEX 00 62:21:15
    INDEX 01 62:24:70
  TRACK 11 AUDIO
    TITLE "Horn Concerto #3"
    PERFORMER "Mozart"
    INDEX 00 69:12:03
    INDEX 01 69:15:58


Лог проверки качества

AUDIOCHECKER v1.2 - by Dester - opdester@freemail.hu
~~~~~~~~~~~~~~~~~
1 -===- F:\Mozart Adagios (1998)\Mozart Adagios - CD1\Mozart - Adagios (CD1).flac
  Extracted successfully
  Conclusion: This track looks like CDDA with probability 100%



CD 2
CD2
Wolfgang Amadeus Mozart (1756 - 1791)
01. Piano Concerto No.27 in B flat, K.595 Larghetto 09:23
Philharmonia Orchestra, Vladimir Ashkenazy
02. Horn Concerto No.2 in E flat, K.417 Andante 03:39
Barry Tuckwell, London Symphony Orchestra, Peter Maag
03. Violin Concerto No.3 in G, K.216 Adagio 08:11
Joshua Bell, English Chamber Orchestra, Peter Maag
04. Piano Sonata No.12 in F, K.332 (Adagio) 04:52
Andras Schiff
05. Symphony No.41 in C, K.551 - "Jupiter" Andante cantabile 06:28
The Cleveland Orchestra, Christoph von Dohnanyi
06. Piano Concerto No.20 in D minor, K.466 Romance 05:05
Philharmonia Orchestra, Vladimir Ashkenazy
07. Adagio in B minor, K.540 06:22
Andras Schiff
08. Sinfonia concertante for Violin, Viola and Orchestra in E flat, K.364 Andante 11:04
Josef Suk, The Academy of St. Martin in the Fields, Iona Brown
09. Clarinet Quintet in A, K.581 Larghetto 06:40
Antony Pay, Academy Of Ancient Music Chamber Ensemble
10. Serenade in C minor, K.388 "Nacht Musik" Andante 04:17
Wiener Blasersolisten
11. Piano Sonata No.16 in C, K.545 "Sonata facile" (Andante) 05:26
Andras Schiff
01:11:24
Лог создания рипа

Exact Audio Copy V0.99 prebeta 5 from 4. May 2009
Отчёт EAC об извлечении, выполненном 22. декабря 2010, 22:52
Mozart / Adagios (CD2)
Дисковод: ASUS    DRW-1814BL   Adapter: 6  ID: 0
Режим чтения                 : Достоверность
Использование точного потока : Да
Отключение кэша аудио        : Да
Использование указателей C2  : Нет
Комбинированное смещение чтения/записи            : 6
Способность читать области Lead-in и Lead-out     : Нет
Заполнение пропущенных сэмплов тишиной            : Да
Удаление блоков с тишиной в начале и конце        : Нет
При вычислениях CRC использовались нулевые сэмплы : Да
Интерфейс                                         : Встроенный Win32-интерфейс для Win NT/2000
Выходной формат : Внутренние WAV-операции
Формат сэмплов  : 44.100 Гц; 16 бит; стерео
TOC извлечённого CD
     Трек |   Старт  | Длительность | Начальный сектор | Конечный сектор
    ---------------------------------------------------------------------
       1  |  0:00.00 |    9:23.03   |           0      |      42227
       2  |  9:23.03 |    3:39.07   |       42228      |      58659
       3  | 13:02.10 |    8:11.40   |       58660      |      95524
       4  | 21:13.50 |    4:52.40   |       95525      |     117464
       5  | 26:06.15 |    6:28.15   |      117465      |     146579
       6  | 32:34.30 |    5:05.68   |      146580      |     169522
       7  | 37:40.23 |    6:22.67   |      169523      |     198239
       8  | 44:03.15 |   11:04.20   |      198240      |     248059
       9  | 55:07.35 |    6:40.13   |      248060      |     278072
      10  | 61:47.48 |    4:17.10   |      278073      |     297357
      11  | 66:04.58 |    5:26.10   |      297358      |     321817
Характеристики диапазона извлечения и сообщения об ошибках
Выбранный диапазон
     Имя файла C:\Mozart - Adagios (CD2).wav
     Пиковый уровень 88.8 %
     Качество диапазона 99.9 %
     CRC теста C4E079AD
     CRC копии C4E079AD
     Копирование... OK
Ошибок не произошло
Конец отчёта


Содержание индексной карты (.CUE)

REM GENRE Classical
REM DATE 1998
REM DISCID B410C20B
REM COMMENT "ExactAudioCopy v0.99pb5"
PERFORMER "Mozart"
TITLE "Adagios (CD2)"
FILE "Mozart - Adagios (CD2).wav" WAVE
  TRACK 01 AUDIO
    TITLE "Piano Concerto #27"
    PERFORMER "Mozart"
    INDEX 01 00:00:00
  TRACK 02 AUDIO
    TITLE "Horn Concerto #2"
    PERFORMER "Mozart"
    INDEX 00 09:19:23
    INDEX 01 09:23:03
  TRACK 03 AUDIO
    TITLE "Violin Concerto #3"
    PERFORMER "Mozart"
    INDEX 00 12:58:30
    INDEX 01 13:02:10
  TRACK 04 AUDIO
    TITLE "Piano Sonata (Adagio)"
    PERFORMER "Mozart"
    INDEX 00 21:09:70
    INDEX 01 21:13:50
  TRACK 05 AUDIO
    TITLE "Symphony #21 (Jupiter)"
    PERFORMER "Mozart"
    INDEX 00 26:02:35
    INDEX 01 26:06:15
  TRACK 06 AUDIO
    TITLE "Piano Concerto #20"
    PERFORMER "Mozart"
    INDEX 00 32:30:50
    INDEX 01 32:34:30
  TRACK 07 AUDIO
    TITLE "Adagio For Piano"
    PERFORMER "Mozart"
    INDEX 00 37:36:43
    INDEX 01 37:40:23
  TRACK 08 AUDIO
    TITLE "Sinfonia concertante"
    PERFORMER "Mozart"
    INDEX 00 43:59:35
    INDEX 01 44:03:15
  TRACK 09 AUDIO
    TITLE "Clarinet Quintet"
    PERFORMER "Mozart"
    INDEX 00 55:03:55
    INDEX 01 55:07:35
  TRACK 10 AUDIO
    TITLE "Serenade"
    PERFORMER "Mozart"
    INDEX 00 61:43:68
    INDEX 01 61:47:48
  TRACK 11 AUDIO
    TITLE "Piano Sonata (Andante)"
    PERFORMER "Mozart"
    INDEX 00 66:01:03
    INDEX 01 66:04:58


Лог проверки качества

AUDIOCHECKER v1.2 - by Dester - opdester@freemail.hu
~~~~~~~~~~~~~~~~~
2 -===- F:\Mozart Adagios (1998)\Mozart Adagios - CD2\Mozart - Adagios (CD2).flac
  Extracted successfully
  Conclusion: This track looks like CDDA with probability 100%

                                                                                       
                       
                       
                       
                       
                       
                                磁力下载(论坛代下载服务)::
                                                               
                                       
付费主题

已有0人支付


                                               
  • 587.7 MB
  • 温馨提示

    记得善用社区搜索功能,那里可能会有你想要的资源;论坛站内搜索

    如果你有什么需要的资源可以去资源求档发帖,求助社区的网友,我们会在第一时间给你回复哦;资源求档

    对于本社区网盘链接失效密码错误各种报错请在反馈板块反馈报错发帖,您的支持,是我们发展的最大动力;投诉建议

    回复

    使用道具 举报

    您需要登录后才可以回帖 登录 | 立即注册 微信登录

    本版积分规则

    关注0

    粉丝0

    帖子30586

    发布主题
    阅读排行更多+
    关闭

    站长推荐上一条 /1 下一条

    活动提示

    赞助永久VIP会员送3T硬盘一块 限时活动

    地址:立刻参加

    我知道了
    收藏帖子 返回列表 这是一个自定义按钮
    音乐分享,音乐下载。
    微信公众号
    微信号:hires_
    意见反馈:admin@maomicd.com

    加入我们的官方QQ群和微信群

    Powered by Discuz! X3.4 Archiver|手机版|小黑屋|捌零音乐论坛 ( 苏ICP备20015413号 )|( 苏公网安备 32030502000272号) 繁體

    GMT+8, 2021-9-21 12:33