[古典] (Classical) Mahler - Symphony No.2 - Ruby Hughes, Sasha Cooke, Minnesota Chorale, Minnesota Orchestra, Osmo Vänskä (Vanska) - 2018, FLAC (image+.cue) lossless

[复制链接]
fqw1001 发表于 2021-9-10 16:56:46 | 显示全部楼层 |阅读模式 打印 上一主题 下一主题
Mahler - Symphony No.2 - Ruby Hughes, Sasha Cooke, Minnesota Chorale, Minnesota Orchestra, Osmo Vänskä
Жанр: Classical
Страна-производитель диска: Sweden
Год издания диска: 2018
Издатель (лейбл): BIS
Номер по каталогу: BIS-SACD-2296
Дата записи: 2017
Аудиокодек: FLAC
Тип рипа: image+.cue
Битрейт аудио: lossless
Продолжительность: 84:08
Источник: собственный рип
Наличие сканов в содержимом раздачи: да
Треклист:
Gustav Mahler
[1]-[5] Symphony No. 2 in C minor ‘Resurrection’ (1888–94)
Исполнители:
Ruby Hughes soprano
Sasha Cooke mezzo-soprano
Minnesota Chorale
Minnesota Orchestra
Osmo Vänskä conductor
Лог создания рипа

Exact Audio Copy V1.3 from 2. September 2016
EAC extraction logfile from 6. May 2019, 22:57
Minnesota Orchestra, Osmo Vänskä / Mahler - Symphony No.2
Used drive  : ASUS    SDRW-08U7M-U   Adapter: 1  ID: 0
Read mode               : Secure
Utilize accurate stream : Yes
Defeat audio cache      : Yes
Make use of C2 pointers : No
Read offset correction                      : 6
Overread into Lead-In and Lead-Out          : No
Fill up missing offset samples with silence : Yes
Delete leading and trailing silent blocks   : No
Null samples used in CRC calculations       : Yes
Used interface                              : Native Win32 interface for Win NT & 2000
Used output format              : User Defined Encoder
Selected bitrate                : 128 kBit/s
Quality                         : High
Add ID3 tag                     : No
Command line compressor         : C:\Program Files (x86)\Exact Audio Copy\Flac\flac.exe
Additional command line options : -V -8 -T "Date=%year%" -T "Genre=%genre%" %source%
TOC of the extracted CD
     Track |   Start  |  Length  | Start sector | End sector
    ---------------------------------------------------------
        1  |  0:00.00 | 23:38.24 |         0    |   106373
        2  | 23:38.24 | 10:00.57 |    106374    |   151430
        3  | 33:39.06 | 10:53.02 |    151431    |   200407
        4  | 44:32.08 |  5:28.53 |    200408    |   225060
        5  | 50:00.61 | 34:37.22 |    225061    |   380857
Range status and errors
Selected range
     Filename C:\temp\BIS-SACD-2296 - Mahler - Symphony No.2 - 2018\Mahler - Symphony No.2.wav
     Peak level 96.5 %
     Extraction speed 5.6 X
     Range quality 100.0 %
     Test CRC 21BD781F
     Copy CRC 21BD781F
     Copy OK
No errors occurred
AccurateRip summary
Track  1  accurately ripped (confidence 2)  [EBB145E8]  (AR v2)
Track  2  accurately ripped (confidence 2)  [66882012]  (AR v2)
Track  3  accurately ripped (confidence 2)  [ECC49B6B]  (AR v2)
Track  4  accurately ripped (confidence 2)  [F9C94129]  (AR v2)
Track  5  accurately ripped (confidence 2)  [5D034D11]  (AR v2)
All tracks accurately ripped
End of status report
==== Log checksum 7A36A08F79CFAD78D3DED574C8B88B19018B39A528D0784964BD4D85A880F670 ====


Содержание индексной карты (.CUE)

REM GENRE Classical
REM DATE 2018
REM DISCID 2613D605
REM COMMENT "ExactAudioCopy v1.3"
PERFORMER "Minnesota Orchestra, Osmo Vänskä"
TITLE "Mahler - Symphony No.2"
REM COMPOSER "Gustav Mahler"
FILE "Mahler - Symphony No.2.flac" WAVE
  TRACK 01 AUDIO
    TITLE "I. Allegro maestoso. Mit durchaus ernstem und feierlichem Ausdruck"
    PERFORMER "Minnesota Orchestra, Osmo Vänskä"
    REM COMPOSER "Gustav Mahler"
    INDEX 01 00:00:00
  TRACK 02 AUDIO
    TITLE "II. Andante moderato. Sehr gemächlich"
    PERFORMER "Minnesota Orchestra, Osmo Vänskä"
    REM COMPOSER "Gustav Mahler"
    INDEX 01 23:38:24
  TRACK 03 AUDIO
    TITLE "III. Scherzo. In ruhig fließender Bewegung"
    PERFORMER "Minnesota Orchestra, Osmo Vänskä"
    REM COMPOSER "Gustav Mahler"
    INDEX 01 33:39:06
  TRACK 04 AUDIO
    TITLE "IV. Urlicht. Sehr feierlich, aber schlicht"
    PERFORMER "Sasha Cooke, Minnesota Orchestra, Osmo Vänskä"
    REM COMPOSER "Gustav Mahler"
    INDEX 01 44:32:08
  TRACK 05 AUDIO
    TITLE "V. Im Tempo des Scherzos. Wild herausfahrend – Wieder zurückhaltend – Langsam. Misterioso"
    PERFORMER "Ruby Hughes, Sasha Cooke, Minnesota Chorale & Orchestra, Osmo Vänskä"
    REM COMPOSER "Gustav Mahler"
    INDEX 01 50:00:61

                                                                                       
                       
                       
                       
                       
                       
                                磁力下载(论坛代下载服务)::
                                                               
                                       
付费主题

已有0人支付


                                               
  • 293 MB
  • 温馨提示

    记得善用社区搜索功能,那里可能会有你想要的资源;论坛站内搜索

    如果你有什么需要的资源可以去资源求档发帖,求助社区的网友,我们会在第一时间给你回复哦;资源求档

    对于本社区网盘链接失效密码错误各种报错请在反馈板块反馈报错发帖,您的支持,是我们发展的最大动力;投诉建议

    回复

    使用道具 举报

    您需要登录后才可以回帖 登录 | 立即注册 微信登录

    本版积分规则

    关注0

    粉丝0

    帖子31064

    发布主题
    阅读排行更多+
    关闭

    站长推荐上一条 /1 下一条

    活动提示

    赞助永久VIP会员送3T硬盘一块 限时活动

    地址:立刻参加

    我知道了
    收藏帖子 返回列表 这是一个自定义按钮
    音乐分享,音乐下载。
    微信公众号
    微信号:hires_
    意见反馈:admin@maomicd.com

    加入我们的官方QQ群和微信群

    Powered by Discuz! X3.4 Archiver|手机版|小黑屋|捌零音乐论坛 ( 苏ICP备20015413号 )|( 苏公网安备 32030502000272号) 繁體

    GMT+8, 2021-9-25 04:36