[古典] (Classical sonatas) Schmelzer - Sacro-Profanus Sonatas (Ensemble Masques, Olivier Fortin) - 2013, FLAC (image+.cue) lossless

[复制链接]
tikus75 发表于 2021-9-10 16:56:46 | 显示全部楼层 |阅读模式 打印 上一主题 下一主题
Schmelzer - Sacro-Profanus Sonatas (Ensemble Masques)
Жанр: Classical sonatas
Страна-производитель диска: Made in Austria
Год издания диска: 2013
Издатель (лейбл): Zig Zag Territoires ‎/ Outhere Music France 2012
Номер по каталогу: ZZT 334
Дата записи: 2012
Аудиокодек: FLAC
Тип рипа: image+.cue
Битрейт аудио: lossless
Продолжительность: 53:49
Источник: релизер
сайт-источник/ник/другое: Bodtje, подарок; Caterina Sforza - работа с cue, доп. сканы
Наличие сканов в содержимом раздачи: да
Треклист:
1 Sonata 4 a Sei (Sacro-profanus Concentus Musicus) 4:38
2 Sonata 3 a Sei (Sacro-profanus Concentus Musicus) 4:41
3 Sonata a Cinque Per Camera: Al Giorno Delle Correggie 4:48
4 Sonata 6 a Sei (Sacro-profanus Concentus Musicus) 3:32
5 Sonata 6 a Sei (Sacro-profanus Concentus Musicus) 4:23
6 Balletto a Quatro: Die Fechtschule 7:36
7 Sonata 5 a Sei (Sacro-profanus Concentus Musicus) 3:28
8 Polnische Sackpfeiffen 6:28
9 Sonata 9 a Cinque (Sacro-profanus Concentus Musicus) 3:58
10 Sonata 9 a Cinque (Sacro-profanus Concentus Musicus) 3:24
11 Lamento Sopra la Morte Ferdinandi III 6:53
Исполнители

Johann Heinrich Schmelzer (c1620/23-1680)
Sacro-Profanus
Sacro-Profanus Concentus Musicus: Sonata No. 4 a sei
Sacro-Profanus Concentus Musicus: Sonata No. 3 a sei
Sonata a cinque per camera ''Al giorno delle Correggie''
Sacro-Profanus Concentus Musicus: Sonata No. 6 a sei
Sacro-Profanus Concentus Musicus: Sonata No. 7 a cinque
Balletto a quatro ''Die Fechtschule''
Sacro-Profanus Concentus Musicus: Sonata No. 5 a sei
Polnische Sackpfeiffen
Sacro-Profanus Concentus Musicus: Sonata No. 9 a cinque
Sacro-Profanus Concentus Musicus: Sonata No. 8 a cinque
Lamento sopra la morte Ferdinandi III
Ensemble Masques
Olivier Fortin (harpsichord & artistic director)
Recording Date: September 11, 2012 - September 14, 2012
Recording Location: Eglise Saint-Laurent, Laval-en-Brie, France
Release Date: August 23, 2013


Лог создания рипа

Exact Audio Copy V1.3 from 2. September 2016
EAC extraction logfile from 7. November 2019, 10:42
Olivier Fortin / Johann Heinrich Schmelzer: Sacro-Profanus; Sonatas
Used drive  : TSSTcorpDVDWBD SE-406AB   Adapter: 1  ID: 2
Read mode               : Secure
Utilize accurate stream : Yes
Defeat audio cache      : Yes
Make use of C2 pointers : No
Read offset correction                      : 6
Overread into Lead-In and Lead-Out          : No
Fill up missing offset samples with silence : Yes
Delete leading and trailing silent blocks   : No
Null samples used in CRC calculations       : Yes
Used interface                              : Native Win32 interface for Win NT & 2000
Used output format              : User Defined Encoder
Selected bitrate                : 1024 kBit/s
Quality                         : High
Add ID3 tag                     : No
Command line compressor         : C:\Program Files (x86)\Exact Audio Copy\FLAC\FLAC.EXE
Additional command line options : -8 -e -p -V -T "ARTIST=%artist%" -T "TITLE=%title%" -T "ALBUM=%albumtitle%" -T "DATE=%year%" -T "TRACKNUMBER=%tracknr%" -T "GENRE=%genre%" -T "PERFORMER=%albuminterpret%" -T "COMPOSER=%composer%" %haslyrics%--tag-from-file=LYRICS="%lyricsfile%"%haslyrics% -T "ALBUMARTIST=%albumartist%" -T "DISCNUMBER=%cdnumber%" -T "TOTALDISCS=%totalcds%" -T "TOTALTRACKS=%numtracks%" -T "COMMENT=%comment%" %source% -o %dest%
TOC of the extracted CD
     Track |   Start  |  Length  | Start sector | End sector
    ---------------------------------------------------------
        1  |  0:00.00 |  4:38.46 |         0    |    20895
        2  |  4:38.46 |  4:41.59 |     20896    |    42029
        3  |  9:20.30 |  4:48.69 |     42030    |    63698
        4  | 14:09.24 |  3:32.11 |     63699    |    79609
        5  | 17:41.35 |  4:23.05 |     79610    |    99339
        6  | 22:04.40 |  7:36.14 |     99340    |   133553
        7  | 29:40.54 |  3:28.49 |    133554    |   149202
        8  | 33:09.28 |  6:28.23 |    149203    |   178325
        9  | 39:37.51 |  3:58.58 |    178326    |   196233
       10  | 43:36.34 |  3:24.15 |    196234    |   211548
       11  | 47:00.49 |  6:53.11 |    211549    |   242534
Range status and errors
Selected range
     Filename K:\Rips\Schmelzer - Sacro-Profanus - Ensemble Masques\Olivier Fortin - Johann Heinrich Schmelzer- Sacro-Profanus; Sonatas.wav
     Peak level 98.8 %
     Extraction speed 3.5 X
     Range quality 100.0 %
     Test CRC 974E5EEE
     Copy CRC 974E5EEE
     Copy OK
No errors occurred
AccurateRip summary
Track  1  accurately ripped (confidence 9)  [54A2276E]  (AR v2)
Track  2  accurately ripped (confidence 9)  [46E87E8C]  (AR v2)
Track  3  accurately ripped (confidence 9)  [399A68EC]  (AR v2)
Track  4  accurately ripped (confidence 9)  [7202DC72]  (AR v2)
Track  5  accurately ripped (confidence 9)  [2F38EA58]  (AR v2)
Track  6  accurately ripped (confidence 9)  [E7A26E47]  (AR v2)
Track  7  accurately ripped (confidence 9)  [ED18E673]  (AR v2)
Track  8  accurately ripped (confidence 9)  [2833F197]  (AR v2)
Track  9  accurately ripped (confidence 9)  [D378D3A7]  (AR v2)
Track 10  accurately ripped (confidence 9)  [FAEB920B]  (AR v2)
Track 11  accurately ripped (confidence 9)  [DF11A2EA]  (AR v2)
All tracks accurately ripped
End of status report
---- CUETools DB Plugin V2.1.6
[CTDB TOCID: Vc6XBWbHcRsVAdJLyrTW8C7pBuk-] found
Submit result: Vc6XBWbHcRsVAdJLyrTW8C7pBuk- has been confirmed
Track | CTDB Status
  1   | (11/11) Accurately ripped
  2   | (11/11) Accurately ripped
  3   | (11/11) Accurately ripped
  4   | (11/11) Accurately ripped
  5   | (11/11) Accurately ripped
  6   | (11/11) Accurately ripped
  7   | (11/11) Accurately ripped
  8   | (11/11) Accurately ripped
  9   | (11/11) Accurately ripped
10   | (11/11) Accurately ripped
11   | (11/11) Accurately ripped
==== Log checksum E8AC5CD4AB3D24D9B01A73A9EA511CBB431E0FC1FB6C5261F627057E7E40F2E8 ====


Содержание индексной карты (.CUE)

REM GENRE "Chamber Music"
REM DATE 2013
REM DISCID 970CA10B
REM COMMENT "ExactAudioCopy v1.3"
PERFORMER "Ensemble Masques, Olivier Fortin (harpsichord & artistic director)"
TITLE "Johann Heinrich Schmelzer: Sacro-Profanus; Sonatas"
REM COMPOSER "Johann Heinrich Schmelzer (c.1620/23-1680)"
FILE "Olivier Fortin - Johann Heinrich Schmelzer- Sacro-Profanus; Sonatas.flac" WAVE
  TRACK 01 AUDIO
    TITLE "Sacro profanus concentus musicus, Nürnberg 1662: Sonata IV a sei"
    PERFORMER "Ensemble Masques, Olivier Fortin"
    REM COMPOSER "Johann Heinrich Schmelzer"
    INDEX 01 00:00:00
  TRACK 02 AUDIO
    TITLE "Sacro profanus concentus musicus: Sonata III a sei"
    PERFORMER "Ensemble Masques, Olivier Fortin"
    REM COMPOSER "Johann Heinrich Schmelzer"
    INDEX 01 04:38:46
  TRACK 03 AUDIO
    TITLE "Sonata a cinque per camera: Al giorno delle Correggie (1676)"
    PERFORMER "Ensemble Masques, Olivier Fortin"
    REM COMPOSER "Johann Heinrich Schmelzer"
    INDEX 01 09:20:30
  TRACK 04 AUDIO
    TITLE "Sacro profanus concentus musicus: Sonata VI a sei"
    PERFORMER "Ensemble Masques, Olivier Fortin"
    REM COMPOSER "Johann Heinrich Schmelzer"
    INDEX 01 14:09:24
  TRACK 05 AUDIO
    TITLE "Sacro profanus concentus musicus: Sonata VII a cinque"
    PERFORMER "Ensemble Masques, Olivier Fortin"
    REM COMPOSER "Johann Heinrich Schmelzer"
    INDEX 01 17:41:35
  TRACK 06 AUDIO
    TITLE "Balletto a quatro, per archi e basso continuo in sol: Die Fechtschule (1668)"
    PERFORMER "Ensemble Masques, Olivier Fortin"
    REM COMPOSER "Johann Heinrich Schmelzer"
    INDEX 01 22:04:40
  TRACK 07 AUDIO
    TITLE "Sacro profanus concentus musicus: Sonata V a sei"
    PERFORMER "Ensemble Masques, Olivier Fortin"
    REM COMPOSER "Johann Heinrich Schmelzer"
    INDEX 01 29:40:54
  TRACK 08 AUDIO
    TITLE "Polish Bagpipes (Polnische Sackpfeiffen a 3), per 2 violini e continuo in sol maggiore (1665)"
    PERFORMER "Ensemble Masques, Olivier Fortin"
    REM COMPOSER "Johann Heinrich Schmelzer"
    INDEX 01 33:09:28
  TRACK 09 AUDIO
    TITLE "Sacro profanus concentus musicus: Sonata IX a cinque"
    PERFORMER "Ensemble Masques, Olivier Fortin"
    REM COMPOSER "Johann Heinrich Schmelzer"
    INDEX 01 39:37:51
  TRACK 10 AUDIO
    TITLE "Sacro profanus concentus musicus: Sonata VIII a cinque in sol maggiore"
    PERFORMER "Ensemble Masques, Olivier Fortin"
    REM COMPOSER "Johann Heinrich Schmelzer"
    INDEX 01 43:36:34
  TRACK 11 AUDIO
    TITLE "Lamento per la morte Ferdinandi III, sonata per 2 violini, viola da gamba e continuo in si maggiore (1657)"
    PERFORMER "Ensemble Masques, Olivier Fortin"
    REM COMPOSER "Johann Heinrich Schmelzer"
    INDEX 01 47:00:49

                                                                                       
                       
                       
                       
                       
                       
                                磁力下载(论坛代下载服务)::
                                                               
                                       
付费主题

已有0人支付


                                               
  • 287.2 MB
  • 温馨提示

    记得善用社区搜索功能,那里可能会有你想要的资源;论坛站内搜索

    如果你有什么需要的资源可以去资源求档发帖,求助社区的网友,我们会在第一时间给你回复哦;资源求档

    对于本社区网盘链接失效密码错误各种报错请在反馈板块反馈报错发帖,您的支持,是我们发展的最大动力;投诉建议

    回复

    使用道具 举报

    您需要登录后才可以回帖 登录 | 立即注册 微信登录

    本版积分规则

    关注0

    粉丝1

    帖子31072

    发布主题
    阅读排行更多+
    关闭

    站长推荐上一条 /1 下一条

    活动提示

    赞助永久VIP会员送3T硬盘一块 限时活动

    地址:立刻参加

    我知道了
    收藏帖子 返回列表 这是一个自定义按钮
    音乐分享,音乐下载。
    微信公众号
    微信号:hires_
    意见反馈:admin@maomicd.com

    加入我们的官方QQ群和微信群

    Powered by Discuz! X3.4 Archiver|手机版|小黑屋|捌零音乐论坛 ( 苏ICP备20015413号 )|( 苏公网安备 32030502000272号) 繁體

    GMT+8, 2021-9-22 22:07