[古典] (Classical / Orchestral) Antonin Dvorak - Slovanske tance / Slawische Tanze / Slavonic Dances / Антонин Дворжак - Славянские танцы (Vaclav Neumann / Вацлав Нойманн, 1985) - 1994, F

[复制链接]
10086 发表于 2021-9-10 16:56:46 | 显示全部楼层 |阅读模式 打印 上一主题 下一主题
Antonín Dvořák / Антонин Дворжак
(1841 – 1904)
Slovanske tance / Славянские танцы
Česká filharmonie / Czech Philharmonic Orchestra
Чешский филармонический оркестр
Václav Neumann, dirigent / Дирижёр — Вацлав Нойманн

Жанр: Classical / Orchestral
Дата записи: 1985
Формат записи: DDD, Stereo
Год издания диска: 1994
Издатель (лейбл): Supraphon
Номер по каталогу: 11 1959-2 031
Аудиокодек: FLAC
Тип рипа: tracks+.cue
Битрейт аудио: lossless
Продолжительность: 1:14:23
Наличие сканов в содержимом раздачи: нет
Источник: What.CD
Релизёр: PermittedAloud


Tracklist / Треклист
Slovanske tance, Op. 46 - 37:41
Nr. 1 C-dur. Presto (Furiant) - 4:02
  • Nr. 2 e-moll. Allegretto scherzando (Dumka) - 4:51
  • Nr. 3 As-dur. Poco allegro (Polka) - 4:35
  • Nr. 4 F-dur. Tempo di Minuetto (Sousedská) - 6:45
  • Nr. 5 A-dur. Allegro vivace (Skočná) - 3:15
  • Nr. 6 D-dur. Allegretto scherzando (Sousedská) - 6:05
  • Nr. 7 c-moll. Allegro assai (Skočná) - 3:37
  • Nr. 8 g-moll. Presto (Furiant) - 4:33
    [/ol]
    Slovanske tance, Op. 72 - 36:41
    Nr. 1 H-dur. Molto vivace (Odzemek) - 4:15
  • Nr. 2 e-moll. Allegretto grazioso (Dumka) - 5:46
  • Nr. 3 F-dur. Allegro (Skočná) - 3:57
  • Nr. 4 Des-dur. Allegretto grazioso (Dumka) - 5:26
  • Nr. 5 b-moll. Poco adagio. — Vivace (Špacírka) - 2:56
  • Nr. 6 B-dur. Moderato, quasi Minuetto (Polonéza) - 3:54
  • Nr. 7 C-dur. Presto (Srbské kolo) - 3:24
  • Nr. 8 As-dur. Grazioso e lento, ma non troppo, quasi tempo di Valse (Sousedská) - 7:03
    [/ol]



    EAC log / Отчёт EAC

    Exact Audio Copy V1.0 beta 3 from 29. August 2011
    EAC extraction logfile from 1. February 2012, 2:11
    Vaclav Neumann & The Czech Philharmonic Orchestra / Slavonic Dances
    Used drive  : PIONEER DVD-RW  DVRTD08A   Adapter: 0  ID: 1
    Read mode               : Secure
    Utilize accurate stream : Yes
    Defeat audio cache      : Yes
    Make use of C2 pointers : No
    Read offset correction                      : 48
    Overread into Lead-In and Lead-Out          : No
    Fill up missing offset samples with silence : Yes
    Delete leading and trailing silent blocks   : No
    Null samples used in CRC calculations       : Yes
    Used interface                              : Native Win32 interface for Win NT & 2000
    Gap handling                                : Appended to previous track
    Used output format              : User Defined Encoder
    Selected bitrate                : 1024 kBit/s
    Quality                         : High
    Add ID3 tag                     : No
    Command line compressor         : C:\Program Files (x86)\Exact Audio Copy\FLAC\FLAC.EXE
    Additional command line options : -8 -V -T "ARTIST=%artist%" -T "TITLE=%title%" -T "ALBUM=%albumtitle%" -T "DATE=%year%" -T "TRACKNUMBER=%tracknr%" -T "GENRE=%genre%" -T "COMMENT=%comment%" -T "BAND=%albuminterpret%" -T "ALBUMARTIST=%albuminterpret%" -T "COMPOSER=%composer%" %haslyrics%--tag-from-file=LYRICS="%lyricsfile%"%haslyrics% -T "DISCNUMBER=%cdnumber%" -T "TOTALDISCS=%totalcds%" -T "TOTALTRACKS=%numtracks%" %hascover%--picture="%coverfile%"%hascover% %source% -o %dest%
    TOC of the extracted CD
         Track |   Start  |  Length  | Start sector | End sector
        ---------------------------------------------------------
            1  |  0:00.33 |  4:02.07 |        33    |    18189
            2  |  4:02.40 |  4:50.53 |     18190    |    39992
            3  |  8:53.18 |  4:34.50 |     39993    |    60592
            4  | 13:27.68 |  6:44.45 |     60593    |    90937
            5  | 20:12.38 |  3:14.72 |     90938    |   105559
            6  | 23:27.35 |  6:04.45 |    105560    |   132904
            7  | 29:32.05 |  3:36.68 |    132905    |   149172
            8  | 33:08.73 |  4:32.60 |    149173    |   169632
            9  | 37:41.58 |  4:15.32 |    169633    |   188789
           10  | 41:57.15 |  5:45.50 |    188790    |   214714
           11  | 47:42.65 |  3:57.35 |    214715    |   232524
           12  | 51:40.25 |  5:26.00 |    232525    |   256974
           13  | 57:06.25 |  2:55.60 |    256975    |   270159
           14  | 60:02.10 |  3:53.55 |    270160    |   287689
           15  | 63:55.65 |  3:23.65 |    287690    |   302979
           16  | 67:19.55 |  7:03.25 |    302980    |   334729
    Track  1
         Filename C:\EAC Rips\01. Op.46 - No.1 in C major - Presto.wav
         Pre-gap length  0:00:02.33
         Peak level 81.2 %
         Extraction speed 1.1 X
         Track quality 100.0 %
         Test CRC 3C5BDBCA
         Copy CRC 3C5BDBCA
         Cannot be verified as accurate (confidence 8)  [616A878D], AccurateRip returned [8BEFFD9E]  (AR v2)
         Copy OK
    Track  2
         Filename C:\EAC Rips\02. Op.46 - No.2 in E minor - Allegretto scherzando.wav
         Pre-gap length  0:00:04.42
         Peak level 81.2 %
         Extraction speed 3.2 X
         Track quality 100.0 %
         Test CRC 2F6A9A27
         Copy CRC 2F6A9A27
         Cannot be verified as accurate (confidence 8)  [41928F0C], AccurateRip returned [DC14C807]  (AR v2)
         Copy OK
    Track  3
         Filename C:\EAC Rips\03. Op.46 - No.3 in A major - Poco allegro.wav
         Pre-gap length  0:00:03.53
         Peak level 81.2 %
         Extraction speed 3.5 X
         Track quality 100.0 %
         Test CRC 69E88085
         Copy CRC 69E88085
         Cannot be verified as accurate (confidence 8)  [A3C815B7], AccurateRip returned [9F6D4151]  (AR v2)
         Copy OK
    Track  4
         Filename C:\EAC Rips\04. Op.46 - No.4 in F major - Tempo di Minuetto.wav
         Pre-gap length  0:00:03.30
         Peak level 83.1 %
         Extraction speed 4.0 X
         Track quality 100.0 %
         Test CRC 78CB379F
         Copy CRC 78CB379F
         Cannot be verified as accurate (confidence 8)  [0B861913], AccurateRip returned [CFDBDD05]  (AR v2)
         Copy OK
    Track  5
         Filename C:\EAC Rips\05. Op.46 - No.5 in A major - Allegro vivace.wav
         Pre-gap length  0:00:03.55
         Peak level 81.5 %
         Extraction speed 3.9 X
         Track quality 100.0 %
         Test CRC CBF0603F
         Copy CRC CBF0603F
         Cannot be verified as accurate (confidence 8)  [574BB770], AccurateRip returned [1CE2009D]  (AR v2)
         Copy OK
    Track  6
         Filename C:\EAC Rips\06. Op.46 - No.6 in D major - Allegretto scherzando.wav
         Pre-gap length  0:00:04.32
         Peak level 72.0 %
         Extraction speed 4.4 X
         Track quality 100.0 %
         Test CRC 30E21D37
         Copy CRC 30E21D37
         Cannot be verified as accurate (confidence 8)  [8CE0F4FD], AccurateRip returned [1A1F6794]  (AR v2)
         Copy OK
    Track  7
         Filename C:\EAC Rips\07. Op.46 - No.7 in C minor - Allegro assai.wav
         Pre-gap length  0:00:03.15
         Peak level 68.1 %
         Extraction speed 4.3 X
         Track quality 100.0 %
         Test CRC 5A7894EB
         Copy CRC 5A7894EB
         Cannot be verified as accurate (confidence 8)  [B8781563], AccurateRip returned [BAD42C29]  (AR v2)
         Copy OK
    Track  8
         Filename C:\EAC Rips\08. Op.46 - No.8 in G minor - Presto.wav
         Pre-gap length  0:00:03.35
         Peak level 74.2 %
         Extraction speed 4.6 X
         Track quality 100.0 %
         Test CRC CED2F0E5
         Copy CRC CED2F0E5
         Cannot be verified as accurate (confidence 8)  [6E127D61], AccurateRip returned [D26D31A7]  (AR v2)
         Copy OK
    Track  9
         Filename C:\EAC Rips\09. Op.72 - No.9 in F major - Molto Vivace.wav
         Pre-gap length  0:00:05.11
         Peak level 83.1 %
         Extraction speed 4.8 X
         Track quality 100.0 %
         Test CRC EF73C206
         Copy CRC EF73C206
         Cannot be verified as accurate (confidence 8)  [B1BCAFB1], AccurateRip returned [1CA5A9ED]  (AR v2)
         Copy OK
    Track 10
         Filename C:\EAC Rips\10. Op.72 - No.10 in E minor - Allegretto grazioso.wav
         Pre-gap length  0:00:03.58
         Peak level 30.5 %
         Extraction speed 5.1 X
         Track quality 100.0 %
         Test CRC 625EA723
         Copy CRC 625EA723
         Cannot be verified as accurate (confidence 8)  [4FB74347], AccurateRip returned [42E8FA8B]  (AR v2)
         Copy OK
    Track 11
         Filename C:\EAC Rips\11. Op.72 - No.11 in F major - Allegro.wav
         Pre-gap length  0:00:03.33
         Peak level 69.1 %
         Extraction speed 4.9 X
         Track quality 100.0 %
         Test CRC A723C6D0
         Copy CRC A723C6D0
         Cannot be verified as accurate (confidence 8)  [F2849A8A], AccurateRip returned [5AAA1855]  (AR v2)
         Copy OK
    Track 12
         Filename C:\EAC Rips\12. Op.72 - No.12 in D major - Allegretto grazioso.wav
         Pre-gap length  0:00:03.57
         Peak level 40.3 %
         Extraction speed 4.9 X
         Track quality 99.9 %
         Test CRC C9A61D4F
         Copy CRC C9A61D4F
         Cannot be verified as accurate (confidence 8)  [94B36260], AccurateRip returned [FD8D0F7A]  (AR v2)
         Copy OK
    Track 13
         Filename C:\EAC Rips\13. Op.72 - No.13 in B minor - Poco allegro.wav
         Pre-gap length  0:00:03.49
         Peak level 69.1 %
         Extraction speed 5.1 X
         Track quality 100.0 %
         Test CRC F25DCB77
         Copy CRC F25DCB77
         Cannot be verified as accurate (confidence 8)  [F3B58929], AccurateRip returned [A8BCD8B2]  (AR v2)
         Copy OK
    Track 14
         Filename C:\EAC Rips\14. Op.72 - No.14 in B major - Moderato.wav
         Pre-gap length  0:00:03.41
         Peak level 40.9 %
         Extraction speed 4.7 X
         Track quality 99.9 %
         Test CRC 994CF48A
         Copy CRC 994CF48A
         Cannot be verified as accurate (confidence 8)  [3C9E30DC], AccurateRip returned [B5E880D9]  (AR v2)
         Copy OK
    Track 15
         Filename C:\EAC Rips\15. Op.72 - No.15 in C major - Allegro vivace.wav
         Pre-gap length  0:00:04.19
         Peak level 69.1 %
         Extraction speed 4.8 X
         Track quality 99.9 %
         Test CRC 000865B0
         Copy CRC 000865B0
         Cannot be verified as accurate (confidence 8)  [058D0840], AccurateRip returned [094469A0]  (AR v2)
         Copy OK
    Track 16
         Filename C:\EAC Rips\16. Op.72 - No.16 in A major - Grazioso lento.wav
         Pre-gap length  0:00:04.23
         Peak level 50.4 %
         Extraction speed 5.7 X
         Track quality 99.9 %
         Test CRC 0E3E18B0
         Copy CRC 0E3E18B0
         Cannot be verified as accurate (confidence 7)  [2B6C41C5], AccurateRip returned [DB5C8A23]  (AR v2)
         Copy OK
    No tracks could be verified as accurate
    You may have a different pressing from the one(s) in the database
    No errors occurred
    End of status report
    ==== Log checksum 84F9B6BE8A439AB2F7E88B9D306839A22721EF6DD708FE2C288A1D19F45FAEB3 ====


    auCDtect Task Manager log / Отчёт auCDtect Task Manager

    -----------------------
    DON'T MODIFY THIS FILE
    -----------------------
    PERFORMER: auCDtect Task Manager, ver. 1.5.1RC3 build 1.5.1.4
    Copyright (c) 2008-2010 y-soft. All rights reserved
    ANALYZER: auCDtect: CD records authenticity detector, version 0.8.2
    Copyright (c) 2004 Oleg Berngardt. All rights reserved.
    Copyright (c) 2004 Alexander Djourik. All rights reserved.
    FILE: 16 - Slovanske tance, Op. 72 - Nr. 8 As-dur. Grazioso e lento (Sousedska).flac
      Size: 33940147 Hash: 8F37A6329BF7C53D9D1FC9BC9B0790C0 Accuracy: -m0
      Conclusion: CDDA 100%
      Signature: 0816C53B69DE55CEAD1A7B7A7F19EFA3625B1347
    FILE: 15 - Slovanske tance, Op. 72 - Nr. 7 C-dur. Presto (Srbske kolo).flac
      Size: 18538740 Hash: 31BCF2B257FBFC19EA20E3AB54C3B1F7 Accuracy: -m0
      Conclusion: CDDA 100%
      Signature: 464EDC86E5B7583EDC3857032CCBDDB07E7DE837
    FILE: 14 - Slovanske tance, Op. 72 - Nr. 6 B-dur. Moderato, quasi Minuetto (Poloneza).flac
      Size: 17608610 Hash: D3C560A707431E6D153A2F303313E19B Accuracy: -m0
      Conclusion: CDDA 100%
      Signature: F4A73FC0071862150AB0E3097F225860E9C972B5
    FILE: 13 - Slovanske tance, Op. 72 - Nr. 5 b-moll. Poco adagio. - Vivace (Spacirka).flac
      Size: 15538369 Hash: 1D4EDEAD11CE2034DB08C0ED0DC2C912 Accuracy: -m0
      Conclusion: CDDA 100%
      Signature: 1459DD6CEF2FAB7716EB9D67B3181A50E222C66D
    FILE: 12 - Slovanske tance, Op. 72 - Nr. 4 Des-dur. Allegretto grazioso (Dumka).flac
      Size: 25146573 Hash: AF209879F70B6BF91B9651ADCA9268EC Accuracy: -m0
      Conclusion: CDDA 100%
      Signature: 010E6680843FB75E0E074F4A9B79162E553DE96C
    FILE: 11 - Slovanske tance, Op. 72 - Nr. 3 F-dur. Allegro (Skocna).flac
      Size: 19355805 Hash: 7D47CC454B35AEE28656088E3CA474B0 Accuracy: -m0
      Conclusion: CDDA 99%
      Signature: 1BEED80B7A28C352D79D10A59899F1C55B2D5FA2
    FILE: 10 - Slovanske tance, Op. 72 - Nr. 2 e-moll. Allegretto grazioso (Dumka).flac
      Size: 27479333 Hash: 49F1A0FBEC7E14554B18E9CD0A65B6D6 Accuracy: -m0
      Conclusion: CDDA 100%
      Signature: A9B8E0CA2E6EE557ACEE219E52C61D38A82DD7AE
    FILE: 09 - Slovanske tance, Op. 72 - Nr. 1 H-dur. Molto vivace (Odzemek).flac
      Size: 23895642 Hash: 28513C7FE337679097ADD204C7A8FA33 Accuracy: -m0
      Conclusion: CDDA 99%
      Signature: 625D2CD7FD86AE3F36817A5E9889BE7943E208CD
    FILE: 08 - Slovanske tance, Op. 46 - Nr. 8 g-moll. Presto (Furiant).flac
      Size: 23349980 Hash: 5C8D463CF282DCC1AEEEBFE5EEA1EFF8 Accuracy: -m0
      Conclusion: CDDA 100%
      Signature: B4B12EA682F91E598E29357BCF4D6476FD6AF182
    FILE: 07 - Slovanske tance, Op. 46 - Nr. 7 c-moll. Allegro assai (Skocna).flac
      Size: 17290229 Hash: 338DB1103BAB72169D43833C10F0D8B9 Accuracy: -m0
      Conclusion: CDDA 99%
      Signature: C239C415C5BC6407ABE47223500CB499C42B022B
    FILE: 06 - Slovanske tance, Op. 46 - Nr. 6 D-dur. Allegretto scherzando (Sousedska).flac
      Size: 29186751 Hash: 2FFACE13EF73D8549CDAB0A4038B6682 Accuracy: -m0
      Conclusion: CDDA 100%
      Signature: 2A06599335A51AB89D50E880CE80CA41E82EE51F
    FILE: 05 - Slovanske tance, Op. 46 - Nr. 5 A-dur. Allegro vivace (Skocna).flac
      Size: 17736339 Hash: DD7F8D2BD4BB4E0361D53DDCCB36DEA2 Accuracy: -m0
      Conclusion: CDDA 87%
      Signature: 124B30A14057DD344ACAB60104A08C770FDDFA4C
    FILE: 04 - Slovanske tance, Op. 46 - Nr. 4 F-dur. Tempo di Minuetto (Sousedska).flac
      Size: 33496060 Hash: 8D39BD447A77EB6F1ABB6D613C2B32B4 Accuracy: -m0
      Conclusion: CDDA 100%
      Signature: C59B4B2B83E6792D7410C34B670260F37FCB2CBB
    FILE: 03 - Slovanske tance, Op. 46 - Nr. 3 As-dur. Poco allegro (Polka).flac
      Size: 23628657 Hash: 57B17194C6A26E1329D5B0E7BF12D8B6 Accuracy: -m0
      Conclusion: CDDA 85%
      Signature: 79DE00C265D1707665FB691345FA803ACBB05DDD
    FILE: 02 - Slovanske tance, Op. 46 - Nr. 2 e-moll. Allegretto scherzando (Dumka).flac
      Size: 26148585 Hash: 991BDFA55A098945DA869FD1BBA30361 Accuracy: -m0
      Conclusion: CDDA 100%
      Signature: 2A4B2689AFA95E20E20952E08F8D98169C8B9B90
    FILE: 01 - Slovanske tance, Op. 46 - Nr. 1 C-dur. Presto (Furiant).flac
      Size: 22038746 Hash: B04DEF02539DD697AE63419165D6B1FC Accuracy: -m0
      Conclusion: CDDA 87%
      Signature: C161745818C3DD4281EF7A149824012860DD5D41


    CUETools log / Отчёт CUETools

    [CUETools log; Date: 12.03.2012 17:20:58; Version: 2.1.2a]
    Pregap length 00:00:33.
    [CTDB TOCID: uHeRE96U61jRbHoxfjn4mbV1WOY-] disk not present in database.
    [AccurateRip ID: 002b929f-020924b2-da116f10] found.
    Track   [ CRC    ] Status
    01     [6f5c07a1] (00/15) No match
    02     [75605d1f] (00/15) No match
    03     [d549cdb8] (00/15) No match
    04     [723c41ec] (00/15) No match
    05     [e4ef86cf] (00/15) No match
    06     [4e061fae] (00/15) No match
    07     [ac56d1f5] (00/15) No match
    08     [c18cc239] (00/15) No match
    09     [d7f507c9] (00/15) No match
    10     [4d23cafe] (00/15) No match
    11     [a5a9c2df] (00/15) No match
    12     [36d08f81] (00/15) No match
    13     [b7b2e740] (00/15) No match
    14     [28d9fc29] (00/15) No match
    15     [0346622d] (00/15) No match
    16     [95ad6a87] (00/14) No match
    Track Peak [ CRC32  ] [W/O NULL] [  LOG   ]
    --   83,1 [812C5362] [25429F9A]
    01   81,2 [3C5BDBCA] [5C3C3DF4]   CRC32
    02   81,2 [2F6A9A27] [2214B947]   CRC32
    03   81,2 [69E88085] [79D408DD]   CRC32
    04   83,1 [78CB379F] [F63FA309]   CRC32
    05   81,5 [CBF0603F] [062553B5]   CRC32
    06   72,0 [30E21D37] [ABBB0773]   CRC32
    07   68,1 [5A7894EB] [D913E16B]   CRC32
    08   74,2 [CED2F0E5] [81A781B0]   CRC32
    09   83,1 [EF73C206] [8A7C4F7A]   CRC32
    10   30,5 [625EA723] [C9620DB0]   CRC32
    11   69,1 [A723C6D0] [69840640]   CRC32
    12   40,3 [C9A61D4F] [C570261C]   CRC32
    13   69,1 [F25DCB77] [D9BDD92E]   CRC32
    14   40,9 [994CF48A] [0892E82D]   CRC32
    15   69,1 [000865B0] [8607192C]   CRC32
    16   50,4 [0E3E18B0] [5704877E]   CRC32


    CUE sheet

    TITLE "Antonín Dvořák. Slovanske tance"
    PERFORMER "Václav Neumann"
    REM GENRE Classical
    REM DISCID DA116F10
    REM COMMENT "ExactAudioCopy v1.0b3"
    FILE "01 - Slovanske tance, Op. 46 - Nr. 1 C-dur. Presto (Furiant).flac" WAVE
      TRACK 01 AUDIO
        TITLE "Slovanske tance, Op. 46: Nr. 1 C-dur. Presto (Furiant)"
        PERFORMER "Česká filharmonie. Václav Neumann, dirigent"
        REM DATE 1986
        FLAGS PRE
        PREGAP 00:00:33
        INDEX 01 00:00:00
      TRACK 02 AUDIO
        TITLE "Slovanske tance, Op. 46: Nr. 2 e-moll. Allegretto scherzando (Dumka)"
        PERFORMER "Česká filharmonie. Václav Neumann, dirigent"
        REM DATE 1986
        FLAGS PRE
        INDEX 00 03:57:40
    FILE "02 - Slovanske tance, Op. 46 - Nr. 2 e-moll. Allegretto scherzando (Dumka).flac" WAVE
        INDEX 01 00:00:00
      TRACK 03 AUDIO
        TITLE "Slovanske tance, Op. 46: Nr. 3 As-dur. Poco allegro (Polka)"
        PERFORMER "Česká filharmonie. Václav Neumann, dirigent"
        REM DATE 1986
        FLAGS PRE
        INDEX 00 04:47:00
    FILE "03 - Slovanske tance, Op. 46 - Nr. 3 As-dur. Poco allegro (Polka).flac" WAVE
        INDEX 01 00:00:00
      TRACK 04 AUDIO
        TITLE "Slovanske tance, Op. 46: Nr. 4 F-dur. Tempo di Minuetto (Sousedská)"
        PERFORMER "Česká filharmonie. Václav Neumann, dirigent"
        REM DATE 1986
        FLAGS PRE
        INDEX 00 04:31:20
    FILE "04 - Slovanske tance, Op. 46 - Nr. 4 F-dur. Tempo di Minuetto (Sousedska).flac" WAVE
        INDEX 01 00:00:00
      TRACK 05 AUDIO
        TITLE "Slovanske tance, Op. 46: Nr. 5 A-dur. Allegro vivace (Skočná)"
        PERFORMER "Česká filharmonie. Václav Neumann, dirigent"
        REM DATE 1986
        FLAGS PRE
        INDEX 00 06:40:65
    FILE "05 - Slovanske tance, Op. 46 - Nr. 5 A-dur. Allegro vivace (Skocna).flac" WAVE
        INDEX 01 00:00:00
      TRACK 06 AUDIO
        TITLE "Slovanske tance, Op. 46: Nr. 6 D-dur. Allegretto scherzando (Sousedská)"
        PERFORMER "Česká filharmonie. Václav Neumann, dirigent"
        REM DATE 1986
        FLAGS PRE
        INDEX 00 03:10:40
    FILE "06 - Slovanske tance, Op. 46 - Nr. 6 D-dur. Allegretto scherzando (Sousedska).flac" WAVE
        INDEX 01 00:00:00
      TRACK 07 AUDIO
        TITLE "Slovanske tance, Op. 46: Nr. 7 c-moll. Allegro assai (Skočná)"
        PERFORMER "Česká filharmonie. Václav Neumann, dirigent"
        REM DATE 1986
        FLAGS PRE
        INDEX 00 06:01:30
    FILE "07 - Slovanske tance, Op. 46 - Nr. 7 c-moll. Allegro assai (Skocna).flac" WAVE
        INDEX 01 00:00:00
      TRACK 08 AUDIO
        TITLE "Slovanske tance, Op. 46: Nr. 8 g-moll. Presto (Furiant)"
        PERFORMER "Česká filharmonie. Václav Neumann, dirigent"
        REM DATE 1986
        FLAGS PRE
        INDEX 00 03:33:33
    FILE "08 - Slovanske tance, Op. 46 - Nr. 8 g-moll. Presto (Furiant).flac" WAVE
        INDEX 01 00:00:00
      TRACK 09 AUDIO
        TITLE "Slovanske tance, Op. 72: Nr. 1 H-dur. Molto vivace (Odzemek)"
        PERFORMER "Česká filharmonie. Václav Neumann, dirigent"
        REM DATE 1986
        FLAGS PRE
        INDEX 00 04:27:49
    FILE "09 - Slovanske tance, Op. 72 - Nr. 1 H-dur. Molto vivace (Odzemek).flac" WAVE
        INDEX 01 00:00:00
      TRACK 10 AUDIO
        TITLE "Slovanske tance, Op. 72: Nr. 2 e-moll. Allegretto grazioso (Dumka)"
        PERFORMER "Česká filharmonie. Václav Neumann, dirigent"
        REM DATE 1986
        FLAGS PRE
        INDEX 00 04:11:49
    FILE "10 - Slovanske tance, Op. 72 - Nr. 2 e-moll. Allegretto grazioso (Dumka).flac" WAVE
        INDEX 01 00:00:00
      TRACK 11 AUDIO
        TITLE "Slovanske tance, Op. 72: Nr. 3 F-dur. Allegro (Skočná)"
        PERFORMER "Česká filharmonie. Václav Neumann, dirigent"
        REM DATE 1986
        FLAGS PRE
        INDEX 00 05:42:17
    FILE "11 - Slovanske tance, Op. 72 - Nr. 3 F-dur. Allegro (Skocna).flac" WAVE
        INDEX 01 00:00:00
      TRACK 12 AUDIO
        TITLE "Slovanske tance, Op. 72: Nr. 4 Des-dur. Allegretto grazioso (Dumka)"
        PERFORMER "Česká filharmonie. Václav Neumann, dirigent"
        REM DATE 1986
        FLAGS PRE
        INDEX 00 03:53:53
    FILE "12 - Slovanske tance, Op. 72 - Nr. 4 Des-dur. Allegretto grazioso (Dumka).flac" WAVE
        INDEX 01 00:00:00
      TRACK 13 AUDIO
        TITLE "Slovanske tance, Op. 72: Nr. 5 b-moll. Poco adagio. — Vivace (Špacírka)"
        PERFORMER "Česká filharmonie. Václav Neumann, dirigent"
        REM DATE 1986
        FLAGS PRE
        INDEX 00 05:22:26
    FILE "13 - Slovanske tance, Op. 72 - Nr. 5 b-moll. Poco adagio. - Vivace (Spacirka).flac" WAVE
        INDEX 01 00:00:00
      TRACK 14 AUDIO
        TITLE "Slovanske tance, Op. 72: Nr. 6 B-dur. Moderato, quasi Minuetto (Polonéza)"
        PERFORMER "Česká filharmonie. Václav Neumann, dirigent"
        REM DATE 1986
        FLAGS PRE
        INDEX 00 02:52:19
    FILE "14 - Slovanske tance, Op. 72 - Nr. 6 B-dur. Moderato, quasi Minuetto (Poloneza).flac" WAVE
        INDEX 01 00:00:00
      TRACK 15 AUDIO
        TITLE "Slovanske tance, Op. 72: Nr. 7 C-dur. Presto (Srbské kolo)"
        PERFORMER "Česká filharmonie. Václav Neumann, dirigent"
        REM DATE 1986
        FLAGS PRE
        INDEX 00 03:49:36
    FILE "15 - Slovanske tance, Op. 72 - Nr. 7 C-dur. Presto (Srbske kolo).flac" WAVE
        INDEX 01 00:00:00
      TRACK 16 AUDIO
        TITLE "Slovanske tance, Op. 72: Nr. 8 As-dur. Grazioso e lento, ma non troppo, quasi tempo di Valse (Sousedská)"
        PERFORMER "Česká filharmonie. Václav Neumann, dirigent"
        REM DATE 1986
        FLAGS PRE
        INDEX 00 03:19:42
    FILE "16 - Slovanske tance, Op. 72 - Nr. 8 As-dur. Grazioso e lento (Sousedska).flac" WAVE
        INDEX 01 00:00:00




    Все мои раздачи / All my releases

                                                                                           
                           
                           
                           
                           
                           
                                    磁力下载(论坛代下载服务)::
                                                                   
                                           
    付费主题

    已有0人支付


                                                   
  • 357.1 MB
  • 温馨提示

    记得善用社区搜索功能,那里可能会有你想要的资源;论坛站内搜索

    如果你有什么需要的资源可以去资源求档发帖,求助社区的网友,我们会在第一时间给你回复哦;资源求档

    对于本社区网盘链接失效密码错误各种报错请在反馈板块反馈报错发帖,您的支持,是我们发展的最大动力;投诉建议

    回复

    使用道具 举报

    您需要登录后才可以回帖 登录 | 立即注册 微信登录

    本版积分规则

    关注0

    粉丝7

    帖子52319

    发布主题
    阅读排行更多+
    关闭

    站长推荐上一条 /1 下一条

    活动提示

    赞助永久VIP会员送3T硬盘一块 限时活动

    地址:立刻参加

    我知道了
    收藏帖子 返回列表 这是一个自定义按钮
    音乐分享,音乐下载。
    微信公众号
    微信号:hires_
    意见反馈:admin@maomicd.com

    加入我们的官方QQ群和微信群

    Powered by Discuz! X3.4 Archiver|手机版|小黑屋|捌零音乐论坛 ( 苏ICP备20015413号 )|( 苏公网安备 32030502000272号) 繁體

    GMT+8, 2021-9-21 12:25