[古典] (Symphony) A.Bruckner - Symphonie Nr.5 (Berliner Philharmoniker - Gunter Wand) \ Брукнер - Симфония №5 (Гюнтер Ванд) {live at Berlin Philharmonie, 1996} - 2001, FLAC (tracks+.cue)

[复制链接]
Anton Bruckner
Symphonie Nr.5______________________Berliner Philharmoniker - Gunter Wand
Жанр: Symphony
Страна-производитель диска: EU
Год издания диска: 2001
Издатель (лейбл): RCA
Дата записи: 12-14.01.1996
Аудиокодек: FLAC
Тип рипа: tracks+.cue
Битрейт аудио: lossless
Продолжительность: 77.14
Источник: скачано с
сайт-источник/ник/другое: web
Наличие сканов в содержимом раздачи: да
Треклист:
1-4) Symphonie Nr.5 B-Dur
Исполнители:
Berliner Philharmoniker - Gunter Wand
Лог создания рипа

Exact Audio Copy V0.99 prebeta 5 from 4. May 2009
EAC extraction logfile from 15. February 2011, 14:41
Bruckner - G. Wand - Berliner Philharmoniker / Symphony No. 5
Used drive  : TSSTcorpCDDVDW TS-L633C   Adapter: 2  ID: 0
Read mode               : Secure
Utilize accurate stream : Yes
Defeat audio cache      : Yes
Make use of C2 pointers : No
Read offset correction                      : 6
Overread into Lead-In and Lead-Out          : No
Fill up missing offset samples with silence : Yes
Delete leading and trailing silent blocks   : No
Null samples used in CRC calculations       : Yes
Used interface                              : Installed external ASPI interface
Gap handling                                : Appended to previous track
Used output format              : User Defined Encoder
Selected bitrate                : 768 kBit/s
Quality                         : High
Add ID3 tag                     : No
Command line compressor         : C:\Program Files\Exact Audio Copy\FLAC\FLAC.EXE
Additional command line options : -6 -V -T "ARTIST=%a" -T "TITLE=%t" -T "ALBUM=%g" -T "DATE=%y" -T "TRACKNUMBER=%n" -T "GENRE=%m" -T "COMMENT=%e" %s -o %d
TOC of the extracted CD
     Track |   Start  |  Length  | Start sector | End sector
    ---------------------------------------------------------
        1  |  0:00.00 | 21:42.62 |         0    |    97711
        2  | 21:42.62 | 16:21.70 |     97712    |   171356
        3  | 38:04.57 | 14:21.28 |    171357    |   235959
        4  | 52:26.10 | 24:25.10 |    235960    |   345844
Track  1
     Filename C:\ista\Bruckner - G. Wand - Berliner Philharmoniker\Symphony No. 5\01-Symphony No. 5 In B Flat (Original Version) - 1. Introduktion (Adagio) - Allegro.wav
     Pre-gap length  0:00:02.00
     Peak level 100.0 %
     Track quality 100.0 %
     Test CRC 6C9A0BAF
     Copy CRC 6C9A0BAF
     Accurately ripped (confidence 4)  [7DACC74C]
     Copy OK
Track  2
     Filename C:\ista\Bruckner - G. Wand - Berliner Philharmoniker\Symphony No. 5\02-Symphony No. 5 In B Flat (Original Version) - 2. Adagio (Sehr Langsam).wav
     Pre-gap length  0:00:12.62
     Peak level 96.5 %
     Track quality 99.9 %
     Test CRC 35B48E2D
     Copy CRC 35B48E2D
     Accurately ripped (confidence 4)  [A3AF7020]
     Copy OK
Track  3
     Filename C:\ista\Bruckner - G. Wand - Berliner Philharmoniker\Symphony No. 5\03-Symphony No. 5 In B Flat (Original Version) - 3. Scherzo. Molto Vivace (Schnell).wav
     Pre-gap length  0:00:08.20
     Peak level 98.0 %
     Track quality 99.9 %
     Test CRC 9CB83E78
     Copy CRC 9CB83E78
     Accurately ripped (confidence 4)  [5E366C96]
     Copy OK
Track  4
     Filename C:\ista\Bruckner - G. Wand - Berliner Philharmoniker\Symphony No. 5\04-Symphony No. 5 In B Flat (Original Version) - 4. Finale. Adagio - Allegro Moderato.wav
     Pre-gap length  0:00:08.60
     Peak level 99.2 %
     Track quality 100.0 %
     Test CRC AE86680A
     Copy CRC AE86680A
     Accurately ripped (confidence 4)  [39D5C2CB]
     Copy OK
All tracks accurately ripped
No errors occurred
End of status report


Содержание индексной карты (.CUE)

REM GENRE Classical
REM DATE 1997
REM DISCID 2C120304
REM COMMENT "ExactAudioCopy v0.99pb5"
PERFORMER "Bruckner - G. Wand - Berliner Philharmoniker"
TITLE "Symphony No. 5"
FILE "Bruckner - G. Wand - Berliner Philharmoniker\Symphony No. 5\01-Symphony No. 5 In B Flat (Original Version) - 1. Introduktion (Adagio) - Allegro.wav" WAVE
  TRACK 01 AUDIO
    TITLE "Symphony No. 5 In B Flat (Original Version) - 1. Introduktion (Adagio) - Allegro"
    PERFORMER "Bruckner - G. Wand - Berliner Philharmoniker"
    INDEX 01 00:00:00
  TRACK 02 AUDIO
    TITLE "Symphony No. 5 In B Flat (Original Version) - 2. Adagio (Sehr Langsam)"
    PERFORMER "Bruckner - G. Wand - Berliner Philharmoniker"
    INDEX 00 21:30:00
FILE "Bruckner - G. Wand - Berliner Philharmoniker\Symphony No. 5\02-Symphony No. 5 In B Flat (Original Version) - 2. Adagio (Sehr Langsam).wav" WAVE
    INDEX 01 00:00:00
  TRACK 03 AUDIO
    TITLE "Symphony No. 5 In B Flat (Original Version) - 3. Scherzo. Molto Vivace (Schnell)"
    PERFORMER "Bruckner - G. Wand - Berliner Philharmoniker"
    INDEX 00 16:13:50
FILE "Bruckner - G. Wand - Berliner Philharmoniker\Symphony No. 5\03-Symphony No. 5 In B Flat (Original Version) - 3. Scherzo. Molto Vivace (Schnell).wav" WAVE
    INDEX 01 00:00:00
  TRACK 04 AUDIO
    TITLE "Symphony No. 5 In B Flat (Original Version) - 4. Finale. Adagio - Allegro Mod..."
    PERFORMER "Bruckner - G. Wand - Berliner Philharmoniker"
    INDEX 00 14:12:43
FILE "Bruckner - G. Wand - Berliner Philharmoniker\Symphony No. 5\04-Symphony No. 5 In B Flat (Original Version) - 4. Finale. Adagio - Allegro Moderato.wav" WAVE
    INDEX 01 00:00:00

                                                                                       
                       
                       
                       
                       
                       
                                磁力下载(论坛代下载服务)::
                                                               
                                       
付费主题

已有0人支付


                                               
  • 361.1 MB
  • 温馨提示

    记得善用社区搜索功能,那里可能会有你想要的资源;论坛站内搜索

    如果你有什么需要的资源可以去资源求档发帖,求助社区的网友,我们会在第一时间给你回复哦;资源求档

    对于本社区网盘链接失效密码错误各种报错请在反馈板块反馈报错发帖,您的支持,是我们发展的最大动力;投诉建议

    回复

    使用道具 举报

    您需要登录后才可以回帖 登录 | 立即注册 微信登录

    本版积分规则

    发布主题
    阅读排行更多+
    关闭

    站长推荐上一条 /1 下一条

    活动提示

    赞助永久VIP会员送3T硬盘一块 限时活动

    地址:立刻参加

    我知道了
    收藏帖子 返回列表 这是一个自定义按钮
    音乐分享,音乐下载。
    微信公众号
    微信号:hires_
    意见反馈:admin@maomicd.com

    加入我们的官方QQ群和微信群

    Powered by Discuz! X3.4 Archiver|手机版|小黑屋|捌零音乐论坛 ( 苏ICP备20015413号 )|( 苏公网安备 32030502000272号) 繁體

    GMT+8, 2021-9-17 00:39