[古典] (Classical) Шостакович - Музыка к комедии "Клоп" и фильму "Любовь и ненависть" - Mannheim Opera Choir, Deutsche Staatsphilharmonie Rheinland-Pfa

[复制链接]
全球采集 发表于 2021-9-10 16:56:46 | 显示全部楼层 |阅读模式 打印 上一主题 下一主题
Шостакович - Музыка к комедии "Клоп" и фильму "Любовь и ненависть" - Mannheim Opera Choir, Deutsche Staatsphilharmonie Rheinland-Pfalz, Mark Fitz-Gerald
Жанр: Classical
Год издания диска: 2019
Издатель (лейбл): Naxos
Номер по каталогу: 8.574100
Дата записи: 2019
Аудиокодек: FLAC
Тип рипа: image+.cue
Битрейт аудио: lossless
Продолжительность: 58:54
Источник: собственный рип
Наличие сканов в содержимом раздачи: да
Треклист:
Дмитрий Шостакович
[1]-[15] Музыка к комедии Владимира Маяковского "Клоп", Op. 19 (1929)
[16]-[38] Музыка к фильму "Любовь и ненависть", Op. 38 (1935)
Исполнители:
Mannheim Opera Choir ([6], [9], [11], [13], [19], [21], [23], [38])
Deutsche Staatsphilharmonie Rheinland-Pfalz
Mark Fitz-Gerald
Лог создания рипа

Exact Audio Copy V1.5 from 20. February 2020
EAC extraction logfile from 29. June 2020, 23:08
Deutsche Staatsphilharmonie Rheinland-Pfalz, Mark Fitz-Gerald / Shostakovich - The Bedbug; Love and Hate
Used drive  : ASUS    SDRW-08U7M-U   Adapter: 1  ID: 0
Read mode               : Secure
Utilize accurate stream : Yes
Defeat audio cache      : Yes
Make use of C2 pointers : No
Read offset correction                      : 6
Overread into Lead-In and Lead-Out          : No
Fill up missing offset samples with silence : Yes
Delete leading and trailing silent blocks   : No
Null samples used in CRC calculations       : Yes
Used interface                              : Native Win32 interface for Win NT & 2000
Used output format              : User Defined Encoder
Selected bitrate                : 128 kBit/s
Quality                         : High
Add ID3 tag                     : No
Command line compressor         : C:\Program Files (x86)\Exact Audio Copy\Flac\flac.exe
Additional command line options : -V -8 -T "Date=%year%" -T "Genre=%genre%" %source%
TOC of the extracted CD
     Track |   Start  |  Length  | Start sector | End sector
    ---------------------------------------------------------
        1  |  0:00.00 |  2:33.52 |         0    |    11526
        2  |  2:33.52 |  2:26.25 |     11527    |    22501
        3  |  5:00.02 |  2:22.52 |     22502    |    33203
        4  |  7:22.54 |  1:00.52 |     33204    |    37755
        5  |  8:23.31 |  3:11.09 |     37756    |    52089
        6  | 11:34.40 |  5:39.19 |     52090    |    77533
        7  | 17:13.59 |  1:06.56 |     77534    |    82539
        8  | 18:20.40 |  0:36.59 |     82540    |    85298
        9  | 18:57.24 |  0:52.69 |     85299    |    89267
       10  | 19:50.18 |  2:50.12 |     89268    |   102029
       11  | 22:40.30 |  2:13.13 |    102030    |   112017
       12  | 24:53.43 |  0:08.63 |    112018    |   112680
       13  | 25:02.31 |  0:49.10 |    112681    |   116365
       14  | 25:51.41 |  0:45.70 |    116366    |   119810
       15  | 26:37.36 |  2:07.47 |    119811    |   129382
       16  | 28:45.08 |  2:00.15 |    129383    |   138397
       17  | 30:45.23 |  0:58.51 |    138398    |   142798
       18  | 31:43.74 |  0:21.05 |    142799    |   144378
       19  | 32:05.04 |  2:00.10 |    144379    |   153388
       20  | 34:05.14 |  0:54.06 |    153389    |   157444
       21  | 34:59.20 |  1:41.59 |    157445    |   165078
       22  | 36:41.04 |  1:39.51 |    165079    |   172554
       23  | 38:20.55 |  1:55.06 |    172555    |   181185
       24  | 40:15.61 |  1:45.46 |    181186    |   189106
       25  | 42:01.32 |  0:41.63 |    189107    |   192244
       26  | 42:43.20 |  0:48.49 |    192245    |   195893
       27  | 43:31.69 |  0:22.74 |    195894    |   197617
       28  | 43:54.68 |  1:17.66 |    197618    |   203458
       29  | 45:12.59 |  2:17.34 |    203459    |   213767
       30  | 47:30.18 |  2:19.63 |    213768    |   224255
       31  | 49:50.06 |  1:09.50 |    224256    |   229480
       32  | 50:59.56 |  1:02.07 |    229481    |   234137
       33  | 52:01.63 |  3:03.44 |    234138    |   247906
       34  | 55:05.32 |  0:37.11 |    247907    |   250692
       35  | 55:42.43 |  1:02.60 |    250693    |   255402
       36  | 56:45.28 |  1:01.00 |    255403    |   259977
       37  | 57:46.28 |  0:17.37 |    259978    |   261289
       38  | 58:03.65 |  0:50.61 |    261290    |   265100
Range status and errors
Selected range
     Filename C:\temp\Naxos_8.574100 - Shostakovich - The Bedbug; Love and Hate - 2019\Shostakovich - The Bedbug; Love and Hate.wav
     Peak level 96.7 %
     Extraction speed 4.7 X
     Range quality 100.0 %
     Test CRC 563A4C6F
     Copy CRC 563A4C6F
     Copy OK
No errors occurred
AccurateRip summary
Track  1  accurately ripped (confidence 1)  [6889C09F]  (AR v2)
Track  2  accurately ripped (confidence 1)  [7D2B4A21]  (AR v2)
Track  3  accurately ripped (confidence 1)  [D8F8AA25]  (AR v2)
Track  4  accurately ripped (confidence 1)  [AA215E24]  (AR v2)
Track  5  accurately ripped (confidence 1)  [F3DD0849]  (AR v2)
Track  6  accurately ripped (confidence 1)  [E8C095CF]  (AR v2)
Track  7  accurately ripped (confidence 1)  [1373246D]  (AR v2)
Track  8  accurately ripped (confidence 1)  [245DCBB3]  (AR v2)
Track  9  accurately ripped (confidence 1)  [012365A1]  (AR v2)
Track 10  accurately ripped (confidence 1)  [EDABC953]  (AR v2)
Track 11  accurately ripped (confidence 1)  [02B6C09C]  (AR v2)
Track 12  accurately ripped (confidence 1)  [7E1F84E3]  (AR v2)
Track 13  accurately ripped (confidence 1)  [0C981667]  (AR v2)
Track 14  accurately ripped (confidence 1)  [7085FD27]  (AR v2)
Track 15  accurately ripped (confidence 1)  [CE387475]  (AR v2)
Track 16  accurately ripped (confidence 1)  [6A405F90]  (AR v2)
Track 17  accurately ripped (confidence 1)  [9ADDC514]  (AR v2)
Track 18  accurately ripped (confidence 1)  [5394103B]  (AR v2)
Track 19  accurately ripped (confidence 1)  [70A89985]  (AR v2)
Track 20  accurately ripped (confidence 1)  [6415A005]  (AR v2)
Track 21  accurately ripped (confidence 1)  [7F2F9551]  (AR v2)
Track 22  accurately ripped (confidence 1)  [43776B51]  (AR v2)
Track 23  accurately ripped (confidence 1)  [B8D2693A]  (AR v2)
Track 24  accurately ripped (confidence 1)  [4A3514AF]  (AR v2)
Track 25  accurately ripped (confidence 1)  [0DFD8B8A]  (AR v2)
Track 26  accurately ripped (confidence 1)  [F782A0B4]  (AR v2)
Track 27  accurately ripped (confidence 1)  [FE1B8E48]  (AR v2)
Track 28  accurately ripped (confidence 1)  [DEC234C3]  (AR v2)
Track 29  accurately ripped (confidence 1)  [026FE55C]  (AR v2)
Track 30  accurately ripped (confidence 1)  [60A8E77A]  (AR v2)
Track 31  accurately ripped (confidence 1)  [9E507609]  (AR v2)
Track 32  accurately ripped (confidence 1)  [B1B3815A]  (AR v2)
Track 33  accurately ripped (confidence 1)  [9203E0D3]  (AR v2)
Track 34  accurately ripped (confidence 1)  [D7443ACB]  (AR v2)
Track 35  accurately ripped (confidence 1)  [D288D3EF]  (AR v2)
Track 36  accurately ripped (confidence 1)  [80D3B5CE]  (AR v2)
Track 37  accurately ripped (confidence 1)  [90C89F71]  (AR v2)
Track 38  accurately ripped (confidence 1)  [E6C1D42A]  (AR v2)
All tracks accurately ripped
End of status report
==== Log checksum 165DFFD01F799CA98BE16DDC0E5138E5AAA97A3C0B739231E2833000C660C3DD ====


Содержание индексной карты (.CUE)

REM GENRE Classical
REM DATE 2019
REM DISCID FE0DCE26
REM COMMENT "ExactAudioCopy v1.5"
PERFORMER "Deutsche Staatsphilharmonie Rheinland-Pfalz, Mark Fitz-Gerald"
TITLE "Shostakovich - The Bedbug; Love and Hate"
REM COMPOSER "Dmitri Shostakovich"
FILE "Shostakovich - The Bedbug; Love and Hate.flac" WAVE
  TRACK 01 AUDIO
    TITLE "The Bedbug, Op.19 - Part I - March"
    PERFORMER "Deutsche Staatsphilharmonie Rheinland-Pfalz, Mark Fitz-Gerald"
    REM COMPOSER "Dmitri Shostakovich"
    INDEX 01 00:00:00
  TRACK 02 AUDIO
    TITLE "The Bedbug, Op.19 - Part I - Foxtrot"
    PERFORMER "Deutsche Staatsphilharmonie Rheinland-Pfalz, Mark Fitz-Gerald"
    REM COMPOSER "Dmitri Shostakovich"
    INDEX 00 02:33:01
    INDEX 01 02:33:52
  TRACK 03 AUDIO
    TITLE "The Bedbug, Op.19 - Part I - Galop"
    PERFORMER "Deutsche Staatsphilharmonie Rheinland-Pfalz, Mark Fitz-Gerald"
    REM COMPOSER "Dmitri Shostakovich"
    INDEX 00 04:59:66
    INDEX 01 05:00:02
  TRACK 04 AUDIO
    TITLE "The Bedbug, Op.19 - Part I - Waltz No.1"
    PERFORMER "Deutsche Staatsphilharmonie Rheinland-Pfalz, Mark Fitz-Gerald"
    REM COMPOSER "Dmitri Shostakovich"
    INDEX 00 07:22:28
    INDEX 01 07:22:54
  TRACK 05 AUDIO
    TITLE "The Bedbug, Op.19 - Part I - Intermezzo"
    PERFORMER "Deutsche Staatsphilharmonie Rheinland-Pfalz, Mark Fitz-Gerald"
    REM COMPOSER "Dmitri Shostakovich"
    INDEX 00 08:21:08
    INDEX 01 08:23:31
  TRACK 06 AUDIO
    TITLE "The Bedbug, Op.19 - Part I - Wedding Scene"
    PERFORMER "Mannheim Opera Choir, Deutsche Staatsphilharmonie Rheinland-Pfalz, Mark Fitz-Gerald"
    REM COMPOSER "Dmitri Shostakovich"
    INDEX 00 11:34:27
    INDEX 01 11:34:40
  TRACK 07 AUDIO
    TITLE "The Bedbug, Op.19 - Part I - Fire"
    PERFORMER "Deutsche Staatsphilharmonie Rheinland-Pfalz, Mark Fitz-Gerald"
    REM COMPOSER "Dmitri Shostakovich"
    INDEX 01 17:13:59
  TRACK 08 AUDIO
    TITLE "The Bedbug, Op.19 - Part I - Fire Signals"
    PERFORMER "Deutsche Staatsphilharmonie Rheinland-Pfalz, Mark Fitz-Gerald"
    REM COMPOSER "Dmitri Shostakovich"
    INDEX 01 18:20:40
  TRACK 09 AUDIO
    TITLE "The Bedbug, Op.19 - Part I - Firemen's Choir"
    PERFORMER "Mannheim Opera Choir, Deutsche Staatsphilharmonie Rheinland-Pfalz, Mark Fitz-Gerald"
    REM COMPOSER "Dmitri Shostakovich"
    INDEX 01 18:57:24
  TRACK 10 AUDIO
    TITLE "The Bedbug, Op.19 - Part II - Scene in the Public Garden"
    PERFORMER "Deutsche Staatsphilharmonie Rheinland-Pfalz, Mark Fitz-Gerald"
    REM COMPOSER "Dmitri Shostakovich"
    INDEX 00 19:44:72
    INDEX 01 19:50:18
  TRACK 11 AUDIO
    TITLE "The Bedbug, Op.19 - Part II - March of the Pioneers"
    PERFORMER "Mannheim Opera Choir, Deutsche Staatsphilharmonie Rheinland-Pfalz, Mark Fitz-Gerald"
    REM COMPOSER "Dmitri Shostakovich"
    INDEX 00 22:40:26
    INDEX 01 22:40:30
  TRACK 12 AUDIO
    TITLE "The Bedbug, Op.19 - Part II - Flourish"
    PERFORMER "Deutsche Staatsphilharmonie Rheinland-Pfalz, Mark Fitz-Gerald"
    REM COMPOSER "Dmitri Shostakovich"
    INDEX 00 24:52:46
    INDEX 01 24:53:43
  TRACK 13 AUDIO
    TITLE "The Bedbug, Op.19 - Part II - March of the City Elders"
    PERFORMER "Mannheim Opera Choir, Deutsche Staatsphilharmonie Rheinland-Pfalz, Mark Fitz-Gerald"
    REM COMPOSER "Dmitri Shostakovich"
    INDEX 01 25:02:31
  TRACK 14 AUDIO
    TITLE "The Bedbug, Op.19 - Part II - Waltz No.2"
    PERFORMER "Deutsche Staatsphilharmonie Rheinland-Pfalz, Mark Fitz-Gerald"
    REM COMPOSER "Dmitri Shostakovich"
    INDEX 00 25:51:07
    INDEX 01 25:51:41
  TRACK 15 AUDIO
    TITLE "The Bedbug, Op.19 - Part II - Closing March"
    PERFORMER "Deutsche Staatsphilharmonie Rheinland-Pfalz, Mark Fitz-Gerald"
    REM COMPOSER "Dmitri Shostakovich"
    INDEX 00 26:37:13
    INDEX 01 26:37:36
  TRACK 16 AUDIO
    TITLE "Love and Hate, Op.38 - 1. Introduction"
    PERFORMER "Deutsche Staatsphilharmonie Rheinland-Pfalz, Mark Fitz-Gerald"
    REM COMPOSER "Dmitri Shostakovich"
    INDEX 00 28:38:47
    INDEX 01 28:45:08
  TRACK 17 AUDIO
    TITLE "Love and Hate, Op.38 - 2. Distribution of Arms"
    PERFORMER "Deutsche Staatsphilharmonie Rheinland-Pfalz, Mark Fitz-Gerald"
    REM COMPOSER "Dmitri Shostakovich"
    INDEX 00 30:43:16
    INDEX 01 30:45:23
  TRACK 18 AUDIO
    TITLE "Love and Hate, Op.38 - 3. Interlude"
    PERFORMER "Deutsche Staatsphilharmonie Rheinland-Pfalz, Mark Fitz-Gerald"
    REM COMPOSER "Dmitri Shostakovich"
    INDEX 01 31:43:74
  TRACK 19 AUDIO
    TITLE "Love and Hate, Op.38 - 4. 'How Long Will My Heart Ache and Moan?'"
    PERFORMER "Mannheim Opera Choir, Deutsche Staatsphilharmonie Rheinland-Pfalz, Mark Fitz-Gerald"
    REM COMPOSER "Dmitri Shostakovich"
    INDEX 00 32:05:03
    INDEX 01 32:05:04
  TRACK 20 AUDIO
    TITLE "Love and Hate, Op.38 - 5. Intermezzo"
    PERFORMER "Deutsche Staatsphilharmonie Rheinland-Pfalz, Mark Fitz-Gerald"
    REM COMPOSER "Dmitri Shostakovich"
    INDEX 01 34:05:14
  TRACK 21 AUDIO
    TITLE "Love and Hate, Op.38 - 6. Soldiers' March"
    PERFORMER "Mannheim Opera Choir, Deutsche Staatsphilharmonie Rheinland-Pfalz, Mark Fitz-Gerald"
    REM COMPOSER "Dmitri Shostakovich"
    INDEX 00 34:58:66
    INDEX 01 34:59:20
  TRACK 22 AUDIO
    TITLE "Love and Hate, Op.38 - 7. March (Scherzando)"
    PERFORMER "Deutsche Staatsphilharmonie Rheinland-Pfalz, Mark Fitz-Gerald"
    REM COMPOSER "Dmitri Shostakovich"
    INDEX 00 36:39:04
    INDEX 01 36:41:04
  TRACK 23 AUDIO
    TITLE "Love and Hate, Op.38 - 8. 'How Long Will My Heart Ache and Moan?'"
    PERFORMER "Mannheim Opera Choir, Deutsche Staatsphilharmonie Rheinland-Pfalz, Mark Fitz-Gerald"
    REM COMPOSER "Dmitri Shostakovich"
    INDEX 00 38:20:31
    INDEX 01 38:20:55
  TRACK 24 AUDIO
    TITLE "Love and Hate, Op.38 - 9. 78 rpm Record (Waltz)"
    PERFORMER "Deutsche Staatsphilharmonie Rheinland-Pfalz, Mark Fitz-Gerald"
    REM COMPOSER "Dmitri Shostakovich"
    INDEX 00 40:13:27
    INDEX 01 40:15:61
  TRACK 25 AUDIO
    TITLE "Love and Hate, Op.38 - 10. Interlude"
    PERFORMER "Deutsche Staatsphilharmonie Rheinland-Pfalz, Mark Fitz-Gerald"
    REM COMPOSER "Dmitri Shostakovich"
    INDEX 00 42:00:18
    INDEX 01 42:01:32
  TRACK 26 AUDIO
    TITLE "Love and Hate, Op.38 - 11. Morning March"
    PERFORMER "Deutsche Staatsphilharmonie Rheinland-Pfalz, Mark Fitz-Gerald"
    REM COMPOSER "Dmitri Shostakovich"
    INDEX 00 42:41:67
    INDEX 01 42:43:20
  TRACK 27 AUDIO
    TITLE "Love and Hate, Op.38 - 12. Drunken Soldier"
    PERFORMER "Deutsche Staatsphilharmonie Rheinland-Pfalz, Mark Fitz-Gerald"
    REM COMPOSER "Dmitri Shostakovich"
    INDEX 00 43:31:26
    INDEX 01 43:31:69
  TRACK 28 AUDIO
    TITLE "Love and Hate, Op.38 - 13. Domestic Mayhem"
    PERFORMER "Mannheim Opera Choir, Deutsche Staatsphilharmonie Rheinland-Pfalz, Mark Fitz-Gerald"
    REM COMPOSER "Dmitri Shostakovich"
    INDEX 00 43:53:23
    INDEX 01 43:54:68
  TRACK 29 AUDIO
    TITLE "Love and Hate, Op.38 - 14. A Team of Women"
    PERFORMER "Deutsche Staatsphilharmonie Rheinland-Pfalz, Mark Fitz-Gerald"
    REM COMPOSER "Dmitri Shostakovich"
    INDEX 00 45:10:63
    INDEX 01 45:12:59
  TRACK 30 AUDIO
    TITLE "Love and Hate, Op.38 - 15. Soldier's Murder"
    PERFORMER "Deutsche Staatsphilharmonie Rheinland-Pfalz, Mark Fitz-Gerald"
    REM COMPOSER "Dmitri Shostakovich"
    INDEX 01 47:30:18
  TRACK 31 AUDIO
    TITLE "Love and Hate, Op.38 - 16. Women Go Down the Mine"
    PERFORMER "Deutsche Staatsphilharmonie Rheinland-Pfalz, Mark Fitz-Gerald"
    REM COMPOSER "Dmitri Shostakovich"
    INDEX 00 49:49:17
    INDEX 01 49:50:06
  TRACK 32 AUDIO
    TITLE "Love and Hate, Op.38 - 17. Death in the Mines"
    PERFORMER "Deutsche Staatsphilharmonie Rheinland-Pfalz, Mark Fitz-Gerald"
    REM COMPOSER "Dmitri Shostakovich"
    INDEX 00 50:58:03
    INDEX 01 50:59:56
  TRACK 33 AUDIO
    TITLE "Love and Hate, Op.38 - 18. The Funeral"
    PERFORMER "Deutsche Staatsphilharmonie Rheinland-Pfalz, Mark Fitz-Gerald"
    REM COMPOSER "Dmitri Shostakovich"
    INDEX 00 52:00:03
    INDEX 01 52:01:63
  TRACK 34 AUDIO
    TITLE "Love and Hate, Op.38 - 19. Dramatic Chords"
    PERFORMER "Deutsche Staatsphilharmonie Rheinland-Pfalz, Mark Fitz-Gerald"
    REM COMPOSER "Dmitri Shostakovich"
    INDEX 00 55:04:39
    INDEX 01 55:05:32
  TRACK 35 AUDIO
    TITLE "Love and Hate, Op.38 - 20. Passing the Time"
    PERFORMER "Deutsche Staatsphilharmonie Rheinland-Pfalz, Mark Fitz-Gerald"
    REM COMPOSER "Dmitri Shostakovich"
    INDEX 00 55:42:03
    INDEX 01 55:42:43
  TRACK 36 AUDIO
    TITLE "Love and Hate, Op.38 - 21. Greeting the Red Army Men"
    PERFORMER "Deutsche Staatsphilharmonie Rheinland-Pfalz, Mark Fitz-Gerald"
    REM COMPOSER "Dmitri Shostakovich"
    INDEX 01 56:45:28
  TRACK 37 AUDIO
    TITLE "Love and Hate, Op.38 - 22. Fanfare"
    PERFORMER "Deutsche Staatsphilharmonie Rheinland-Pfalz, Mark Fitz-Gerald"
    REM COMPOSER "Dmitri Shostakovich"
    INDEX 00 57:44:07
    INDEX 01 57:46:28
  TRACK 38 AUDIO
    TITLE "Love and Hate, Op.38 - 23. Finale"
    PERFORMER "Deutsche Staatsphilharmonie Rheinland-Pfalz, Mark Fitz-Gerald"
    REM COMPOSER "Dmitri Shostakovich"
    INDEX 01 58:03:65

                                                                                       
                       
                       
                       
                       
                       
                                磁力下载(论坛代下载服务)::
                                                               
                                       
付费主题

已有0人支付


                                               
  • 232.3 MB
  • 温馨提示

    记得善用社区搜索功能,那里可能会有你想要的资源;论坛站内搜索

    如果你有什么需要的资源可以去资源求档发帖,求助社区的网友,我们会在第一时间给你回复哦;资源求档

    对于本社区网盘链接失效密码错误各种报错请在反馈板块反馈报错发帖,您的支持,是我们发展的最大动力;投诉建议

    回复

    使用道具 举报

    您需要登录后才可以回帖 登录 | 立即注册 微信登录

    本版积分规则

    关注0

    粉丝19

    帖子88104

    发布主题
    阅读排行更多+
    关闭

    站长推荐上一条 /1 下一条

    活动提示

    赞助永久VIP会员送3T硬盘一块 限时活动

    地址:立刻参加

    我知道了
    收藏帖子 返回列表 这是一个自定义按钮
    音乐分享,音乐下载。
    微信公众号
    微信号:hires_
    意见反馈:admin@maomicd.com

    加入我们的官方QQ群和微信群

    Powered by Discuz! X3.4 Archiver|手机版|小黑屋|捌零音乐论坛 ( 苏ICP备20015413号 )|( 苏公网安备 32030502000272号) 繁體

    GMT+8, 2021-9-25 06:12