[古典] (Classical) [CD] Mahler - Symphony No.10 (version by Deryck Cooke) - Minnesota Orchestra, Osmo Vänskä (Vanska) - 2020, FLAC (image+.cue) lossless

[复制链接]
全球搬运 发表于 2021-9-10 16:56:46 | 显示全部楼层 |阅读模式 打印 上一主题 下一主题
Mahler - Symphony No.10 (version by Deryck Cooke) - Minnesota Orchestra, Osmo Vänskä
Жанр: Classical
Носитель: CD
Страна-производитель диска: Sweden
Год издания диска: 2020
Издатель (лейбл): BIS
Номер по каталогу: BIS-SACD-2396
Дата записи: 2019
Аудиокодек: FLAC
Тип рипа: image+.cue
Битрейт аудио: lossless
Продолжительность: 77:47
Источник: собственный рип
Наличие сканов в содержимом раздачи: да
Треклист:
Gustav Mahler
[1]-[5] Symphony No. 10 in F sharp major (1910)
Performing version by Deryck Cooke (1976)
Исполнители:
Minnesota Orchestra
Osmo Vänskä conductor
Лог создания рипа

Exact Audio Copy V1.5 from 20. February 2020
EAC extraction logfile from 2. July 2021, 20:52
Minnesota Orchestra, Osmo Vänskä / Mahler - Symphony No.10
Used drive  : ASUS    SDRW-08U7M-U   Adapter: 1  ID: 0
Read mode               : Secure
Utilize accurate stream : Yes
Defeat audio cache      : Yes
Make use of C2 pointers : No
Read offset correction                      : 6
Overread into Lead-In and Lead-Out          : No
Fill up missing offset samples with silence : Yes
Delete leading and trailing silent blocks   : No
Null samples used in CRC calculations       : Yes
Used interface                              : Native Win32 interface for Win NT & 2000
Used output format              : User Defined Encoder
Selected bitrate                : 128 kBit/s
Quality                         : High
Add ID3 tag                     : No
Command line compressor         : C:\Program Files (x86)\Exact Audio Copy\Flac\flac.exe
Additional command line options : -V -8 -T "Date=%year%" -T "Genre=%genre%" %source%
TOC of the extracted CD
     Track |   Start  |  Length  | Start sector | End sector
    ---------------------------------------------------------
        1  |  0:00.00 | 26:42.23 |         0    |   120172
        2  | 26:42.23 | 11:39.21 |    120173    |   172618
        3  | 38:21.44 |  4:22.61 |    172619    |   192329
        4  | 42:44.30 | 11:52.06 |    192330    |   245735
        5  | 54:36.36 | 23:44.24 |    245736    |   352559
Range status and errors
Selected range
     Filename C:\temp\BIS-SACD-2396 - Mahler - Symphony No.10 - 2020\Mahler - Symphony No.10.wav
     Peak level 95.3 %
     Extraction speed 5.3 X
     Range quality 99.9 %
     Test CRC 5ACB5B16
     Copy CRC 5ACB5B16
     Copy OK
No errors occurred
AccurateRip summary
Track  1  accurately ripped (confidence 4)  [206E8B51]  (AR v2)
Track  2  accurately ripped (confidence 4)  [8C02BCB0]  (AR v2)
Track  3  accurately ripped (confidence 4)  [1FF5D11F]  (AR v2)
Track  4  accurately ripped (confidence 4)  [52357651]  (AR v2)
Track  5  accurately ripped (confidence 4)  [683C81C9]  (AR v2)
All tracks accurately ripped
End of status report
==== Log checksum 3462F02D2B391E1CBA5587494B6B5045A8A1A169F092C0CE8895D1DDC344DFE7 ====


Содержание индексной карты (.CUE)

REM GENRE Classical
REM DATE 2020
REM DISCID 3C125C05
REM COMMENT "ExactAudioCopy v1.5"
PERFORMER "Minnesota Orchestra, Osmo Vänskä"
TITLE "Mahler - Symphony No.10"
REM COMPOSER "Gustav Mahler"
FILE "Mahler - Symphony No.10.flac" WAVE
  TRACK 01 AUDIO
    TITLE "Symphony No.10 in F sharp major - I. Adagio. Andante - Adagio"
    PERFORMER "Minnesota Orchestra, Osmo Vänskä"
    REM COMPOSER "Gustav Mahler"
    INDEX 01 00:00:00
  TRACK 02 AUDIO
    TITLE "Symphony No.10 in F sharp major - II. Scherzo. Schnelle Viertel"
    PERFORMER "Minnesota Orchestra, Osmo Vänskä"
    REM COMPOSER "Gustav Mahler"
    INDEX 01 26:42:23
  TRACK 03 AUDIO
    TITLE "Symphony No.10 in F sharp major - III. Purgatorio. Allegretto moderato"
    PERFORMER "Minnesota Orchestra, Osmo Vänskä"
    REM COMPOSER "Gustav Mahler"
    INDEX 01 38:21:44
  TRACK 04 AUDIO
    TITLE "Symphony No.10 in F sharp major - IV. [Scherzo]. Allegro pesante. Nicht zu schnell"
    PERFORMER "Minnesota Orchestra, Osmo Vänskä"
    REM COMPOSER "Gustav Mahler"
    INDEX 01 42:44:30
  TRACK 05 AUDIO
    TITLE "Symphony No.10 in F sharp major - V. Finale. Langsam, schwer - Allegro moderato"
    PERFORMER "Minnesota Orchestra, Osmo Vänskä"
    REM COMPOSER "Gustav Mahler"
    INDEX 01 54:36:36

                                                                                       
                       
                       
                       
                       
                       
                                磁力下载(论坛代下载服务)::
                                                               
                                       
付费主题

已有0人支付


                                               
  • 297.7 MB
  • 温馨提示

    记得善用社区搜索功能,那里可能会有你想要的资源;论坛站内搜索

    如果你有什么需要的资源可以去资源求档发帖,求助社区的网友,我们会在第一时间给你回复哦;资源求档

    对于本社区网盘链接失效密码错误各种报错请在反馈板块反馈报错发帖,您的支持,是我们发展的最大动力;投诉建议

    回复

    使用道具 举报

    您需要登录后才可以回帖 登录 | 立即注册 微信登录

    本版积分规则

    关注0

    粉丝17

    帖子71480

    发布主题
    阅读排行更多+
    关闭

    站长推荐上一条 /1 下一条

    活动提示

    赞助永久VIP会员送3T硬盘一块 限时活动

    地址:立刻参加

    我知道了
    收藏帖子 返回列表 这是一个自定义按钮
    音乐分享,音乐下载。
    微信公众号
    微信号:hires_
    意见反馈:admin@maomicd.com

    加入我们的官方QQ群和微信群

    Powered by Discuz! X3.4 Archiver|手机版|小黑屋|捌零音乐论坛 ( 苏ICP备20015413号 )|( 苏公网安备 32030502000272号) 繁體

    GMT+8, 2021-9-25 06:02