[古典] (Orchestral) Бетховен - Симфония No. 7 (Будапештский Фестивальный Оркестр, Иван Фишер) / Beethoven - Symphony No. 7 (Budapest Festival Orchestra, Ivan Fischer) (CCS SA 25207) - CD

[复制链接]
10086 发表于 2021-9-10 16:56:46 | 显示全部楼层 |阅读模式 打印 上一主题 下一主题
Budapest Festival Orchestra (Iván Fischer) - Beethoven: Symphony No. 7
Жанр: Orchestral
Год выпуска диска: 2008
Производитель диска: Netherlands, Channel Classics Records
Аудио кодек: FLAC
Тип рипа: tracks+.cue
Битрейт аудио: lossless
Продолжительность: 1:00:51
Доп. информация:


Трэклист
Ludwig van Beethoven - Symphony nr. 7 opus 92
1. I. Poco sostenuto (13:50)
2. II. Allegretto (9:08)
3. III. Presto (9:42)
4. IV. Allegro Con Brio (8:26)
Carl Maria von Weber - Concerto for Clarinet in F minor no. 1
5. II. Adagio (6:18) - Ákos Ács
Gioachino Rossini - L’Italiana in Algeri Sinfonia Johann
6. L’Italiana in Algeri Sinfonia Johann (8:13)
Wilhelm Wilms - Sinfonia à grand orchestre, no. IV in c minor
7. Op. 23 Rondo (5:14)

EAC

Exact Audio Copy V0.99 prebeta 4 from 23. January 2008
EAC extraction logfile from 24. November 2009, 18:58
Budapest Festival Orchestra, Ivan Fischer / Beethoven Symphony no. 7
Used drive  : HL-DT-STDVDRAM GSA-4167B   Adapter: 0  ID: 0
Read mode               : Secure
Utilize accurate stream : Yes
Defeat audio cache      : Yes
Make use of C2 pointers : No
Read offset correction                      : 667
Overread into Lead-In and Lead-Out          : No
Fill up missing offset samples with silence : Yes
Delete leading and trailing silent blocks   : No
Null samples used in CRC calculations       : Yes
Used interface                              : Native Win32 interface for Win NT & 2000
Gap handling                                : Appended to previous track
Used output format              : User Defined Encoder
Selected bitrate                : 128 kBit/s
Quality                         : High
Add ID3 tag                     : No
Command line compressor         : C:\Program Files\Exact Audio Copy\Flac\flac.exe
Additional command line options : -8 -V -T "ARTIST=%a" -T "TITLE=%t" -T "ALBUM=%g" -T "DATE=%y" -T "TRACKNUMBER=%n" -T "GENRE=%m" -T "COMMENT=EAC FLAC -8" %s
TOC of the extracted CD
     Track |   Start  |  Length  | Start sector | End sector
    ---------------------------------------------------------
        1  |  0:00.00 | 13:50.04 |         0    |    62253
        2  | 13:50.04 |  9:07.57 |     62254    |   103335
        3  | 22:57.61 |  9:41.74 |    103336    |   146984
        4  | 32:39.60 |  8:25.71 |    146985    |   184930
        5  | 41:05.56 |  6:18.30 |    184931    |   213310
        6  | 47:24.11 |  8:12.59 |    213311    |   250269
        7  | 55:36.70 |  5:13.56 |    250270    |   273800
Track  1
     Filename D:\01 - Symphony nr. 7 opus 92 - I. Poco sostenuto.wav
     Pre-gap length  0:00:02.00
     Peak level 100.0 %
     Track quality 100.0 %
     Test CRC CEF0E684
     Copy CRC CEF0E684
     Accurately ripped (confidence 4)  [E7D5E14D]
     Copy OK
Track  2
     Filename D:\02 - II. Allegretto.wav
     Pre-gap length  0:00:05.49
     Peak level 92.8 %
     Track quality 100.0 %
     Test CRC FEC41C79
     Copy CRC FEC41C79
     Accurately ripped (confidence 4)  [A0E4B75E]
     Copy OK
Track  3
     Filename D:\03 - III. Presto.wav
     Pre-gap length  0:00:04.46
     Peak level 90.4 %
     Track quality 100.0 %
     Test CRC 62D3339D
     Copy CRC 62D3339D
     Accurately ripped (confidence 4)  [FE6E9934]
     Copy OK
Track  4
     Filename D:\04 - IV. Allegro con brio.wav
     Peak level 100.0 %
     Track quality 100.0 %
     Test CRC B84096CC
     Copy CRC B84096CC
     Accurately ripped (confidence 4)  [ACBB7AC7]
     Copy OK
Track  5
     Filename D:\05 - Carl Maria von Weber  - Concerto for Clarinet in F minor no. 1 - II. Adagio.wav
     Pre-gap length  0:00:09.32
     Peak level 64.2 %
     Track quality 100.0 %
     Test CRC 00735A68
     Copy CRC 00735A68
     Accurately ripped (confidence 4)  [05265F32]
     Copy OK
Track  6
     Filename D:\06 - Gioachino Rossini - LЎЇItaliana in Algeri Sinfonia Johann.wav
     Pre-gap length  0:00:09.50
     Peak level 100.0 %
     Track quality 99.9 %
     Test CRC 30DAF18A
     Copy CRC 30DAF18A
     Accurately ripped (confidence 4)  [0D5BAFF2]
     Copy OK
Track  7
     Filename D:\07 - Wilhelm Wilms - Sinfonia a grand orchestre, no. IV in c mino.wav
     Pre-gap length  0:00:09.31
     Peak level 100.0 %
     Track quality 100.0 %
     Test CRC 3597C24F
     Copy CRC 3597C24F
     Accurately ripped (confidence 4)  [50A9E029]
     Copy OK
All tracks accurately ripped
No errors occurred
End of status report

                                                                                       
                       
                       
                       
                       
                       
                                磁力下载(论坛代下载服务)::
                                                               
                                       
付费主题

已有0人支付


                                               
  • 261.9 MB
  • 温馨提示

    记得善用社区搜索功能,那里可能会有你想要的资源;论坛站内搜索

    如果你有什么需要的资源可以去资源求档发帖,求助社区的网友,我们会在第一时间给你回复哦;资源求档

    对于本社区网盘链接失效密码错误各种报错请在反馈板块反馈报错发帖,您的支持,是我们发展的最大动力;投诉建议

    回复

    使用道具 举报

    您需要登录后才可以回帖 登录 | 立即注册 微信登录

    本版积分规则

    关注0

    粉丝7

    帖子52319

    发布主题
    阅读排行更多+
    关闭

    站长推荐上一条 /1 下一条

    活动提示

    赞助永久VIP会员送3T硬盘一块 限时活动

    地址:立刻参加

    我知道了
    收藏帖子 返回列表 这是一个自定义按钮
    音乐分享,音乐下载。
    微信公众号
    微信号:hires_
    意见反馈:admin@maomicd.com

    加入我们的官方QQ群和微信群

    Powered by Discuz! X3.4 Archiver|手机版|小黑屋|捌零音乐论坛 ( 苏ICP备20015413号 )|( 苏公网安备 32030502000272号) 繁體

    GMT+8, 2021-9-22 23:00