自购原抓音乐圈:只有自购、合购、原抓级高解析(hires、sacd、dsd)正版音乐资源分享!【点我打开
极速无线网卡:千兆无线网卡、服务器网卡、USB接口台式机笔记本网卡 硬盘代考无损音乐!【点我打开
广告

[LIVE] Mickey­ Hart­ Band: Superogranism/Live/4K/275G/BD

[复制链接]
洛杉矶 发表于 2021-6-26 22:07:01 | 显示全部楼层 |阅读模式 打印 上一主题 下一主题
image.png

文件非常大… 275G的文件大小,请确保硬盘大于500G存储空间。


视频信息
General
Complete name                  : M:\Mickey­Hart­Band_Superogranism­Live­4K.mov
Format                         : MPEG-4
Format profile                 : QuickTime
Codec ID                       : qt   2005.03 (qt  )
File size                      : 274 GiB
Duration                       : 2 h 8 min
Overall bit rate mode          : Variable
Overall bit rate               : 304 Mb/s
Encoded date                   : UTC 2013-08-31 21:17:12
Tagged date                    : UTC 2013-09-02 22:20:49
Writing library                : Apple QuickTime
TIM                            : 00:00:00:00
TSC                            : 24000
TSZ                            : 1001

Video
ID                             : 1
Format                         : ProRes
Format version                 : Version 0
Format profile                 : 422 LT
Codec ID                       : apcs
Duration                       : 2 h 8 min
Bit rate mode                  : Variable
Bit rate                       : 302 Mb/s
Width                          : 3 840 pixels
Height                         : 2 160 pixels
Display aspect ratio           : 16:9
Frame rate mode                : Constant
Frame rate                     : 23.976 (24000/1001) FPS
Color space                    : YUV
Chroma subsampling             : 4:2:2
Scan type                      : Progressive
Bits/(Pixel*Frame)             : 1.521
Stream size                    : 272 GiB (99%)
Writing library                : Apple
Language                       : English
Encoded date                   : UTC 2013-08-31 21:17:12
Tagged date                    : UTC 2013-09-02 22:20:49
Color primaries                : BT.709
Transfer characteristics       : BT.709
Matrix coefficients            : BT.709

Audio
ID                             : 2
Format                         : PCM
Format settings                : Little / Signed
Codec ID                       : sowt
Duration                       : 2 h 8 min
Bit rate mode                  : Constant
Bit rate                       : 1 536 kb/s
Channel(s)                     : 2 channels
Channel layout                 : L R
Sampling rate                  : 48.0 kHz
Bit depth                      : 16 bits
Stream size                    : 1.38 GiB (1%)
Language                       : English
Encoded date                   : UTC 2013-08-31 21:17:12
Tagged date                    : UTC 2013-09-02 22:20:49

Other
ID                             : 3
Type                           : Time code
Format                         : QuickTime TC
Duration                       : 2 h 8 min
Frame rate                     : 23.976 (24000/1001) FPS
Time code of first frame       : 00:00:00:00
Time code, striped             : Yes
Language                       : English
Encoded date                   : UTC 2013-09-02 22:20:49
Tagged date                    : UTC 2013-09-02 22:20:49



本帖隐藏的内容
游客,本主题需向作者支付 55音乐币 才能浏览,金币充值, 免回复、免金币,直接查看内容请开通VIP支付


温馨提示

记得善用社区搜索功能,那里可能会有你想要的资源;论坛站内搜索

如果你有什么需要的资源可以去资源求档发帖,求助社区的网友,我们会在第一时间给你回复哦;资源求档

对于本社区网盘链接失效密码错误各种报错请在反馈板块反馈报错发帖,您的支持,是我们发展的最大动力;投诉建议

回复

使用道具 举报

您需要登录后才可以回帖 登录 | 立即注册 微信登录

本版积分规则

关注4

粉丝17

帖子7804

发布主题
阅读排行更多+
关闭

站长推荐上一条 /1 下一条

收藏帖子 返回列表 这是一个自定义按钮
音乐分享,音乐下载。
微信公众号
微信号:hires_
意见反馈:admin@maomicd.com

加入我们的官方QQ群和微信群

Powered by Discuz! X3.4 Archiver|手机版|小黑屋|捌零音乐论坛 ( 苏ICP备20015413号 )|( 苏公网安备 32030502000272号) 繁體

GMT+8, 2021-7-27 01:38