自购原抓音乐圈:只有自购、合购、原抓级高解析(hires、sacd、dsd)正版音乐资源分享!【点我打开
极速无线网卡:千兆无线网卡、服务器网卡、USB接口台式机笔记本网卡 硬盘代考无损音乐!【点我打开
广告

[欧美] Claude Debussy《single piano》5CD/FLAC/BD

[复制链接]
admin实名认证 发表于 2021-6-6 19:57:09 | 显示全部楼层 |阅读模式 打印 上一主题 下一主题
CD1:
FILE "Claude Debussy - Piano Works (1) - Ciccolini, Ousset, Beroff.flac" WAVE
  TRACK 01 AUDIO
    TITLE "Danse bohémienne, L. 4 (1880)"
    PERFORMER "Aldo Ciccolini"
    REM COMPOSER "Claude Debussy"
    INDEX 01 00:00:00
  TRACK 02 AUDIO
    TITLE "Mazurka, L. 75 (1890-91)"
    PERFORMER "Aldo Ciccolini"
    REM COMPOSER "Claude Debussy"
    INDEX 01 02:19:38
  TRACK 03 AUDIO
    TITLE "Rêverie, L. 76 (1890-91)"
    PERFORMER "Aldo Ciccolini"
    REM COMPOSER "Claude Debussy"
    INDEX 01 05:09:74
  TRACK 04 AUDIO
    TITLE "Tarentelle styrienne (Danse), L. 77a (1890-91)"
    PERFORMER "Aldo Ciccolini"
    REM COMPOSER "Claude Debussy"
    INDEX 01 10:09:07
  TRACK 05 AUDIO
    TITLE "Ballade (Ballade slave), L. 78 (1890-91)"
    PERFORMER "Aldo Ciccolini"
    REM COMPOSER "Claude Debussy"
    INDEX 01 15:22:01
  TRACK 06 AUDIO
    TITLE "Valse romantique, L. 79 (1890-91)"
    PERFORMER "Aldo Ciccolini"
    REM COMPOSER "Claude Debussy"
    INDEX 01 21:58:03
  TRACK 07 AUDIO
    TITLE "Suite bergamasque, L. 82 (1890, rev. 1905) - I. Prélude"
    PERFORMER "Cécile Ousset"
    REM COMPOSER "Claude Debussy"
    INDEX 01 25:30:53
  TRACK 08 AUDIO
    TITLE "Suite bergamasque, L. 82 (1890, rev. 1905) - II. Menuet"
    PERFORMER "Cécile Ousset"
    REM COMPOSER "Claude Debussy"
    INDEX 01 29:02:68
  TRACK 09 AUDIO
    TITLE "Suite bergamasque, L. 82 (1890, rev. 1905) - III. Clair de lune"
    PERFORMER "Cécile Ousset"
    REM COMPOSER "Claude Debussy"
    INDEX 01 33:12:32
  TRACK 10 AUDIO
    TITLE "Suite bergamasque, L. 82 (1890, rev. 1905) - IV. Passepied"
    PERFORMER "Cécile Ousset"
    REM COMPOSER "Claude Debussy"
    INDEX 01 38:12:36
  TRACK 11 AUDIO
    TITLE "Arabesques, L. 74 (1890-91) - I."
    PERFORMER "Michel Beroff"
    REM COMPOSER "Claude Debussy"
    INDEX 01 42:20:16
  TRACK 12 AUDIO
    TITLE "Arabesques, L. 74 (1890-91) - II."
    PERFORMER "Michel Beroff"
    REM COMPOSER "Claude Debussy"
    INDEX 01 45:45:31
  TRACK 13 AUDIO
    TITLE "Nocturne, L. 89 (1892)"
    PERFORMER "Michel Beroff"
    REM COMPOSER "Claude Debussy"
    INDEX 01 48:58:74
  TRACK 14 AUDIO
    TITLE "Images [oubliées], L. 94 (1894) - I. Lent"
    PERFORMER "Michel Beroff"
    REM COMPOSER "Claude Debussy"
    INDEX 01 56:15:17
  TRACK 15 AUDIO
    TITLE "Images [oubliées], L. 94 (1894) - II. Dans le mouvement d'une 'Sarabande', c'est-à-dire avec une élégance grave et lente, même un peu vieux portrait, souvenirs du Louvre, etc."
    PERFORMER "Michel Beroff"
    REM COMPOSER "Claude Debussy"
    INDEX 01 60:18:51
  TRACK 16 AUDIO
    TITLE "Images [oubliées], L. 94 (1894) - III. Quelques aspects de 'Nous n'irons plus au bois' parce qu'il fait un temps insupportable"
    PERFORMER "Michel Beroff"
    REM COMPOSER "Claude Debussy"
    INDEX 01 65:56:24


CD2:
FILE "Claude Debussy - Piano Works (2).flac" WAVE
  TRACK 01 AUDIO
    TITLE "Pour le piano, L 95 (1896 [II], 1901 [I, III] - I. Prélude"
    PERFORMER "Samson Francois"
    REM COMPOSER "Claude Debussy"
    INDEX 01 00:00:00
  TRACK 02 AUDIO
    TITLE "Pour le piano, L 95 (1896 [II], 1901 [I, III] - II. Sarabande"
    PERFORMER "Samson Francois"
    REM COMPOSER "Claude Debussy"
    INDEX 01 04:25:69
  TRACK 03 AUDIO
    TITLE "Pour le piano, L 95 (1896 [II], 1901 [I, III] - III. Toccata"
    PERFORMER "Samson Francois"
    REM COMPOSER "Claude Debussy"
    INDEX 01 08:56:61
  TRACK 04 AUDIO
    TITLE "Estampes, L 108 (1903) - I. Pagodes"
    PERFORMER "Yuri Egorov"
    REM COMPOSER "Claude Debussy"
    INDEX 01 12:49:74
  TRACK 05 AUDIO
    TITLE "Estampes, L 108 (1903) - II. La Soirée dans Grenade"
    PERFORMER "Yuri Egorov"
    REM COMPOSER "Claude Debussy"
    INDEX 01 17:29:18
  TRACK 06 AUDIO
    TITLE "Estampes, L 108 (1903) - III. Jardins sous la pluie"
    PERFORMER "Yuri Egorov"
    REM COMPOSER "Claude Debussy"
    INDEX 01 22:26:39
  TRACK 07 AUDIO
    TITLE "D'un cahier d'esquisses, L 112 (1904)"
    PERFORMER "Monique Haas"
    REM COMPOSER "Claude Debussy"
    INDEX 01 26:04:64
  TRACK 08 AUDIO
    TITLE "Masques, L 110 (1903-04)"
    PERFORMER "Monique Haas"
    REM COMPOSER "Claude Debussy"
    INDEX 01 31:04:24
  TRACK 09 AUDIO
    TITLE "L'lsle joyeuse, L 109a (1903-04)"
    PERFORMER "Samson Francois"
    REM COMPOSER "Claude Debussy"
    INDEX 01 36:03:28
  TRACK 10 AUDIO
    TITLE "Morceau de concours (Musica), L 117 (1904)"
    PERFORMER "Aldo Ciccolini"
    REM COMPOSER "Claude Debussy"
    INDEX 01 42:16:09
  TRACK 11 AUDIO
    TITLE "Images (First Book), L 105 (1901-1905) - I. Reflets dans l'eau"
    PERFORMER "Pierre-Laurent Aimard"
    REM COMPOSER "Claude Debussy"
    INDEX 01 43:11:03
  TRACK 12 AUDIO
    TITLE "Images (First Book), L 105 (1901-1905) - II. Hommage à Rameau"
    PERFORMER "Pierre-Laurent Aimard"
    REM COMPOSER "Claude Debussy"
    INDEX 01 47:59:48
  TRACK 13 AUDIO
    TITLE "Images (First Book), L 105 (1901-1905) - III. Mouvement"
    PERFORMER "Pierre-Laurent Aimard"
    REM COMPOSER "Claude Debussy"
    INDEX 01 54:12:69
  TRACK 14 AUDIO
    TITLE "Children's Corner, L 119a (1906 [III], 1908 [I-II, IV-VI] - I. Docteur Gradus ad Parnassum"
    PERFORMER "Samson Francois"
    REM COMPOSER "Claude Debussy"
    INDEX 01 57:38:13
  TRACK 15 AUDIO
    TITLE "Children's Corner, L 119a (1906 [III], 1908 [I-II, IV-VI] - II. Jimbo's lullaby"
    PERFORMER "Samson Francois"
    REM COMPOSER "Claude Debussy"
    INDEX 01 59:42:38
  TRACK 16 AUDIO
    TITLE "Children's Corner, L 119a (1906 [III], 1908 [I-II, IV-VI] - III. Serenade for the Doll"
    PERFORMER "Samson Francois"
    REM COMPOSER "Claude Debussy"
    INDEX 01 62:54:56
  TRACK 17 AUDIO
    TITLE "Children's Corner, L 119a (1906 [III], 1908 [I-II, IV-VI] - IV. The snow is dancing "
    PERFORMER "Samson Francois"
    REM COMPOSER "Claude Debussy"
    INDEX 01 65:16:34
  TRACK 18 AUDIO
    TITLE "Children's Corner, L 119a (1906 [III], 1908 [I-II, IV-VI] - V. The little Shepherd"
    PERFORMER "Samson Francois"
    REM COMPOSER "Claude Debussy"
    INDEX 01 68:08:41
  TRACK 19 AUDIO
    TITLE "Children's Corner, L 119a (1906 [III], 1908 [I-II, IV-VI] - VI. Golliwogg's cake-walk"
    PERFORMER "Samson Francois"
    REM COMPOSER "Claude Debussy"
    INDEX 01 70:23:01
  TRACK 20 AUDIO
    TITLE "Robert Schumann (transcription by Debussy) - Zwölf vierhändige Klavierstücke fur kleine ind große Kinder, Op. 85 (12 pièces à quatre mains pour petits et grands enfants) - IX. Am Springbrunnen (À la fontaine) (1903)"
    PERFORMER "Jean-Pierre Armengaud"
    REM COMPOSER "Robert Schumann"
    INDEX 01 73:27:55


CD3:
FILE "Claude Debussy - Piano Works (3).flac" WAVE
  TRACK 01 AUDIO
    TITLE "Images (Second Book), L 120 (1907) - I. Cloches à travers les feuilles"
    PERFORMER "Pierre-Laurent Aimard"
    REM COMPOSER "Claude Debussy"
    INDEX 01 00:00:00
  TRACK 02 AUDIO
    TITLE "Images (Second Book), L 120 (1907) - Et la lune descend sur le temple qui fut"
    PERFORMER "Pierre-Laurent Aimard"
    REM COMPOSER "Claude Debussy"
    INDEX 01 04:25:51
  TRACK 03 AUDIO
    TITLE "Images (Second Book), L 120 (1907) - Poissons d'or"
    PERFORMER "Pierre-Laurent Aimard"
    REM COMPOSER "Claude Debussy"
    INDEX 01 09:29:21
  TRACK 04 AUDIO
    TITLE "Le petit nègre (cake-walk), L 122 (1909)"
    PERFORMER "Aldo Ciccolini"
    REM COMPOSER "Claude Debussy"
    INDEX 01 13:33:18
  TRACK 05 AUDIO
    TITLE "Hommage à Haydn, L 123 (1909)"
    PERFORMER "Aldo Ciccolini"
    REM COMPOSER "Claude Debussy"
    INDEX 01 15:15:39
  TRACK 06 AUDIO
    TITLE "Préludes (First Book), L 125 (1909-10) - I. Danseuses de Delphes"
    PERFORMER "Yuri Egorov"
    REM COMPOSER "Claude Debussy"
    INDEX 01 17:41:15
  TRACK 07 AUDIO
    TITLE "Préludes (First Book), L 125 (1909-10) - II. Voiles"
    PERFORMER "Yuri Egorov"
    REM COMPOSER "Claude Debussy"
    INDEX 01 21:09:47
  TRACK 08 AUDIO
    TITLE "Préludes (First Book), L 125 (1909-10) - III. Le vent dans la plaine"
    PERFORMER "Yuri Egorov"
    REM COMPOSER "Claude Debussy"
    INDEX 01 24:54:09
  TRACK 09 AUDIO
    TITLE "Préludes (First Book), L 125 (1909-10) - IV. 'Les sons et les parfums tournent dans l'air du soir'"
    PERFORMER "Yuri Egorov"
    REM COMPOSER "Claude Debussy"
    INDEX 01 26:56:30
  TRACK 10 AUDIO
    TITLE "Préludes (First Book), L 125 (1909-10) - V. Les collines d'Anacapri"
    PERFORMER "Yuri Egorov"
    REM COMPOSER "Claude Debussy"
    INDEX 01 30:46:18
  TRACK 11 AUDIO
    TITLE "Préludes (First Book), L 125 (1909-10) - VI. Des pas sur la neige"
    PERFORMER "Yuri Egorov"
    REM COMPOSER "Claude Debussy"
    INDEX 01 33:43:33
  TRACK 12 AUDIO
    TITLE "Préludes (First Book), L 125 (1909-10) - VII. Ce qu'a vu le Vent d'Ouest"
    PERFORMER "Yuri Egorov"
    REM COMPOSER "Claude Debussy"
    INDEX 01 38:03:12
  TRACK 13 AUDIO
    TITLE "Préludes (First Book), L 125 (1909-10) - VIII. La fille aux cheveux de lin"
    PERFORMER "Yuri Egorov"
    REM COMPOSER "Claude Debussy"
    INDEX 01 41:28:06
  TRACK 14 AUDIO
    TITLE "Préludes (First Book), L 125 (1909-10) - IX. La sérénade interrompue"
    PERFORMER "Yuri Egorov"
    REM COMPOSER "Claude Debussy"
    INDEX 01 43:50:06
  TRACK 15 AUDIO
    TITLE "Préludes (First Book), L 125 (1909-10) - X. La Cathédrale engloutie"
    PERFORMER "Yuri Egorov"
    REM COMPOSER "Claude Debussy"
    INDEX 01 46:24:60
  TRACK 16 AUDIO
    TITLE "Préludes (First Book), L 125 (1909-10) - XI. La danse de Puck"
    PERFORMER "Yuri Egorov"
    REM COMPOSER "Claude Debussy"
    INDEX 01 53:09:06
  TRACK 17 AUDIO
    TITLE "Préludes (First Book), L 125 (1909-10) - XII. Minstrels"
    PERFORMER "Yuri Egorov"
    REM COMPOSER "Claude Debussy"
    INDEX 01 56:07:66
  TRACK 18 AUDIO
    TITLE "La plus que lente, valse, L 128a (1910)"
    PERFORMER "Samson Francois"
    REM COMPOSER "Claude Debussy"
    INDEX 01 58:34:28


CD4:
FILE "Claude Debussy - Piano Works (4) - Yuri Egorov.flac" WAVE
  TRACK 01 AUDIO
    TITLE "Préludes (Second Book), L 131 (1912-13) - I. Brouillards"
    PERFORMER "Yuri Egorov"
    REM COMPOSER ""
    INDEX 01 00:00:00
  TRACK 02 AUDIO
    TITLE "Préludes (Second Book), L 131 (1912-13) - II. Feuilles mortes"
    PERFORMER "Yuri Egorov"
    REM COMPOSER ""
    INDEX 01 03:22:22
  TRACK 03 AUDIO
    TITLE "Préludes (Second Book), L 131 (1912-13) - III. La puerta del Vino"
    PERFORMER "Yuri Egorov"
    REM COMPOSER ""
    INDEX 01 06:37:26
  TRACK 04 AUDIO
    TITLE "Préludes (Second Book), L 131 (1912-13) - IV. 'Les Fées sont d'exquises danseuses'"
    PERFORMER "Yuri Egorov"
    REM COMPOSER ""
    INDEX 01 09:50:34
  TRACK 05 AUDIO
    TITLE "Préludes (Second Book), L 131 (1912-13) - V. Bruyères"
    PERFORMER "Yuri Egorov"
    REM COMPOSER ""
    INDEX 01 12:56:38
  TRACK 06 AUDIO
    TITLE "Préludes (Second Book), L 131 (1912-13) - VI. 'General Lavine' - excentric -"
    PERFORMER "Yuri Egorov"
    REM COMPOSER ""
    INDEX 01 15:51:13
  TRACK 07 AUDIO
    TITLE "Préludes (Second Book), L 131 (1912-13) - VII. La terrasse des audiences du clair de lune"
    PERFORMER "Yuri Egorov"
    REM COMPOSER ""
    INDEX 01 18:15:58
  TRACK 08 AUDIO
    TITLE "Préludes (Second Book), L 131 (1912-13) - VIII. Ondine"
    PERFORMER "Yuri Egorov"
    REM COMPOSER ""
    INDEX 01 22:53:04
  TRACK 09 AUDIO
    TITLE "Préludes (Second Book), L 131 (1912-13) - IX. Hommage à S. Pickwick Esq. P.P.M.P.C."
    PERFORMER "Yuri Egorov"
    REM COMPOSER ""
    INDEX 01 25:53:40
  TRACK 10 AUDIO
    TITLE "Préludes (Second Book), L 131 (1912-13) - X. Canope"
    PERFORMER "Yuri Egorov"
    REM COMPOSER ""
    INDEX 01 28:21:28
  TRACK 11 AUDIO
    TITLE "Préludes (Second Book), L 131 (1912-13) - XI. Les tierces alternées"
    PERFORMER "Yuri Egorov"
    REM COMPOSER ""
    INDEX 01 31:32:05
  TRACK 12 AUDIO
    TITLE "Préludes (Second Book), L 131 (1912-13) - XII. Feux d'artifice"
    PERFORMER "Yuri Egorov"
    REM COMPOSER ""
    INDEX 01 33:53:73
  TRACK 13 AUDIO
    TITLE "Khamma, légende dansée, L 132b (1911-12, réduction Debussy) - Prélude"
    PERFORMER "Jean-Pierre Armengaud"
    REM COMPOSER ""
    INDEX 01 38:12:65
  TRACK 14 AUDIO
    TITLE "Khamma, légende dansée, L 132b (1911-12, réduction Debussy) - Scène 1: Le temple intérieur du Grand Dieu Amun-Ra"
    PERFORMER "Jean-Pierre Armengaud"
    REM COMPOSER ""
    INDEX 01 39:32:65
  TRACK 15 AUDIO
    TITLE "Khamma, légende dansée, L 132b (1911-12, réduction Debussy) - Scène 2: 'La grande porte s'ouvre' · 1re Danse · 2e Danse · 3e Danse"
    PERFORMER "Jean-Pierre Armengaud"
    REM COMPOSER ""
    INDEX 01 43:51:58
  TRACK 16 AUDIO
    TITLE "Khamma, légende dansée, L 132b (1911-12, réduction Debussy) - Scène 3: 'C'est l'aube froide et grise'"
    PERFORMER "Jean-Pierre Armengaud"
    REM COMPOSER ""
    INDEX 01 56:00:58
  TRACK 17 AUDIO
    TITLE "Jeux, poème dansé, L 133b (1912-13, réduction Debussy)"
    PERFORMER "Jean-Pierre Armengaud"
    REM COMPOSER ""
    INDEX 01 59:22:64


CD5:
FILE "Claude Debussy - Piano Works (5).flac" WAVE
  TRACK 01 AUDIO
    TITLE "La Boîte à joujoux, ballet pour enfants, L 136a (1913) - I. Prélude : Le sommeil de la boîte"
    PERFORMER "Aldo Ciccolini"
    REM COMPOSER "Claude Debussy"
    INDEX 01 00:00:00
  TRACK 02 AUDIO
    TITLE "La Boîte à joujoux, ballet pour enfants, L 136a (1913) - II. 1er tableau : Le magasin de jouets"
    PERFORMER "Aldo Ciccolini"
    REM COMPOSER "Claude Debussy"
    INDEX 01 02:50:09
  TRACK 03 AUDIO
    TITLE "La Boîte à joujoux, ballet pour enfants, L 136a (1913) - III. 2e tableau : Le champ de bataille"
    PERFORMER "Aldo Ciccolini"
    REM COMPOSER "Claude Debussy"
    INDEX 01 13:44:07
  TRACK 04 AUDIO
    TITLE "La Boîte à joujoux, ballet pour enfants, L 136a (1913) - IV. 3e tableau : La bergerie à vendre"
    PERFORMER "Aldo Ciccolini"
    REM COMPOSER "Claude Debussy"
    INDEX 01 22:50:45
  TRACK 05 AUDIO
    TITLE "La Boîte à joujoux, ballet pour enfants, L 136a (1913) - V. 4e tableau : Après fortune faite"
    PERFORMER "Aldo Ciccolini"
    REM COMPOSER "Claude Debussy"
    INDEX 01 28:31:49
  TRACK 06 AUDIO
    TITLE "La Boîte a joujoux, ballet pour enfants, L 136a (1913) - VI. Épilogue"
    PERFORMER "Aldo Ciccolini"
    REM COMPOSER "Claude Debussy"
    INDEX 01 30:51:37
  TRACK 07 AUDIO
    TITLE "Berceuse héroîque, L 140a (1914)"
    PERFORMER "Aldo Ciccolini"
    REM COMPOSER "Claude Debussy"
    INDEX 01 31:52:56
  TRACK 08 AUDIO
    TITLE "Page d'album, pièce pour piano pour l'oeuvre du 'Vêtement du blessé', L 141 (1915)"
    PERFORMER "Aldo Ciccolini"
    REM COMPOSER "Claude Debussy"
    INDEX 01 36:17:43
  TRACK 09 AUDIO
    TITLE "Six Épigraphes antiques, L 139b (1914-15) - I. Pour invoquer Pan, dieu vent d'été"
    PERFORMER "Aldo Ciccolini"
    REM COMPOSER "Claude Debussy"
    INDEX 01 37:23:63
  TRACK 10 AUDIO
    TITLE "Six Épigraphes antiques, L 139b (1914-15) - II. Pour un tombeau sans nom"
    PERFORMER "Aldo Ciccolini"
    REM COMPOSER "Claude Debussy"
    INDEX 01 40:11:08
  TRACK 11 AUDIO
    TITLE "Six Épigraphes antiques, L 139b (1914-15) - III. Pour que la nuit soit propice"
    PERFORMER "Aldo Ciccolini"
    REM COMPOSER "Claude Debussy"
    INDEX 01 44:01:24
  TRACK 12 AUDIO
    TITLE "Six Épigraphes antiques, L 139b (1914-15) - IV. Pour la danseuse aux crotales"
    PERFORMER "Aldo Ciccolini"
    REM COMPOSER "Claude Debussy"
    INDEX 01 46:52:06
  TRACK 13 AUDIO
    TITLE "Six Épigraphes antiques, L 139b (1914-15) - V. Pour l'Égyptienne"
    PERFORMER "Aldo Ciccolini"
    REM COMPOSER "Claude Debussy"
    INDEX 01 49:51:15
  TRACK 14 AUDIO
    TITLE "Six Épigraphes antiques, L 139b (1914-15) - VI. Pour remercier la pluie au matin"
    PERFORMER "Aldo Ciccolini"
    REM COMPOSER "Claude Debussy"
    INDEX 01 53:09:24
  TRACK 15 AUDIO
    TITLE "Élégie, L 146 (1915)"
    PERFORMER "Aldo Ciccolini"
    REM COMPOSER "Claude Debussy"
    INDEX 01 55:45:30
  TRACK 16 AUDIO
    TITLE "Douze Études (First Book), L 143a (1915) - 1. Pour les «cinq doigts» : d'après M. Czerny"
    PERFORMER "Pierre-Laurent Aimard"
    REM COMPOSER "Claude Debussy"
    INDEX 01 58:18:70
  TRACK 17 AUDIO
    TITLE "Douze études, L 143a, (First Book) : 2. Pour les Tierces"
    PERFORMER "Pierre-Laurent Aimard"
    REM COMPOSER "Claude Debussy"
    INDEX 01 61:27:45
  TRACK 18 AUDIO
    TITLE "Douze études, L 143a, (First Book) : 3. Pour les Quartes"
    PERFORMER "Pierre-Laurent Aimard"
    REM COMPOSER "Claude Debussy"
    INDEX 01 66:00:12
  TRACK 19 AUDIO
    TITLE "Douze études, L 143a, (First Book) : 4. Pour les Sixtes"
    PERFORMER "Pierre-Laurent Aimard"
    REM COMPOSER "Claude Debussy"
    INDEX 01 71:12:72
  TRACK 20 AUDIO
    TITLE "Douze études, L 143a, (First Book) : 5. Pour les Octaves"
    PERFORMER "Pierre-Laurent Aimard"
    REM COMPOSER "Claude Debussy"
    INDEX 01 75:50:43
  TRACK 21 AUDIO
    TITLE "Douze études, L 143a, (First Book) : 6. Pour les huit doigts"
    PERFORMER "Pierre-Laurent Aimard"
    REM COMPOSER "Claude Debussy"
    INDEX 01 78:15:40

本帖隐藏的内容
游客,本主题需向作者支付 7音乐币 才能浏览,金币充值, 免回复、免金币,直接查看内容请开通VIP支付


振兴捌零,人人有责。多推广 多宣传 多分享  
回复

使用道具 举报

您需要登录后才可以回帖 登录 | 立即注册 微信登录

本版积分规则

关注29

粉丝214

帖子14774

发布主题
阅读排行更多+
关闭

站长推荐上一条 /1 下一条

活动提示

[限时折扣][自购]Patricia Barber - Exclusive U.S. Release of Patricia Barber’s “Clique” – This Weekend Only 2021[DSD1024/DSF]

地址:立即购买DSD1024

我知道了
收藏帖子 返回列表 这是一个自定义按钮
音乐分享,音乐下载。
微信公众号
微信号:hires_
意见反馈:admin@maomicd.com

加入我们的官方QQ群和微信群

Powered by Discuz! X3.4 Archiver|手机版|小黑屋|捌零音乐论坛 ( 苏ICP备20015413号 )|( 苏公网安备 32030502000272号) 繁體

GMT+8, 2021-6-16 04:16