自购原抓音乐圈:只有自购、合购、原抓级高解析(hires、sacd、dsd)正版音乐资源分享!【点我打开
极速无线网卡:千兆无线网卡、服务器网卡、USB接口台式机笔记本网卡 硬盘代考无损音乐!【点我打开
广告

[演唱会] 汉斯·季默:布拉格现场 Hans Zimmer: Live in Prague (2017)/1080P//BD

[复制链接]
洛杉矶 发表于 2021-5-30 07:39:25 | 显示全部楼层 |阅读模式 打印 上一主题 下一主题
演唱曲目:
1、Driving-《为黛西小姐开车》
2、Disoombobulate-《大侦探福尔摩斯》
3、Zoosters Breakout-《马达加斯加》
4、Crimson Tide-《红潮风暴》
5、160BPM-《天使与魔鬼》
6、The Wheat-《角斗士》
7、Elysium
8、Now We Are Free
9、Chevaliers De Sangreal-《达芬奇密码》
10、Circle Of Life(Prrlude)-《狮子王》
11、Captain Jack Sparrow-《加勒比海盗》
12、Up Is Down
13、He’s A Pirate
14、You’re So Cool-《真实罗曼史》
15、Main Theme-《雨人》
16、What Are You Going To Do When You’re Not Saving The World?-《超人:钢铁之躯》
17、Journey To The Line-《细细的红线》
18、The Electro Suite-《超凡蜘蛛侠2》
19、Why So Serious?-《蝙蝠侠:黑暗骑士》
20、Why Do We Fall?
21、Introduce A Little Anarchy
22、The Fire Rises
23、Day One-《星际穿越》
24、Cornfield Chase
25、No Time For Caution
26、Stay
27、Half Remembered Dream-《盗梦空间》
28、Dream Is Collapsing
29、Mombasa
30、Time

文件信息:
General
Unique ID                      : 262326822336976170415512404292255513555 (0xC55A4EE8851D3624057A40CB2EA27BD3)
Complete name                  : M:\Hans.Zimmer.Live.in.Prague.2017.1080p.BluRay.REMUX.AVC.DTS-HD.MA.TrueHD.7.1.Atmos-FGT\Hans.Zimmer.Live.in.Prague.2017.1080p.BluRay.REMUX.AVC.DTS-HD.MA.TrueHD.7.1.Atmos-FGT.mkv
Format                         : Matroska
Format version                 : Version 4
File size                      : 40.3 GiB
Duration                       : 2 h 18 min
Overall bit rate mode          : Variable
Overall bit rate               : 41.7 Mb/s
Movie name                     : Hans.Zimmer.Live.in.Prague.2017.1080p.BluRay.REMUX.AVC.DTS-HD.MA.TrueHD.7.1.Atmos-FGT
Encoded date                   : UTC 2021-05-15 10:16:02
Writing application            : mkvmerge v56.1.0 ('My Friend') 64-bit
Writing library                : libebml v1.4.2 + libmatroska v1.6.4
Cover                          : Yes
Attachments                    : small_cover.jpg / small_cover_land.jpg / cover.jpg / cover_land.jpg

Video
ID                             : 1
ID in the original source medi : 4113 (0x1011)
Format                         : AVC
Format/Info                    : Advanced Video Codec
Format profile                 : High@L4.1
Format settings                : CABAC / 4 Ref Frames
Format settings, CABAC         : Yes
Format settings, Reference fra : 4 frames
Codec ID                       : V_MPEG4/ISO/AVC
Duration                       : 2 h 18 min
Bit rate mode                  : Variable
Bit rate                       : 29.6 Mb/s
Maximum bit rate               : 32.0 Mb/s
Width                          : 1 920 pixels
Height                         : 1 080 pixels
Display aspect ratio           : 16:9
Frame rate mode                : Constant
Frame rate                     : 24.000 FPS
Color space                    : YUV
Chroma subsampling             : 4:2:0
Bit depth                      : 8 bits
Scan type                      : Progressive
Bits/(Pixel*Frame)             : 0.596
Stream size                    : 28.7 GiB (71%)
Language                       : English
Default                        : No
Forced                         : No
Original source medium         : Blu-ray

Audio #1
ID                             : 2
ID in the original source medi : 4353 (0x1101)
Format                         : MLP FBA 16-ch
Format/Info                    : Meridian Lossless Packing FBA with 16-channel presentation
Commercial name                : Dolby TrueHD with Dolby Atmos
Codec ID                       : A_TRUEHD
Duration                       : 2 h 18 min
Bit rate mode                  : Variable
Bit rate                       : 6 070 kb/s
Maximum bit rate               : 8 331 kb/s
Channel(s)                     : 8 channels
Channel layout                 : L R C LFE Ls Rs Lb Rb
Sampling rate                  : 48.0 kHz
Frame rate                     : 1 200.000 FPS (40 SPF)
Bit depth                      : 24 bits
Compression mode               : Lossless
Stream size                    : 5.87 GiB (15%)
Title                          : TrueHD 7.1 Atmos
Language                       : English
Default                        : Yes
Forced                         : No
Original source medium         : Blu-ray
Number of dynamic objects      : 11
Bed channel count              : 1 channel
Bed channel configuration      : LFE

Audio #2
ID                             : 3
Format                         : DTS XLL
Format/Info                    : Digital Theater Systems
Commercial name                : DTS-HD Master Audio
Codec ID                       : A_DTS
Duration                       : 2 h 18 min
Bit rate mode                  : Variable
Bit rate                       : 5 237 kb/s
Channel(s)                     : 8 channels
Channel layout                 : C L R LFE Lb Rb Lss Rss
Sampling rate                  : 48.0 kHz
Frame rate                     : 93.750 FPS (512 SPF)
Bit depth                      : 24 bits
Compression mode               : Lossless
Stream size                    : 5.07 GiB (13%)
Title                          : DTS-HD MA 7.1
Language                       : English
Default                        : No
Forced                         : No

Audio #3
ID                             : 4
ID in the original source medi : 4353 (0x1101)
Format                         : AC-3
Format/Info                    : Audio Coding 3
Commercial name                : Dolby Digital
Codec ID                       : A_AC3
Duration                       : 2 h 18 min
Bit rate mode                  : Constant
Bit rate                       : 640 kb/s
Channel(s)                     : 6 channels
Channel layout                 : L R C LFE Ls Rs
Sampling rate                  : 48.0 kHz
Frame rate                     : 31.250 FPS (1536 SPF)
Compression mode               : Lossy
Stream size                    : 634 MiB (2%)
Title                          : Surround 5.1
Language                       : English
Service kind                   : Complete Main
Default                        : No
Forced                         : No
Original source medium         : Blu-ray

Text #1
ID                             : 5
Format                         : UTF-8
Codec ID                       : S_TEXT/UTF8
Codec ID/Info                  : UTF-8 Plain Text
Duration                       : 1 h 40 min
Bit rate                       : 13 b/s
Count of elements              : 250
Stream size                    : 10.2 KiB (0%)
Title                          : English-SRT
Language                       : English
Default                        : Yes
Forced                         : No

Text #2
ID                             : 6
ID in the original source medi : 4608 (0x1200)
Format                         : PGS
Muxing mode                    : zlib
Codec ID                       : S_HDMV/PGS
Codec ID/Info                  : Picture based subtitle format used on BDs/HD-DVDs
Duration                       : 1 h 40 min
Bit rate                       : 8 541 b/s
Count of elements              : 504
Stream size                    : 6.12 MiB (0%)
Title                          : English-PGS
Language                       : English
Default                        : No
Forced                         : No
Original source medium         : Blu-ray

Text #3
ID                             : 7
ID in the original source medi : 4609 (0x1201)
Format                         : PGS
Muxing mode                    : zlib
Codec ID                       : S_HDMV/PGS
Codec ID/Info                  : Picture based subtitle format used on BDs/HD-DVDs
Duration                       : 1 h 47 min
Bit rate                       : 8 697 b/s
Count of elements              : 534
Stream size                    : 6.70 MiB (0%)
Title                          : German-PGS
Language                       : German
Default                        : No
Forced                         : No
Original source medium         : Blu-ray

Text #4
ID                             : 8
ID in the original source medi : 4610 (0x1202)
Format                         : PGS
Muxing mode                    : zlib
Codec ID                       : S_HDMV/PGS
Codec ID/Info                  : Picture based subtitle format used on BDs/HD-DVDs
Duration                       : 1 h 47 min
Bit rate                       : 7 245 b/s
Count of elements              : 510
Stream size                    : 5.58 MiB (0%)
Title                          : Spanish-PGS
Language                       : Spanish
Default                        : No
Forced                         : No
Original source medium         : Blu-ray

Text #5
ID                             : 9
ID in the original source medi : 4611 (0x1203)
Format                         : PGS
Muxing mode                    : zlib
Codec ID                       : S_HDMV/PGS
Codec ID/Info                  : Picture based subtitle format used on BDs/HD-DVDs
Duration                       : 1 h 47 min
Bit rate                       : 7 453 b/s
Count of elements              : 508
Stream size                    : 5.74 MiB (0%)
Title                          : French-PGS
Language                       : French
Default                        : No
Forced                         : No
Original source medium         : Blu-ray

Menu
00:00:00.000                   : Chapter 01
00:03:24.916                   : Chapter 02
00:05:25.750                   : Chapter 03
00:08:07.625                   : Chapter 04
00:09:36.541                   : Chapter 05
00:13:51.666                   : Chapter 06
00:21:41.750                   : Chapter 07
00:25:37.541                   : Chapter 08
00:26:50.125                   : Chapter 09
00:31:43.333                   : Chapter 10
00:34:03.125                   : Chapter 11
00:38:21.958                   : Chapter 12
00:40:05.958                   : Chapter 13
00:44:36.541                   : Chapter 14
00:49:05.708                   : Chapter 15
00:51:42.458                   : Chapter 16
00:53:44.041                   : Chapter 17
00:57:56.250                   : Chapter 18
01:03:01.250                   : Chapter 19
01:04:08.541                   : Chapter 20
01:05:58.250                   : Chapter 21
01:08:08.000                   : Chapter 22
01:09:01.291                   : Chapter 23
01:13:22.291                   : Chapter 24
01:18:20.666                   : Chapter 25
01:24:45.958                   : Chapter 26
01:25:55.291                   : Chapter 27
01:31:11.958                   : Chapter 28
01:36:01.666                   : Chapter 29
01:37:33.166                   : Chapter 30
01:38:24.625                   : Chapter 31
01:40:26.666                   : Chapter 32
01:44:26.541                   : Chapter 33
01:50:17.458                   : Chapter 34
01:51:58.666                   : Chapter 35
01:53:31.416                   : Chapter 36
01:57:10.833                   : Chapter 37
02:02:37.166                   : Chapter 38
02:04:47.166                   : Chapter 39
02:06:57.875                   : Chapter 40
02:11:49.625                   : Chapter 41

度盘链接
链接: https://pan.baidu.com/s/1Osb24JgH1LQ_nhmn3fxW2g 提取码: 本帖隐藏的内容
游客,本主题需向作者支付 19音乐币 才能浏览,金币充值, 免回复、免金币,直接查看内容请开通VIP支付


温馨提示

记得善用社区搜索功能,那里可能会有你想要的资源;论坛站内搜索

如果你有什么需要的资源可以去资源求档发帖,求助社区的网友,我们会在第一时间给你回复哦;资源求档

对于本社区网盘链接失效密码错误各种报错请在反馈板块反馈报错发帖,您的支持,是我们发展的最大动力;投诉建议

回复

使用道具 举报

您需要登录后才可以回帖 登录 | 立即注册 微信登录

本版积分规则

关注4

粉丝16

帖子7690

发布主题
阅读排行更多+
关闭

站长推荐上一条 /1 下一条

活动提示

[限时折扣][自购]Patricia Barber - Exclusive U.S. Release of Patricia Barber’s “Clique” – This Weekend Only 2021[DSD1024/DSF]

地址:立即购买DSD1024

我知道了
收藏帖子 返回列表 这是一个自定义按钮
音乐分享,音乐下载。
微信公众号
微信号:hires_
意见反馈:admin@maomicd.com

加入我们的官方QQ群和微信群

Powered by Discuz! X3.4 Archiver|手机版|小黑屋|捌零音乐论坛 ( 苏ICP备20015413号 )|( 苏公网安备 32030502000272号) 繁體

GMT+8, 2021-6-13 01:30