自购原抓音乐圈:只有自购、合购、原抓级高解析(hires、sacd、dsd)正版音乐资源分享!【点我打开
极速无线网卡:千兆无线网卡、服务器网卡、USB接口台式机笔记本网卡 硬盘代考无损音乐!【点我打开
广告

[摇滚] Nifelheim - Servants Of Darkness (2000) [FLAC]

[复制链接]
tikus75 发表于 2021-5-24 10:47:09 | 显示全部楼层 |阅读模式 打印 上一主题 下一主题






Band Name: Nifelheim
Album Title: Servants Of Darkness
Total Playing Time: 00:34:41 Min.
Year: 2000
Country: Sweden
Record Label: Black Sun Records
Music Genre: black thrash metal
Rip Format: FLAC (Image+Cue+Log)
Booklet Scans: Yes
Size Archive: ~ 269 MB
Host: Yadi.sk



01. Evil Blasphemies [3:17]
02. Sadistic Blood Massacre [2:50]
03. Black Evil [2:16]
04. The Bestial Avenger [5:17]
05. War Of Doom (Armageddon) [4:16]
06. Servants Of Darkness [3:50]
07. Infernal Desolation [3:27]
08. Into The Morbid Black [5:08]
09. Sacrifice To The Lord Of Darkness [4:21]



! No longer available


EAC Log File:
Spoiler: EAC Log (click to show/hide)Exact Audio Copy V0.99 prebeta 5 from 4. May 2009
EAC extraction logfile from 29. July 2010, 14:09
Nifelheim / Servants Of Darkness
Used drive : HL-DT-STDVDRAM GH22NS50 Adapter: 3 ID: 1
Read mode       : Secure
Utilize accurate stream : Yes
Defeat audio cache   : Yes
Make use of C2 pointers : No
Read offset correction           : 667
Overread into Lead-In and Lead-Out     : No
Fill up missing offset samples with silence : Yes
Delete leading and trailing silent blocks : No
Null samples used in CRC calculations   : Yes
Used interface               : Native Win32 interface for Win NT & 2000
Used output format       : User Defined Encoder
Selected bitrate        : 768 kBit/s
Quality            : High
Add ID3 tag          : No
Command line compressor    : C:\Program Files\Exact Audio Copy\FLAC.EXE
Additional command line options : -6 -V %s

TOC of the extracted CD
  Track | Start | Length | Start sector | End sector
  ---------------------------------------------------------
    1 | 0:00.00 | 3:16.55 |    0  |  14754
    2 | 3:16.55 | 2:50.10 |  14755  |  27514
    3 | 6:06.65 | 2:16.32 |  27515  |  37746
    4 | 8:23.22 | 5:17.23 |  37747  |  61544
    5 | 13:40.45 | 4:15.47 |  61545  |  80716
    6 | 17:56.17 | 3:49.48 |  80717  |  97939
    7 | 21:45.65 | 3:26.67 |  97940  | 113456
    8 | 25:12.57 | 5:07.53 |  113457  | 136534
    9 | 30:20.35 | 4:20.67 |  136535  | 156101

Range status and errors
Selected range
  Filename D:\Nifelheim - [2000] - Servants Of Darkness\cdimage.wav
  Peak level 98.7 %
  Range quality 100.0 %
  Copy CRC 5D798712
  Copy OK
No errors occurred

AccurateRip summary
Track 1 not present in database
Track 2 not present in database
Track 3 not present in database
Track 4 not present in database
Track 5 not present in database
Track 6 not present in database
Track 7 not present in database
Track 8 not present in database
Track 9 not present in database
None of the tracks are present in the AccurateRip database
End of status report
                                                       
                                               
游客,本主题需向作者支付 10音乐币 才能浏览,金币充值, 免回复、免金币,直接查看内容请开通VIP支付

温馨提示

记得善用社区搜索功能,那里可能会有你想要的资源;论坛站内搜索

如果你有什么需要的资源可以去资源求档发帖,求助社区的网友,我们会在第一时间给你回复哦;资源求档

对于本社区网盘链接失效密码错误各种报错请在反馈板块反馈报错发帖,您的支持,是我们发展的最大动力;投诉建议

回复

使用道具 举报

您需要登录后才可以回帖 登录 | 立即注册 微信登录

本版积分规则

关注0

粉丝1

帖子30867

发布主题
阅读排行更多+
关闭

站长推荐上一条 /1 下一条

活动提示

[限时折扣][自购]Patricia Barber - Exclusive U.S. Release of Patricia Barber’s “Clique” – This Weekend Only 2021[DSD1024/DSF]

地址:立即购买DSD1024

我知道了
收藏帖子 返回列表 这是一个自定义按钮
音乐分享,音乐下载。
微信公众号
微信号:hires_
意见反馈:admin@maomicd.com

加入我们的官方QQ群和微信群

Powered by Discuz! X3.4 Archiver|手机版|小黑屋|捌零音乐论坛 ( 苏ICP备20015413号 )|( 苏公网安备 32030502000272号) 繁體

GMT+8, 2021-6-13 13:48