自购原抓音乐圈:只有自购、合购、原抓级高解析(hires、sacd、dsd)正版音乐资源分享!【点我打开
极速无线网卡:千兆无线网卡、服务器网卡、USB接口台式机笔记本网卡 硬盘代考无损音乐!【点我打开
广告

[摇滚] Sauron - Unholy Man (2015) [FLAC]

[复制链接]
10086 发表于 2021-5-24 10:47:09 | 显示全部楼层 |阅读模式 打印 上一主题 下一主题




Band Name: Sauron
Album Title: Unholy Man
Total Playing Time: 00:38:38 Min.
Country: Poland
Year: 2015
Record Label: Via Nocturna
Music Genre: Black Metal
Codec: FLAC
Rip Format: Image + Cue + Log
Booklet Scans: Yes
Archive size: ~ 328 Мб
Host: Yadi.sk




1. 2000 Years Have Been Enough 04:13
2. Chakal Chord 03:51
3. Powrót na czarcie bagna 04:49
4. Irremeabilis Unda 06:01
5. Against Humanity 04:28
6. With No Return 04:35
7. Taste of Suffering 05:27
8. Desolate Ways 05:14


EAC Log File:
Spoiler: EAC Log (click to show/hide)Exact Audio Copy V1.0 beta 3 from 29. August 2011
EAC extraction logfile from 27. March 2016, 11:53
Sauron / Unholy Man
Used drive : Optiarc DVD RW AD-7260S Adapter: 1 ID: 1
Read mode       : Secure
Utilize accurate stream : Yes
Defeat audio cache   : Yes
Make use of C2 pointers : No
Read offset correction           : 48
Overread into Lead-In and Lead-Out     : No
Fill up missing offset samples with silence : Yes
Delete leading and trailing silent blocks : No
Null samples used in CRC calculations   : Yes
Used interface               : Native Win32 interface for Win NT & 2000
Used output format : Internal WAV Routines
Sample format   : 44.100 Hz; 16 Bit; Stereo
TOC of the extracted CD
  Track | Start | Length | Start sector | End sector
  ---------------------------------------------------------
    1 | 0:00.00 | 4:13.21 |    0  |  18995
    2 | 4:13.21 | 3:51.03 |  18996  |  36323
    3 | 8:04.24 | 4:47.65 |  36324  |  57913
    4 | 12:52.14 | 6:01.74 |  57914  |  85062
    5 | 18:54.13 | 4:29.16 |  85063  | 105253
    6 | 23:23.29 | 4:35.16 |  105254  | 125894
    7 | 27:58.45 | 5:27.23 |  125895  | 150442
    8 | 33:25.68 | 5:14.38 |  150443  | 174030
Range status and errors
Selected range
  Filename C:\Мои документы\Sauron - 2015 - Unholy Man.wav
  Peak level 100.0 %
  Extraction speed 2.0 X
  Range quality 100.0 %
  Test CRC 67369D09
  Copy CRC 67369D09
  Copy OK
No errors occurred
AccurateRip summary
Track 1 not present in database
Track 2 not present in database
Track 3 not present in database
Track 4 not present in database
Track 5 not present in database
Track 6 not present in database
Track 7 not present in database
Track 8 not present in database
None of the tracks are present in the AccurateRip database
End of status report
---- CUETools DB Plugin V2.1.4
[CTDB TOCID: da5KsteST.8szi2JGpej6gVXOZk-] disk not present in database
Submit result: da5KsteST.8szi2JGpej6gVXOZk- has been uploaded
==== Log checksum 5495C7C858390A5B618BDE5F60005E07B50E670CA6D90F5B661145524A2997CC ====
                                                       
                                               
游客,本主题需向作者支付 10音乐币 才能浏览,金币充值, 免回复、免金币,直接查看内容请开通VIP支付

温馨提示

记得善用社区搜索功能,那里可能会有你想要的资源;论坛站内搜索

如果你有什么需要的资源可以去资源求档发帖,求助社区的网友,我们会在第一时间给你回复哦;资源求档

对于本社区网盘链接失效密码错误各种报错请在反馈板块反馈报错发帖,您的支持,是我们发展的最大动力;投诉建议

回复

使用道具 举报

您需要登录后才可以回帖 登录 | 立即注册 微信登录

本版积分规则

关注0

粉丝4

帖子52137

发布主题
阅读排行更多+
关闭

站长推荐上一条 /1 下一条

活动提示

[限时折扣][自购]Patricia Barber - Exclusive U.S. Release of Patricia Barber’s “Clique” – This Weekend Only 2021[DSD1024/DSF]

地址:立即购买DSD1024

我知道了
收藏帖子 返回列表 这是一个自定义按钮
音乐分享,音乐下载。
微信公众号
微信号:hires_
意见反馈:admin@maomicd.com

加入我们的官方QQ群和微信群

Powered by Discuz! X3.4 Archiver|手机版|小黑屋|捌零音乐论坛 ( 苏ICP备20015413号 )|( 苏公网安备 32030502000272号) 繁體

GMT+8, 2021-6-16 03:54